#TITLE:Gay Hands Up (feat. Alaska Thunderfuck & Peppermint);
#SUBTITLE:;
#ARTIST:Jan;
#TITLETRANSLIT:;
#SUBTITLETRANSLIT:;
#ARTISTTRANSLIT:;
#CREDIT:;
#BANNER:Gay Hands Up (feat. Alaska Thunderfuck & Peppermint).png;
#BACKGROUND:Gay Hands Up (feat. Alaska Thunderfuck & Peppermint)-bg.png;
#LYRICSPATH:;
#CDTITLE:;
#MUSIC:Gay Hands Up (feat. Alaska Thunderfuck & Peppermint).mp3;
#OFFSET:-0.580;
#SAMPLESTART:48.580;
#SAMPLELENGTH:15.000;
#SELECTABLE:YES;
#BPMS:0.000=110.000;
#STOPS:;
#BGCHANGES:;

//---------------dance-single - ----------------
#NOTES:
     dance-single:
     :
     Easy:
     5:
     0.247,0.336,0.235,0.114,0.000:
0000
0000
0000
0000
,
0000
0000
0000
0000
,
0000
0000
0000
0000
,
0000
0000
0000
0000
,
0000
1000
0010
1000
,
0000
0001
0100
0001
,
0000
1000
0010
1000
,
0000
0010
0100
0010
,
0210
0010
0310
0010
,
1000
0001
0100
0001
,
1000
0010
1000
0010
,
0010
0100
0010
0100
,
1010
1000
0010
0100
,
0001
0100
1000
0100
,
0001
1000
0010
1000
,
0100
0010
0001
1000
,
0020
0000
0000
0000
,
0000
0000
0000
0000
,
1030
0010
1000
0000
,
0001
0100
0010
0000
,
0100
0010
1000
0000
,
0001
1000
0001
0000
,
1001
0110
1001
0210
,
0310
0110
1000
0010
,
1000
0001
0100
0010
,
0101
1010
1100
0012
,
0013
1001
1000
0001
,
0100
1000
0010
0100
,
0002
1000
1000
1003
,
2000
0010
0010
3010
,
0200
0010
0010
0310
,
0110
1001
0110
2001
,
3001
0110
0010
1000
,
0010
0100
0001
0100
,
0002
1000
0000
1000
,
0000
1000
0000
1003
,
0000
0010
0000
0100
,
0000
0010
0000
1000
,
0000
1002
0000
1000
,
0000
1003
0000
0010
,
0000
1000
0000
0100
,
0000
0010
0000
0001
,
0000
1000
0001
1000
,
0000
0010
0010
0010
,
0000
0100
0010
0001
,
0000
1000
0100
0010
,
0000
1000
0000
0001
,
0000
1000
0000
0010
,
0000
1000
0000
0001
,
0000
0100
0000
0001
,
0000
1000
0000
0010
,
1001
0110
1001
0120
,
0130
0110
0001
0100
,
0001
1000
0010
0100
,
1010
0101
0011
2100
,
3100
1001
0001
1000
,
0010
0001
0100
0010
,
2000
0001
0001
3001
,
0002
0100
0100
0103
,
0020
0100
0100
0130
,
0110
1001
0110
1002
,
1003
0110
0100
0001
,
0100
0000
0010
0000
1000
0000
0010
0100
,
0010
0000
0000
0000
;

//---------------dance-single - ----------------
#NOTES:
     dance-single:
     :
     Beginner:
     2:
     0.162,0.180,0.064,0.043,0.000:
0000
0000
0000
0000
,
0000
0000
0000
0000
,
0000
0000
0000
0000
,
0000
0000
0000
0000
,
0000
0100
0000
0100
,
0000
0100
0000
0100
,
0000
1000
0000
1000
,
0000
1000
0000
1000
,
0000
0001
0000
1000
,
0000
0001
0000
0100
,
0000
0010
0000
0100
,
0000
0010
0000
0100
,
0000
0010
0010
0010
,
0000
1000
1000
1000
,
0000
1000
1000
1000
,
0000
0001
0001
0001
,
2002
0000
0000
0000
,
0000
0000
0000
0000
,
3003
1000
0000
0001
,
0000
0100
0000
0010
,
0000
0100
0000
0010
,
0000
1000
0000
0100
,
0010
0100
0010
0100
,
0010
0110
0000
0010
,
0000
0100
0000
0001
,
1000
0001
1000
0001
,
1000
1001
0000
0010
,
0000
0100
0000
0001
,
0000
0010
0000
0100
,
0000
1000
0000
1000
,
0000
0100
0000
1000
,
0001
1000
0001
1000
,
0001
1001
0000
1000
,
0000
1000
0000
0001
,
0002
0000
0000
0000
,
0000
0000
0003
0001
,
0000
0100
0000
0010
,
0000
1000
0000
1000
,
0000
2000
0000
3000
,
0000
0010
0000
0100
,
0000
0001
0000
0010
,
0000
0100
0000
1000
,
0000
1000
1000
1000
,
0000
0010
0010
0010
,
0000
1000
1000
1000
,
0000
0001
0001
0001
,
0000
1000
0001
1000
,
0000
0010
0100
0010
,
0000
1000
0010
1000
,
0000
0001
0100
0001
,
0000
0010
0100
0010
,
0100
0010
0100
0010
,
0100
0110
0000
0100
,
0000
0010
0000
1000
,
0001
1000
0001
1000
,
0001
1001
0000
0100
,
0000
0010
0000
1000
,
0000
0100
0000
0010
,
0000
0001
0000
0001
,
0000
0010
0000
0001
,
1000
0001
1000
0001
,
1000
1001
0000
0001
,
0000
0001
0000
0110
,
2002
3003
0000
0000
;

//---------------dance-single - ----------------
#NOTES:
     dance-single:
     :
     Medium:
     8:
     0.298,0.358,0.228,0.164,0.025:
0000
0000
0000
0000
,
0000
0000
0000
0000
,
0000
0000
0000
0000
,
0000
0000
0000
0000
,
0001
1000
1000
0001
,
1000
0001
1000
0000
0100
0000
0010
0000
,
0001
0010
0100
1000
,
0010
1000
0001
0100
,
0102
1000
0103
0010
,
1000
0001
0100
0001
,
0100
0100
0010
0100
,
0100
0010
1000
0001
,
0100
0001
0010
0000
0100
1000
0001
0000
,
1000
0001
1000
0000
0100
0010
0100
0000
,
0010
0100
1000
0000
0001
0100
0010
0000
,
1000
0001
0100
0000
0010
0100
0010
0000
,
0220
0000
0000
0000
,
0000
0000
0000
0000
,
0330
0000
0010
0000
1000
0001
1000
0000
,
0010
0000
0100
0000
0010
0100
0010
0000
,
1000
0000
0001
0000
1000
0001
1000
0000
,
0001
0000
0100
0000
0100
0001
0100
0001
,
0201
0000
0000
0000
0301
0000
0000
0000
0010
0000
0000
0000
0210
0000
0000
0310
,
0000
1001
0001
1000
,
0010
0100
0010
1000
,
0210
0000
0000
0000
0310
0000
0000
0000
0100
0000
0000
0000
2001
0000
0000
3010
,
0000
1001
0001
0010
,
0100
1000
0010
1000
,
2001
0100
3001
0010
,
0201
0010
0301
0010
,
0102
1000
1003
1001
,
2001
0000
0000
0000
3001
0000
0000
0000
0100
0000
0000
0000
0120
0000
0000
0130
,
0000
0110
0010
1000
,
0010
0100
0001
0100
,
0002
0010
1000
0100
,
0000
0010
1000
0100
,
0000
0010
1000
0100
,
0003
1000
0001
1000
,
0000
2000
0000
3001
,
0000
0001
0100
0001
,
0000
1000
0010
1000
,
0000
0010
0100
0010
,
0000
1010
0000
0100
,
0000
0101
0000
0010
,
0001
0100
0001
0100
0010
1000
0010
0000
,
1000
0001
1000
0010
0100
0010
0100
0000
,
0000
0101
0000
0010
,
0000
1010
0000
0100
,
1000
0010
1000
0010
0100
0001
0100
0000
,
0001
1000
0001
0100
0010
0100
0010
0000
,
0000
1000
0000
0001
,
1020
0000
0000
0000
1030
0000
0000
0000
0100
0000
0000
0000
0120
0000
0000
0130
,
0000
1001
1000
0001
,
0100
0010
0100
0001
,
0120
0000
0000
0000
0130
0000
0000
0000
0010
0000
0000
0000
1002
0000
0000
0103
,
0000
1001
1000
0100
,
0010
0001
0100
0001
,
1002
0010
1003
0100
,
1020
0100
1030
0100
,
2010
0001
3001
1001
,
1002
0000
0000
0000
1003
0000
0000
0000
0010
0000
0000
0000
0210
0000
0000
0310
,
0000
0110
0100
0001
,
0100
0000
0000
0000
0010
0000
0000
0000
1000
0000
0000
0000
0010
0000
1000
0001
;

//---------------dance-single - ----------------
#NOTES:
     dance-single:
     :
     Hard:
     14:
     0.417,0.560,0.185,0.235,0.213: // measure 1
0000
0000
0000
0000
,  // measure 2
0000
0000
0000
0000
,  // measure 3
0000
0000
0000
0000
,  // measure 4
0000
0000
0000
0000
0000
0000
0000
0000
0100
0000
0000
0010
0100
0000
0010
0000
,  // measure 5
1000
0000
0000
0000
0000
0000
1010
0000
0000
0000
0010
0100
0010
0000
0100
0000
,  // measure 6
0000
0000
0100
0001
0100
0000
0000
0000
0002
0000
0000
0023
0000
0000
0130
0000
,  // measure 7
2000
0001
0000
3001
,  // measure 8
0000
0000
0000
0000
0010
0000
0000
0000
0100
0000
0000
0100
0001
0000
0100
0000
,  // measure 9
0001
0000
0100
0000
0010
0000
0000
0100
0010
0000
0100
0010
0000
0000
0000
0010
,  // measure 10
1000
0010
1000
0000
0001
0000
0000
0000
0100
0001
0100
0001
0010
0000
0000
0000
,  // measure 11
1000
0000
0010
0000
1000
0000
0001
0000
0100
0000
0001
0000
1000
0001
0000
0000
,  // measure 12
0001
1000
0001
1000
0010
0000
1000
0000
0010
0100
0010
0100
0010
0000
0100
0000
,  // measure 13
0001
0000
0100
0010
0100
0000
0010
0000
0100
0001
0100
0010
1000
0000
0010
0000
,  // measure 14
1000
0010
0100
0001
0100
0000
1000
0010
0000
0010
1000
0000
0001
0000
0100
0000
,  // measure 15
0000
0000
0010
0000
1000
0000
0010
0000
0100
0000
0010
1000
0010
0000
0000
0100
,  // measure 16
0001
0000
1000
0010
0100
0000
0001
0100
0010
0000
0100
0010
1000
0000
0000
0000
,  // measure 17
2000
0000
0000
0000
0000
0010
0010
0010
,  // measure 18
3000
0002
0000
0000
,  // measure 19
0003
0000
0001
0000
0100
0000
0001
1000
0010
0000
0010
0100
0000
0000
0000
0010
,  // measure 20
0100
0010
0100
0010
1000
0000
1000
0010
0100
0000
0010
0100
0000
0000
0100
0001
,  // measure 21
0100
0010
1000
0001
0100
0000
0010
0000
0100
0010
0000
1000
0000
0000
0100
0001
,  // measure 22
0010
0000
1000
0010
0100
0000
0010
0100
0010
1000
0001
1000
0010
0000
0100
0000
,  // measure 23
0210
0000
0000
0000
0310
0000
0000
0000
0110
0000
0000
0000
2001
0000
0000
3001
,  // measure 24
0000
0000
0110
0000
0001
0100
0001
1000
,  // measure 25
0020
1030
0010
1000
,  // measure 26
0102
0000
0000
0000
0103
0000
0000
0000
0101
0000
0000
0000
2010
0000
0000
3010
,  // measure 27
0000
0000
0000
0000
1010
0000
1000
0010
1000
0000
0100
0000
0010
0000
0001
0000
,  // measure 28
0200
0301
0001
0100
,  // measure 29
0020
1000
0100
1030
,  // measure 30
2000
0001
0100
3001
,  // measure 31
0002
0100
1000
0103
,  // measure 32
0120
0000
0000
0000
0130
0000
0000
0000
0110
0000
0000
0000
2001
0000
0000
3001
,  // measure 33
0000
1001
0001
0100
,  // measure 34
0001
1000
0010
0100
,  // measure 35
2000
0001
0001
0001
,  // measure 36
3002
0100
0100
0100
,  // measure 37
0203
0010
0010
0010
,  // measure 38
0320
1000
1000
1000
,  // measure 39
1030
2002
0000
3003
,  // measure 40
0000
0010
0100
0010
,  // measure 41
0000
1000
0001
1000
,  // measure 42
0000
0001
1000
0001
,  // measure 43
1000
0000
0000
0001
1000
0000
0001
0000
0100
0000
0010
0000
1000
0000
0000
0010
,  // measure 44
0000
0000
0000
0100
0001
1000
0010
0100
,  // measure 45
0010
1000
0001
0010
1000
0010
0001
0000
,  // measure 46
0100
0010
0100
0000
0010
0000
1000
0000
0010
0000
0100
0000
0001
0000
0100
0000
,  // measure 47
0001
0000
0000
1000
0001
0000
1000
0000
0010
0000
0100
0000
0001
0000
0000
0100
,  // measure 48
0000
0000
0000
0010
1000
0001
0100
0010
,  // measure 49
0100
0001
1000
0100
0001
0100
1000
0000
,  // measure 50
0010
0100
0010
0000
0100
0000
0001
0000
0100
0000
0010
0000
1000
0000
0010
0000
,  // measure 51
1000
0001
0100
0001
1000
0001
1000
0000
,  // measure 52
0120
0000
0000
0000
0130
0000
0000
0000
0110
0000
0000
0000
1002
0000
0000
1003
,  // measure 53
0000
0000
0110
0000
1000
0010
1000
0001
,  // measure 54
0200
0301
0100
0001
,  // measure 55
2010
0000
0000
0000
3010
0000
0000
0000
1010
0000
0000
0000
0102
0000
0000
0103
,  // measure 56
0000
0000
0000
0000
0101
0000
0001
0100
0001
0000
0010
0000
0100
0000
1000
0000
,  // measure 57
0020
1030
1000
0010
,  // measure 58
0200
0001
0010
0301
,  // measure 59
0002
1000
0010
1003
,  // measure 60
2000
0010
0001
3010
,  // measure 61
0210
0000
0000
0000
0310
0000
0000
0000
0110
0000
0000
0000
1002
0000
0000
1003
,  // measure 62
0000
1001
1000
0010
,  // measure 63
1000
0000
0000
0000
0001
0000
0000
0000
0100
0000
0000
0000
0010
0000
0100
0010
;
