#TITLE:Future Starts Now;
#SUBTITLE:;
#ARTIST:Kim Petras;
#TITLETRANSLIT:;
#SUBTITLETRANSLIT:;
#ARTISTTRANSLIT:;
#CREDIT:;
#BANNER:Future Starts Now.png;
#BACKGROUND:Future Starts Now-bg.png;
#LYRICSPATH:;
#CDTITLE:;
#MUSIC:Future Starts Now.mp3;
#OFFSET:-0.420;
#SAMPLESTART:12.420;
#SAMPLELENGTH:15.000;
#SELECTABLE:YES;
#BPMS:0.000=120.000;
#STOPS:;
#BGCHANGES:;

//---------------dance-single - ----------------
#NOTES:
     dance-single:
     :
     Easy:
     4:
     0.239,0.316,0.116,0.099,0.000:
0000
0000
0000
0000
,
0000
0000
0000
0000
,
0000
0000
0000
0000
,
0000
0000
0000
0000
,
0100
0000
0010
0000
,
0100
0000
0000
1001
,
0010
0100
0010
1000
,
0000
0100
0001
0010
,
0000
0100
0010
1000
,
0000
1000
0010
0001
,
0000
0001
0010
0100
,
0000
1000
0010
1000
,
0000
0100
0010
0001
,
0000
0010
0100
1000
,
0000
0001
1000
0001
,
0000
0100
0010
0100
,
0000
0010
1000
0010
,
0000
0100
0001
0010
,
0000
0100
1000
0010
,
0000
1000
0100
0010
,
0000
1000
0001
0100
,
0000
0010
0100
0001
,
2002
3003
0000
0010
,
0100
0010
1000
0100
,
0110
0000
0000
0001
,
0100
0010
0100
0001
,
0101
0000
0000
0100
,
0010
1000
0001
1000
,
1001
0000
0000
0001
,
0100
0010
1000
0100
,
0110
0000
0000
1000
,
0100
0010
0001
0100
,
0101
0000
0000
1000
,
0001
0100
0001
1000
,
1010
0000
0000
0010
,
0100
0001
1000
0010
,
0101
0000
0000
0010
,
0100
0001
1000
0010
,
0220
0000
0030
0320
0000
0000
2030
0000
,
0000
0000
0000
3000
,
2002
0000
3000
0203
0000
0000
0302
0000
,
0100
0100
1000
1003
,
0001
0100
0010
0100
,
0001
1000
0010
0100
,
1000
0010
0100
0010
,
1000
0001
0001
0100
,
0010
0100
0001
1000
,
0001
1000
0010
0100
,
0010
1000
0010
0100
,
0010
0100
0010
1000
,
1001
0001
0100
0010
,
1000
0010
0100
0001
,
1000
0010
0001
0010
,
1000
0001
0100
0001
,
1000
0100
0010
0001
,
0001
0100
1000
0100
,
0001
0010
1000
0010
,
0001
1000
0001
1001
,
2002
0000
0000
3003
;

//---------------dance-single - ----------------
#NOTES:
     dance-single:
     :
     Beginner:
     2:
     0.170,0.293,0.058,0.050,0.000:
0000
0000
0000
0000
,
0000
0000
0000
0000
,
0000
0000
0000
0000
,
0000
0000
0000
0000
,
0001
0000
0100
0000
,
0001
0000
0000
0110
,
0000
0010
0000
0010
,
0000
0100
0000
0001
,
0000
1000
0000
1000
,
0000
0010
0000
0100
,
0000
0010
0000
1000
,
0000
0001
0000
0010
,
0000
0100
0000
1000
,
0000
0010
0000
1000
,
0000
0100
0000
0010
,
0000
0001
0000
1000
,
0000
0001
0000
0100
,
0000
0001
0000
1000
,
0000
0010
0000
0100
,
0000
0010
0000
0100
,
0000
1000
0000
0010
,
0000
1000
0000
0001
,
0000
1000
0000
0001
,
0000
0001
0001
0001
,
0000
0001
0001
0001
,
0000
1000
1000
1000
,
0000
0100
0100
0100
,
0000
0010
0100
0010
,
0000
0001
1000
0001
,
0000
1000
0010
1000
,
0000
0010
0100
0010
,
0000
1000
1000
1000
,
0000
1000
1000
1000
,
0000
0001
0001
0001
,
0000
0010
0010
0010
,
0000
0100
0010
0100
,
0000
1000
0001
1000
,
0000
0001
0100
0001
,
0000
0100
0000
0020
,
0000
0000
0000
0030
,
2000
0000
3000
2002
,
3003
0110
1001
0110
,
0000
0010
0000
0100
,
0000
0001
0000
1000
,
0000
0010
0000
0100
,
0000
0010
0000
1000
,
0000
0001
0000
1000
,
0000
0001
0000
0100
,
0000
0001
0000
1000
,
0000
0010
0000
0100
,
0000
0010
0010
1000
,
0000
0100
0100
0001
,
0000
0001
0001
1000
,
0000
1000
1000
0010
,
0000
0100
0100
0010
,
0000
0010
0010
1000
,
0000
0010
0010
0100
,
0000
0001
0001
1001
,
0220
0000
0000
0000
,
0330
0000
0000
0000
;

//---------------dance-single - ----------------
#NOTES:
     dance-single:
     :
     Medium:
     6:
     0.251,0.316,0.108,0.066,0.000:
0000
0000
0000
0000
,
0000
0000
0000
0000
,
0000
0000
0000
0000
,
0000
0000
0000
0000
,
0010
0000
0100
0010
0100
0000
0001
1000
,
0001
0100
0010
1001
,
0110
0000
0000
0010
0000
0000
1000
0000
,
0001
0100
0010
0100
,
0101
0000
0000
0010
0000
0000
0100
0000
,
0010
1000
0010
0100
,
1010
0000
0000
0100
0000
0000
0100
0000
,
0010
1000
0010
0100
,
0110
0000
0000
1000
0000
0000
0001
0000
,
0010
0100
0010
1000
,
0110
0000
0000
0100
0000
0000
0001
0000
,
1000
0010
0100
0010
,
1010
0000
0000
0100
0000
0000
0010
0000
,
0100
0001
0100
0010
,
0101
0000
0000
0010
0000
0000
0010
0000
,
0100
0001
0100
0010
,
0110
0000
0000
0001
0000
0000
1000
0000
,
0100
0010
0100
0001
,
2002
0000
0000
3003
,
0001
0000
0100
0001
0100
0000
0010
0000
,
0000
0100
0000
0010
,
1000
0000
1000
0100
0010
0000
0100
0000
,
0000
0010
0000
0100
,
0001
0000
0100
0010
0001
0000
0100
0000
,
0000
0010
0000
1000
,
1000
0000
0001
1000
0001
0000
0100
0000
,
1001
0010
0000
0100
,
1000
0000
0010
1000
0010
0000
0100
0000
,
0000
0010
0000
0100
,
0001
0000
0001
0010
0100
0000
0010
0000
,
0000
0100
0000
0010
,
1000
0000
0010
0100
1000
0000
0010
0000
,
0000
0100
0000
0001
,
0001
0000
1000
0001
1000
0000
0010
0000
,
2000
0000
0000
3200
0000
0000
0320
0000
,
0000
0000
0000
0030
,
0020
0000
0000
0032
0000
0000
0023
0000
,
0100
0100
0130
1001
,
0001
0000
0000
0100
0000
0000
0010
0000
,
0100
0010
1000
0010
,
0100
0000
0000
0001
0000
0000
0100
0000
,
0001
1000
0100
0010
,
0001
0000
0000
0100
0000
0000
0010
0000
,
1000
0001
0100
0001
,
1000
0000
0000
0010
0000
0000
0010
0000
,
0100
0010
0100
0001
,
1000
0000
0000
0010
0000
0000
0100
0000
,
0010
0100
0001
0100
,
0010
0000
0000
1000
0000
0000
0010
0000
,
1000
0001
0010
0100
,
1000
0000
0000
0010
0000
0000
0100
0000
,
0001
1000
0010
1000
,
0001
0000
0000
0100
0000
0000
0100
0000
,
0010
0100
0010
1000
,
0001
0000
0000
1000
0000
0000
1001
0000
;

//---------------dance-single - ----------------
#NOTES:
     dance-single:
     :
     Hard:
     9:
     0.411,0.415,0.248,0.464,0.066: // measure 1
0000
0000
0000
0000
,  // measure 2
0000
0000
0000
0000
,  // measure 3
0000
0000
0000
0000
,  // measure 4
0000
0000
0000
0000
,  // measure 5
0010
0000
0010
0100
0010
0000
0100
0010
,  // measure 6
0100
0001
0010
1001
,  // measure 7
0101
0000
0000
0000
0000
0000
0011
0000
0000
0000
0000
0000
0101
0000
0000
0002
,  // measure 8
0000
0100
0103
0010
1000
0010
0100
0010
,  // measure 9
1010
0000
0000
0000
0000
0000
0110
0000
0000
0000
0000
0000
1001
0000
0000
2000
,  // measure 10
0000
0000
0001
0000
3001
0000
0010
0000
0100
0000
1000
0000
0010
0000
0000
1001
,  // measure 11
0000
0000
0000
0000
0000
0000
0110
0000
0000
0000
0000
0000
1001
0000
0000
0020
,  // measure 12
0000
0100
0130
0010
0001
0100
1000
0100
,  // measure 13
1100
0000
0000
0000
0000
0000
0110
0000
0000
0000
0000
0000
0011
0000
0000
0002
,  // measure 14
0000
0010
0013
0001
0010
0100
1000
0000
,  // measure 15
1010
0000
0000
0000
0000
0000
1100
0000
0000
0000
0000
0000
1010
0000
0000
2000
,  // measure 16
0000
0010
3010
0100
0001
0100
0010
0100
,  // measure 17
0101
0000
0000
0000
0000
0000
0110
0000
0000
0000
0000
0000
1001
0000
0000
0002
,  // measure 18
0000
0000
1000
0000
1003
0000
0100
0000
0010
0000
0001
0000
0100
0000
0000
1001
,  // measure 19
0000
0000
0000
0000
0000
0000
0110
0000
0000
0000
0000
0000
1001
0000
0000
0200
,  // measure 20
0000
0010
0310
0100
1000
0010
0001
0010
,  // measure 21
0011
0000
0000
0000
0000
0000
0110
0000
0000
0000
0000
0000
1100
0000
0000
2000
,  // measure 22
0000
0100
3100
1000
0100
0010
0001
0000
,  // measure 23
1001
0010
0100
0010
,  // measure 24
1000
0000
0000
0000
1000
0000
0010
0000
0001
0000
0010
0000
1000
0000
0000
0010
,  // measure 25
0000
0100
0001
0010
,  // measure 26
0001
0000
0001
1000
0001
1000
0001
0000
,  // measure 27
0100
0010
1000
0010
,  // measure 28
0100
0000
0000
0000
1000
0000
0100
0000
0010
0000
0001
0000
0001
0000
0000
0010
,  // measure 29
0000
0100
0010
1000
,  // measure 30
0001
0000
0100
0001
1000
0010
0100
0000
,  // measure 31
1001
0100
0010
0100
,  // measure 32
0001
0000
0000
0000
0001
0000
0100
0000
1000
0000
0100
0000
0001
0000
0000
0100
,  // measure 33
0000
0010
1000
0100
,  // measure 34
1000
0000
1000
0001
1000
0001
1000
0000
,  // measure 35
0010
0100
0001
0100
,  // measure 36
0010
0000
0000
0000
0001
0000
0010
0000
0100
0000
1000
0000
1000
0000
0000
0100
,  // measure 37
0000
0010
0100
0001
,  // measure 38
1000
0000
0010
1000
0001
0100
0010
0000
,  // measure 39
0210
0000
0000
0320
0000
0000
2030
0000
,  // measure 40
0000
0000
0000
3000
,  // measure 41
2000
0000
0000
3002
0000
0000
2003
0000
,  // measure 42
0001
0010
3001
1001
,  // measure 43
2000
0000
3200
0320
0000
0032
0023
0000
,  // measure 44
0100
0100
0100
0130
,  // measure 45
0002
0000
2003
3002
0000
2003
3002
0000
,  // measure 46
0010
1000
0010
1003
,  // measure 47
0200
0000
0320
2030
0000
3020
0230
0000
,  // measure 48
0010
0000
0000
0000
0001
0000
0000
0000
0010
0000
0000
0000
0301
0000
0001
0100
,  // measure 49
0020
0000
2030
3002
0000
0203
0320
0000
,  // measure 50
1000
1000
1000
1030
,  // measure 51
0002
0000
0023
0230
0000
2300
3200
0000
,  // measure 52
0010
0010
0010
0310
,  // measure 53
2000
0000
3002
2003
0000
3002
2003
0000
,  // measure 54
0100
0001
0100
3001
,  // measure 55
0020
0000
0230
0302
0000
0203
0320
0000
,  // measure 56
0100
0000
0000
0000
1000
0000
0000
0000
0100
0000
0000
0000
1030
0000
1000
0010
,  // measure 57
0200
0000
0302
2003
0000
3020
0230
0000
,  // measure 58
0001
0001
0001
0301
,  // measure 59
2002
0000
0000
0000
,  // measure 60
3003
0000
0000
0000
;
