#TITLE:Find Yourself (Ashworth Remix);
#SUBTITLE:;
#ARTIST:Great Good Fine Ok & Before You Exit;
#TITLETRANSLIT:;
#SUBTITLETRANSLIT:;
#ARTISTTRANSLIT:;
#CREDIT:;
#BANNER:Find Yourself (Ashworth Remix).png;
#BACKGROUND:Find Yourself (Ashworth Remix)-bg.png;
#LYRICSPATH:;
#CDTITLE:;
#MUSIC:Find Yourself (Ashworth Remix).mp3;
#OFFSET:-0.320;
#SAMPLESTART:59.240;
#SAMPLELENGTH:15.000;
#SELECTABLE:YES;
#BPMS:0.000=114.000;
#STOPS:;
#BGCHANGES:;

//---------------dance-single - ----------------
#NOTES:
     dance-single:
     :
     Easy:
     4:
     0.202,0.251,0.026,0.078,0.000:
0000
0000
0000
0000
,
0000
0000
0000
0000
,
0000
0000
0000
0000
,
0000
0000
0000
0000
,
0001
0000
0100
0000
,
0001
0000
1000
0000
,
0010
0000
1000
0000
,
0100
0000
1000
0000
,
0010
0100
0000
0010
,
0100
0010
0000
0100
,
0000
0001
0000
1000
,
0001
1000
0000
0010
,
0110
0100
0000
0001
,
0100
0001
0000
1000
,
0100
0010
0000
0100
,
0010
0001
0000
0001
,
1000
0001
0000
1000
,
0100
0001
0000
0001
,
0010
0100
0000
1000
,
0001
1000
0000
0001
,
0001
0100
0010
0100
,
0100
0010
1000
0010
,
1000
0001
0100
0001
,
1000
0000
0000
0000
,
1000
0010
1000
0010
,
0100
0001
0100
0001
,
0010
0100
1000
0010
,
1000
0000
1000
1000
,
1001
0001
0100
0010
,
0200
0310
1000
0010
,
1000
0010
0100
0001
,
0200
0301
1000
0001
,
1000
0001
0100
0010
,
0100
0010
0100
0010
,
0001
1000
0100
0010
,
2000
3010
1000
0010
,
1000
0001
0100
0001
,
0200
0301
0001
0100
,
0010
1000
0010
0100
,
0002
1003
0001
0100
,
0010
0100
0001
1000
,
2000
3010
0010
0100
,
0010
1000
0001
0100
,
0002
1003
0010
0100
,
0000
0010
0000
0100
,
0000
0001
0000
1000
,
0000
0010
0000
1000
,
0000
0001
0000
0100
,
0000
0001
0000
0010
,
0000
0001
0000
1000
,
0000
0010
0000
1000
,
0000
0010
0000
0100
,
0220
0000
0000
0000
,
0330
0000
0000
0000
;

//---------------dance-single - ----------------
#NOTES:
     dance-single:
     :
     Beginner:
     2:
     0.166,0.228,0.069,0.017,0.000:
0000
0000
0000
0000
,
0000
0000
0000
0000
,
0000
0000
0000
0000
,
0000
0000
0000
0000
,
0000
0100
0000
0100
,
0000
0001
0000
1000
,
0000
0010
0000
1000
,
0000
0001
0000
0001
,
0000
0100
0000
0010
,
0000
0010
0000
0100
,
0000
0001
0000
1000
,
0000
0001
0000
0100
,
0000
0001
0000
0001
,
0000
1000
0000
0010
,
0000
1000
0000
0010
,
0000
0100
0000
0010
,
0010
0010
0000
1000
,
1000
1000
0000
0001
,
0001
0001
0000
0100
,
0100
0100
0000
0110
,
0000
0010
0000
1000
,
0000
1000
0000
0100
,
0000
0010
0000
0100
,
0000
0100
0000
0010
,
0000
1000
0001
1000
,
0000
0010
0100
0010
,
0000
1000
0010
1000
,
0010
0000
0110
1001
,
0001
0001
0001
0000
,
0100
0100
0100
0000
,
0010
0010
0010
0000
,
1000
1000
1000
0000
,
0001
0001
0001
0000
,
0010
0010
0010
0000
,
0001
0001
0001
0000
,
1000
1000
1000
0000
,
0110
1001
0110
0000
,
0010
0100
0010
0000
,
1000
0010
1000
0000
,
0001
0100
0001
0000
,
0010
0100
0010
0000
,
1000
0001
1000
0000
,
0001
0010
0001
0000
,
0100
0010
0100
0000
,
0010
0100
0010
0000
,
1000
1000
1000
0000
,
0010
0100
0010
0000
,
0001
0001
0001
0000
,
1001
0000
0000
0001
,
0000
0010
0000
0100
,
0000
1000
0000
0010
,
0000
1000
0000
0001
,
2002
0000
0000
0000
,
3003
0000
0000
0000
;

//---------------dance-single - ----------------
#NOTES:
     dance-single:
     :
     Medium:
     7:
     0.261,0.320,0.103,0.060,0.000:
0000
0000
0000
0000
,
0000
0000
0000
0000
,
0000
0000
0000
0000
,
0000
0000
0000
0000
,
1001
0010
0000
0100
,
0000
0010
0000
1000
,
0000
0001
0000
1000
,
0000
0100
0000
0010
,
0000
0001
0000
1000
,
0000
0010
0000
1000
,
0000
0001
0000
0001
,
0000
0100
0000
0010
,
0010
0100
0010
0000
0000
0000
0001
0000
,
1000
0001
0100
0000
0000
0000
0010
0000
,
0100
0010
0100
0000
0000
0000
0001
0000
,
0001
0010
0100
0000
0000
0000
1000
0000
,
1000
0010
1000
0000
0000
0000
0010
0000
,
0100
0010
0100
0000
0000
0000
0100
0000
,
0100
0010
0001
0000
0000
0000
1000
0000
,
1000
0001
0100
0000
0000
0000
0010
0000
,
0110
0100
0010
2000
,
3010
0100
0010
0002
,
0103
0000
0010
0000
2000
0000
0000
3001
,
0000
0001
1000
0001
,
0110
0010
0100
0002
,
0103
0010
0100
2000
,
3010
0000
0100
0000
0002
0000
0000
1003
,
0000
1000
0001
1000
,
1001
0000
1000
0000
0010
1000
0010
0000
,
0010
0000
0100
0000
1000
0100
0010
0001
,
0101
0000
0001
0000
0001
0100
0001
0000
,
0010
0000
0100
0000
0001
1000
0001
1000
,
0110
0000
0010
0000
0100
0010
0100
0000
,
0010
0000
1000
0000
0100
0010
1000
0001
,
1010
0000
1000
0000
0001
0100
0001
0000
,
0001
0000
0100
0000
0001
0100
1000
0100
,
1001
0000
0001
0000
0100
0001
0100
0000
,
0100
0000
0010
0000
0001
0010
0100
1000
,
1010
0000
1000
0000
1000
0010
1000
0000
,
0100
0000
0010
0000
1000
0001
1000
0001
,
0110
0000
0100
0000
0010
0100
0010
0000
,
0100
0000
0001
0000
0010
0100
0001
1000
,
0101
0000
0001
0000
1000
0010
1000
0000
,
1000
0000
0010
0000
1000
0010
0001
0010
,
1001
0001
0001
0001
,
0000
0100
0100
0100
,
0000
0010
0010
0010
,
0000
1000
1000
1000
,
0000
1000
0001
1000
,
0000
0010
0100
0010
,
0000
1000
0010
1000
,
0000
0100
0010
0100
,
0020
0000
0000
0000
,
0030
0000
0000
0000
;

//---------------dance-single - ----------------
#NOTES:
     dance-single:
     :
     Hard:
     9:
     0.328,0.320,0.138,0.138,0.026: // measure 1
0000
0000
0000
0000
,  // measure 2
0000
0000
0000
0000
,  // measure 3
0000
0000
0000
0000
,  // measure 4
0000
0000
0000
0000
,  // measure 5
0010
1000
0010
1000
0010
0100
0000
0000
,  // measure 6
0001
0010
0100
1000
0010
1000
0000
0000
,  // measure 7
0001
1000
0010
1000
0001
1000
0000
0000
,  // measure 8
0001
0010
1000
0010
0001
1000
0000
0000
,  // measure 9
0100
0010
0100
0001
1000
0010
0000
0000
,  // measure 10
1000
0010
0100
0010
1000
0001
0000
0000
,  // measure 11
0001
0100
0010
0100
0010
1000
0000
0000
,  // measure 12
1000
0001
0100
0010
0100
0001
0000
1000
,  // measure 13
0000
0010
0000
0000
0100
0000
0000
0000
0010
0000
0100
0000
0010
0000
1000
0000
,  // measure 14
0000
0001
0000
0000
0100
0000
0000
0000
0001
0000
0100
0000
0001
0000
0000
0000
,  // measure 15
1000
0010
0100
0000
0010
0100
0010
0000
,  // measure 16
1000
0000
0000
0010
0000
0000
1000
0000
0000
0001
0000
0000
0100
0000
0001
0000
,  // measure 17
0000
0100
0000
0000
0010
0000
0000
0000
0100
0000
0010
0000
0100
0000
0001
0000
,  // measure 18
0000
1000
0000
0000
0010
0000
0000
0000
1000
0000
0010
0000
1000
0000
0000
0000
,  // measure 19
0001
0100
0010
0000
0100
0010
0100
0000
,  // measure 20
0001
0100
0010
0100
,  // measure 21
0001
0101
0100
0120
,  // measure 22
0130
1000
0010
2001
,  // measure 23
3001
0000
0100
0000
0002
0000
0000
0103
,  // measure 24
0000
0100
0010
0100
,  // measure 25
1000
1010
0010
0210
,  // measure 26
0310
0001
0100
1002
,  // measure 27
1003
0000
0010
0000
2000
0000
0000
3010
,  // measure 28
0000
0010
0100
0110
,  // measure 29
0010
1010
1000
0010
,  // measure 30
2000
0000
3001
0000
0001
0100
0010
0100
,  // measure 31
0001
0101
0010
0100
,  // measure 32
0020
0000
0130
0000
0010
0100
0010
0100
,  // measure 33
0010
1001
1000
0001
,  // measure 34
2000
0000
3010
0000
1000
0100
0010
0001
,  // measure 35
0100
0101
0100
0010
,  // measure 36
0002
0000
0103
0000
0001
0010
0100
1000
,  // measure 37
0100
0101
0001
0100
,  // measure 38
0002
0000
1003
0000
1000
0010
0100
0010
,  // measure 39
1000
1010
0100
0010
,  // measure 40
0200
0000
0310
0000
0100
0010
0100
0010
,  // measure 41
0100
1001
0001
1000
,  // measure 42
0002
0000
0103
0000
0001
0010
0100
1000
,  // measure 43
0010
1010
0010
0100
,  // measure 44
2000
0000
3010
0000
1000
0100
0010
0001
,  // measure 45
0100
0001
0100
0001
,  // measure 46
1000
0010
1000
0010
,  // measure 47
0100
0010
0100
0001
,  // measure 48
1000
0010
1000
0001
,  // measure 49
0100
0001
0100
0001
,  // measure 50
0010
1000
0010
1000
,  // measure 51
0010
0100
0010
0100
,  // measure 52
0010
0000
0100
0100
,  // measure 53
0220
0000
0000
0000
,  // measure 54
0330
0000
0000
0000
;
