#TITLE:Feel Special;
#SUBTITLE:;
#ARTIST:TWICE;
#TITLETRANSLIT:;
#SUBTITLETRANSLIT:;
#ARTISTTRANSLIT:;
#CREDIT:;
#BANNER:Feel Special.png;
#BACKGROUND:Feel Special-bg.png;
#LYRICSPATH:;
#CDTITLE:;
#MUSIC:Feel Special.mp3;
#OFFSET:0.500;
#SAMPLESTART:52.200;
#SAMPLELENGTH:15.000;
#SELECTABLE:YES;
#BPMS:0.000=129.000;
#STOPS:;
#BGCHANGES:;

//---------------dance-single - ----------------
#NOTES:
     dance-single:
     :
     Easy:
     5:
     0.244,0.292,0.154,0.040,0.000:
0000
0000
0000
0000
,
0000
0000
0000
0000
,
0000
0000
0000
0000
,
0000
0000
0000
0000
,
1001
0000
0000
0000
0000
0010
0000
0010
,
0000
0000
0000
0000
0000
1000
0000
0010
,
0000
0000
0000
0000
0000
0001
0000
1000
,
0000
0000
0000
0010
,
0100
0010
0000
1000
,
0001
1000
0000
0001
,
0100
0010
0000
0000
,
0110
0000
0010
0000
,
0000
0100
0010
0100
,
0000
0001
1000
0100
,
0000
1000
0010
0100
,
0000
0001
1000
0001
,
0000
0010
0001
0100
,
0000
0100
1000
0010
,
0000
1000
0001
1000
,
0000
1000
0100
0010
,
1001
0001
0001
0000
,
0100
0010
0100
0000
,
0010
1000
0100
0000
,
1000
0010
0001
0000
,
0001
1000
0100
0000
,
0010
0100
0010
0000
,
0100
0010
1000
0000
,
1000
0010
0001
0000
,
1001
0000
0100
0010
,
0110
0010
1000
0010
,
0100
0001
0100
0001
,
1000
0010
1000
0001
,
0100
0001
1000
0100
,
0010
0001
0100
0001
,
0001
0010
0100
1000
,
0010
0000
1010
0000
,
0100
0001
0100
0001
,
0101
0001
0100
0010
,
1000
0010
0100
0001
,
1000
0001
1000
0010
,
1000
0001
0100
0001
,
1000
0010
0100
0010
,
1000
0001
0100
0001
,
0100
0000
0110
0000
,
0100
0010
1000
0010
,
0202
0000
0303
1001
,
0001
0000
0001
0000
,
0010
0000
0010
0000
,
0100
0000
0100
0000
,
1000
0000
1000
0000
,
0010
0000
1000
0000
,
0001
0000
0100
0000
,
0001
0000
1000
0000
,
0001
0000
0100
0000
,
0101
0000
0100
0000
,
0110
0000
0010
0000
,
1001
0000
0100
0000
,
1001
0000
0010
0000
,
0101
0000
0100
0000
,
1010
0000
0010
0000
,
0110
0000
0101
0000
,
0010
1000
0010
1000
,
1010
1000
0010
0100
,
0001
0100
0010
1000
,
0001
1000
0001
0100
,
0001
1000
0010
1000
,
0001
0100
0010
0100
,
0001
1000
0010
1000
,
0010
0000
0110
0000
,
0010
0100
0001
0100
,
2020
0000
3030
1001
,
0001
0100
0001
0100
,
0010
1000
0010
1000
,
0001
1000
0001
1000
,
0010
0100
0010
0100
,
0010
0001
0100
1000
,
1000
0100
0001
0010
,
0001
1000
0001
1000
,
2002
0000
0000
0000
,
0000
3003
0000
0000
;

//---------------dance-single - ----------------
#NOTES:
     dance-single:
     :
     Beginner:
     3:
     0.174,0.186,0.040,0.027,0.000:
0000
0000
0000
0000
,
0000
0000
0000
0000
,
0000
0000
0000
0000
,
0000
0000
0000
0000
,
0000
0000
0000
0000
,
0000
0000
0000
0000
,
0000
0000
0000
0000
,
0000
0000
0000
0000
,
0000
0100
0000
0010
,
0000
0100
0000
0010
,
0000
1000
0000
0000
,
2002
0000
0000
3003
,
0000
0010
0000
0100
,
0000
0010
0000
1000
,
0000
0010
0000
1000
,
0000
0001
0000
0100
,
0000
0001
0000
0010
,
0000
0001
0000
1000
,
0000
0010
0000
1000
,
0000
0001
0000
0000
,
0001
0001
0001
0000
,
1000
0000
1000
0000
,
0100
0100
0100
0000
,
0010
0000
0010
0000
,
1000
0001
1000
0000
,
0001
1000
0001
0000
,
0100
0010
0100
0000
,
0010
0100
0010
0000
,
0100
0000
0000
0110
,
0000
0001
0100
0001
,
0000
1000
0100
1000
,
0000
0001
0100
0001
,
0000
0010
0100
0010
,
0000
1000
0010
1000
,
0000
0001
0100
0001
,
0000
0010
0000
0100
,
0000
0010
0000
1001
,
0000
0001
0100
0001
,
0000
0010
0100
0010
,
0000
1000
0010
1000
,
0000
0100
0010
0100
,
0000
0010
0100
0010
,
0000
0001
0100
0001
,
0000
1000
0010
1000
,
0000
0100
0010
0100
,
0000
0010
0000
0100
,
0000
0010
0000
1000
,
0000
0100
0000
0010
,
0000
0001
0000
1000
,
0000
0001
0000
0100
,
0000
0010
0000
1000
,
0000
0010
0000
0100
,
0000
0001
0000
0100
,
0000
0010
0000
1001
,
0000
1000
0010
1000
,
0000
0001
0010
0001
,
0000
1000
0010
1000
,
0000
0100
0010
0100
,
0000
0001
0100
0001
,
0000
1000
0010
1000
,
0000
0100
0000
0010
,
0000
0100
0000
1001
,
0000
1000
0010
1000
,
0000
0100
0010
0100
,
0000
0001
0100
0001
,
0000
0010
0100
0010
,
0000
0100
0010
0100
,
0000
1000
0010
1000
,
0000
0001
0100
0001
,
0000
0010
0100
0010
,
0000
1000
0000
0100
,
0000
1000
0000
0010
,
0000
0001
0000
1000
,
0000
0001
0000
1000
,
0000
0010
0000
0100
,
0000
0010
0000
0100
,
0000
0001
0000
0010
,
0000
0100
0000
1000
,
2002
0000
0000
0000
,
0000
3003
0000
0000
;

//---------------dance-single - ----------------
#NOTES:
     dance-single:
     :
     Medium:
     9:
     0.324,0.372,0.107,0.121,0.000:
0000
0000
0000
0000
,
0000
0000
0000
0000
,
0000
0000
0000
0000
,
0000
0000
0000
0000
,
0101
0000
0000
0000
0000
0100
0000
0001
,
0000
0000
0000
0000
0000
0100
0000
0010
,
0000
0000
0000
0000
0000
1000
0000
0010
,
0000
0000
0000
1000
0000
1000
0000
0000
,
0001
0100
0000
0010
,
1000
0010
0000
0100
,
0010
0100
0000
0010
,
1000
0100
0010
0001
,
0101
0010
0000
0100
,
0000
0000
0010
0000
0000
0100
0010
1000
,
0000
0100
0000
0001
,
0000
0000
1000
0000
0000
0001
1000
0001
,
0000
0100
0000
0001
,
0000
0100
0000
0010
,
0002
0023
0230
2300
,
3001
1000
0001
1000
,
1001
0010
0100
0000
,
1001
0100
0010
0000
,
0101
0001
1000
0000
,
1010
1000
0010
0000
,
1000
0010
1000
0001
,
0100
0001
0100
0010
,
0100
0010
1000
0010
,
0100
0001
0100
0001
,
1001
0000
0000
0001
0100
0010
1000
0000
,
1001
0000
0001
0100
0001
0100
0010
0000
,
0100
0000
0010
0000
0100
0010
0100
0000
,
0010
0000
1000
0010
0001
0010
1000
0000
,
0010
0000
0100
0000
0001
0100
0001
0000
,
1000
0000
0010
1000
0010
1000
0001
0000
,
1000
0000
0010
0000
1000
0010
1000
0000
,
0001
0000
0001
1000
0001
1000
0001
0000
,
0001
0010
0100
1000
,
1010
0000
1000
0100
0001
0100
1000
0000
,
0010
0000
0010
0000
0001
0010
0100
0000
,
0010
0000
0001
0100
1000
0100
0001
0000
,
1000
0000
0010
0000
0100
0010
1000
0000
,
1000
0000
1000
0100
0010
0100
1000
0000
,
0010
0000
0100
0000
0010
0100
0001
0000
,
0002
0013
0020
0130
,
2000
3100
0020
0130
,
2002
0000
3003
1001
,
0001
0010
0001
0010
,
0100
0010
0100
0010
,
1000
0100
1000
0010
,
1000
0001
0100
0001
,
1000
0010
0100
0010
,
1000
0010
0001
0010
,
1000
0100
0001
0010
,
0001
1000
0001
1000
,
1001
1000
0000
0100
,
0000
0000
0100
0000
0010
0100
0010
0000
,
0000
0100
0000
0001
,
0000
0000
0010
0000
1000
0010
1000
0000
,
0000
0100
0000
1000
,
0000
0000
0100
0000
0001
0100
0001
0000
,
0000
0000
1000
0001
1000
0001
1000
0000
,
1000
0100
0010
0001
,
0101
0000
0001
0010
1000
0010
0001
0000
,
0100
0000
0100
0000
1000
0100
0010
0000
,
0100
0000
1000
0010
0001
0010
1000
0000
,
0001
0000
0100
0000
0010
0100
0001
0000
,
0001
0000
0001
0010
0100
0010
0001
0000
,
0100
0000
0010
0000
0100
0010
1000
0000
,
2000
3100
0200
0310
,
0002
0013
0200
0310
,
2002
0000
3003
1001
,
0001
0000
0010
0000
0100
0001
1000
0000
,
0010
0000
0100
0000
0010
0100
0010
0000
,
1000
0000
0100
0000
0010
0001
1000
0000
,
0010
0000
0100
0000
0010
0100
0010
0000
,
1000
0000
0001
0000
1000
0001
1000
0000
,
0010
0000
0100
0000
0001
0100
0010
0000
,
0100
0001
1000
0001
,
2002
0000
0000
0000
,
0000
3003
0000
0000
;

//---------------dance-single - ----------------
#NOTES:
     dance-single:
     :
     Hard:
     14:
     0.517,0.558,0.248,0.195,0.215: // measure 1
0000
0000
0000
0000
,  // measure 2
0000
0000
0000
0000
,  // measure 3
0000
0000
0000
0000
,  // measure 4
0000
0000
0000
0000
,  // measure 5
1001
0000
0000
0000
0000
0000
1000
0001
1000
0000
0001
0000
1000
0000
0010
0000
,  // measure 6
0000
0000
0000
0000
0000
0010
0000
0100
,  // measure 7
0000
0000
0000
0000
0000
0000
0010
1000
0100
0000
1000
0000
0001
0000
0010
0000
,  // measure 8
0000
0000
0000
0001
0010
0100
1000
0000
,  // measure 9
1000
0000
0000
1010
0000
0000
1000
0010
1000
0000
0010
0000
0100
0000
0001
1000
,  // measure 10
0100
0000
0001
0000
1000
0000
0010
0000
1000
0000
0010
0000
0100
0010
0100
0010
,  // measure 11
0100
0000
0010
0000
1000
0000
0001
1000
0001
0000
1000
0000
0001
0000
0000
0000
,  // measure 12
0001
0000
0000
0101
0000
0000
1000
0000
1000
0010
1000
0001
0100
0000
0000
0000
,  // measure 13
0001
0000
0000
0000
0000
0010
1000
0010
,  // measure 14
0100
0000
0010
0000
1000
0001
1000
0000
0010
0000
0100
0000
1000
0000
0100
0000
,  // measure 15
0000
0000
1000
0000
0000
0001
0100
0010
,  // measure 16
0100
0000
0001
0000
1000
0010
2000
0000
0000
0000
0000
0000
3010
0000
0001
0000
,  // measure 17
0010
0000
0000
0100
0000
0000
1000
0000
0000
0000
0000
0000
0000
0000
0000
1000
,  // measure 18
0001
0000
0000
1000
0000
0000
0010
0000
0000
0000
0100
0000
0010
0000
0002
0000
,  // measure 19
0000
0023
0000
0230
0000
2300
0000
3000
,  // measure 20
0000
0010
0001
0100
1000
0010
0001
0010
,  // measure 21
1000
0010
1010
0000
,  // measure 22
0100
0001
0101
0000
,  // measure 23
0001
0000
0000
0000
1000
0000
0000
0000
1001
0000
0000
0000
0000
0000
0000
0010
,  // measure 24
1000
0000
0000
1000
0010
0000
0000
0100
0001
0000
0000
0001
0100
0000
0000
0000
,  // measure 25
0001
0000
0000
0100
0001
0000
1000
0000
0010
0000
1000
0000
0001
0000
0000
0000
,  // measure 26
1000
0000
0000
1000
0010
0000
1000
0000
0100
0000
0010
0000
0001
0000
0000
0000
,  // measure 27
0010
0000
0000
0100
0010
0000
0010
0000
1000
0000
0001
0000
0100
0000
0000
0000
,  // measure 28
0001
1000
0001
1000
0001
1000
0001
2002
,  // measure 29
0000
0000
3003
0010
0100
0010
1000
0000
,  // measure 30
1001
0000
0000
1010
0000
0000
0010
0000
1000
0000
0001
0000
0100
0000
0001
0000
,  // measure 31
0100
0000
0001
0010
0000
0010
0001
0000
1000
0000
0010
0000
0100
0000
0010
0000
,  // measure 32
0001
0000
0000
0100
0000
0000
0100
0000
0010
0000
1000
0000
0010
0000
0000
0000
,  // measure 33
1000
0000
0010
1000
0010
0000
0100
0000
0010
0000
1000
0000
0001
0000
0100
0000
,  // measure 34
0010
0000
0000
0100
0000
0000
0010
0000
0100
0000
0010
0000
0100
0010
0100
0000
,  // measure 35
0020
0000
0130
1000
0010
1000
0001
0000
,  // measure 36
2002
0000
3003
0001
1000
0001
1000
0000
,  // measure 37
0000
0000
0000
0010
0100
0010
1000
0000
,  // measure 38
0110
0000
0000
0110
0000
0000
0000
0000
0100
0000
0010
0000
0100
0000
0000
0000
,  // measure 39
0100
0000
0010
0100
0010
0000
0100
0000
0001
0000
1000
0000
0010
0000
0100
0000
,  // measure 40
0010
0000
0000
0101
0000
0000
0001
0000
0100
0000
0010
0000
1000
0000
0000
0000
,  // measure 41
1000
0000
1000
0010
1000
0000
0001
0000
0100
0000
0010
0000
0100
0000
0001
0000
,  // measure 42
0010
0000
0000
0011
0000
0000
0001
0000
0010
0000
0100
0000
1000
0001
1000
0000
,  // measure 43
0002
0000
0103
0010
1000
0010
0100
0000
,  // measure 44
0202
0000
0303
0010
0100
0000
0110
0000
,  // measure 45
0000
0000
0000
1000
0001
0000
1001
0000
,  // measure 46
0110
0000
0000
0000
0000
0000
0000
0000
0000
2002
0000
0000
0000
0000
0000
0000
0000
0000
0000
0000
0000
0000
0000
0000
3003
0000
0000
0000
0100
0000
0000
0000
0010
0000
0000
0000
0100
0000
0000
0000
0000
0000
0000
0000
0000
0000
0000
0000
,  // measure 47
1010
0000
0000
0000
0010
1000
0000
0000
0001
0100
0000
0000
0100
0001
0000
0000
,  // measure 48
0202
0000
0000
0000
0303
0000
0001
0100
0001
0000
0100
0000
0010
0000
0000
0000
,  // measure 49
1100
0000
0000
0000
1000
0010
0000
0000
0100
0001
0000
0000
0001
0100
0000
0000
,  // measure 50
0220
0000
0000
0000
0330
0000
0100
0010
0100
0000
0010
0000
1000
0000
0001
0000
,  // measure 51
0100
0000
0000
0010
0100
0010
1000
0000
,  // measure 52
0001
0000
1000
0001
0100
0000
0010
0000
1000
0000
0100
1000
0100
0000
1000
0000
,  // measure 53
0001
0000
0001
0010
0100
0010
0001
0000
,  // measure 54
0001
1000
0010
1000
0001
0100
0110
0000
,  // measure 55
1001
0000
0000
0101
0000
0000
0100
0000
0001
0000
1000
0000
0010
0000
1000
0000
,  // measure 56
0010
0000
1000
0100
0000
0100
1000
0000
0001
0000
0100
0000
0010
0000
0100
0000
,  // measure 57
1000
0000
0000
0010
0000
0000
0010
0000
0000
0000
0010
0000
0000
0000
0100
0000
,  // measure 58
0001
0000
0100
0001
0100
0000
0010
0000
0100
0000
0001
0000
1000
0000
0010
0000
,  // measure 59
0100
0000
0000
0010
0000
0000
0100
0000
0000
0000
0100
0000
0010
0100
0010
0000
,  // measure 60
0200
0000
0310
0001
0100
0001
1000
0000
,  // measure 61
2002
0000
3003
1000
0001
1000
0001
0000
,  // measure 62
0000
0000
0000
0100
0010
0100
0001
0000
,  // measure 63
0110
0000
0000
0110
0000
0000
0000
0000
0010
0000
0100
0000
0010
0000
0000
0000
,  // measure 64
0010
0000
0100
0010
0100
0000
0010
0000
1000
0000
0001
0000
0100
0000
0010
0000
,  // measure 65
0100
0000
0000
1010
0000
0000
1000
0000
0010
0000
0100
0000
0001
0000
0000
0000
,  // measure 66
0001
0000
0001
0100
0001
0000
1000
0000
0010
0000
0100
0000
0010
0000
1000
0000
,  // measure 67
0100
0000
0000
1100
0000
0000
1000
0000
0100
0000
0010
0000
0001
1000
0001
0000
,  // measure 68
2000
0000
3010
0100
0001
0100
0010
0000
,  // measure 69
2020
0000
3030
0100
0010
0000
0110
0000
,  // measure 70
0000
0000
0000
0001
1000
0000
1001
0000
,  // measure 71
0110
0000
0000
2002
0000
0000
0000
0000
3003
0000
0000
0000
0000
0000
0000
0000
,  // measure 72
0001
0100
0001
0100
0001
1000
0010
1000
,  // measure 73
0010
0100
0010
0100
0010
1000
0100
0010
,  // measure 74
0001
1000
0001
1000
0001
0100
0010
0100
,  // measure 75
0010
1000
0001
0100
0001
1000
0010
0100
,  // measure 76
0010
1000
0001
0100
0001
0100
0010
0100
,  // measure 77
0010
0000
0000
1000
0010
0000
1000
0000
0001
0000
0100
0000
0001
0000
0100
0000
,  // measure 78
0010
1000
0010
1000
0010
1000
0100
0010
,  // measure 79
2002
0000
0000
0000
,  // measure 80
0000
3003
0000
0000
;
