#TITLE:Feel My Rhythm;
#SUBTITLE:;
#ARTIST:Red Velvet;
#TITLETRANSLIT:;
#SUBTITLETRANSLIT:;
#ARTISTTRANSLIT:;
#CREDIT:;
#BANNER:Feel My Rhythm.png;
#BACKGROUND:Feel My Rhythm-bg.png;
#LYRICSPATH:;
#CDTITLE:;
#MUSIC:Feel My Rhythm.mp3;
#OFFSET:-0.520;
#SAMPLESTART:64.300;
#SAMPLELENGTH:15.000;
#SELECTABLE:YES;
#BPMS:0.000=158.000;
#STOPS:;
#BGCHANGES:;

//---------------dance-single - ----------------
#NOTES:
     dance-single:
     :
     Easy:
     5:
     0.243,0.353,0.061,0.115,0.000:
0000
0000
0000
0000
,
0000
0000
0000
0000
,
0100
0000
0100
0000
,
0010
0000
0010
0000
,
1000
0000
1000
0000
,
0001
0000
0001
0000
,
1000
0000
0100
0000
,
0010
0000
0001
0000
,
0001
0000
0010
0000
,
0100
0000
1000
0000
,
0010
0000
1000
0000
,
0001
0000
0100
0000
,
0100
0000
0001
0000
,
1000
0000
0010
0000
,
1000
0000
0001
0000
,
1000
0000
0010
0000
,
1000
0000
0001
0000
,
0100
0000
0001
0000
,
1001
0010
0100
0010
,
2000
0000
3000
0000
,
0010
1000
0100
0001
,
0010
0100
0010
1000
,
0001
0100
0001
0010
,
0002
0000
0003
0000
,
0020
0000
0030
0000
,
0010
0100
0010
0000
,
1000
1000
0010
0100
,
0001
0010
0001
0000
,
0010
0100
0001
1000
,
0100
0010
1000
0000
,
1000
0010
1000
0100
,
2000
0000
3000
0000
,
0200
0000
0300
0000
,
0100
0010
0100
0000
,
0001
0000
1000
0000
,
0010
0000
1000
0000
,
0001
0000
0100
0000
,
0010
0000
1000
0000
,
0001
0000
1000
0000
,
0010
0000
0100
0000
,
0010
1000
0001
1000
,
2002
0000
3003
0000
,
0010
0100
0010
0000
,
1000
0010
0100
0000
,
0010
0001
1000
0000
,
0001
0100
1000
0000
,
0010
0001
1000
0000
,
1000
0100
0010
0000
,
0010
0100
0010
2000
,
0001
3001
0002
1000
,
1003
0010
0100
0000
,
0001
0100
0010
0000
,
0001
0010
0100
0000
,
0100
0010
0001
0000
,
0001
1000
0001
0000
,
0100
0010
1000
0000
,
2002
0000
0000
0000
,
3003
0000
0010
0010
,
0000
0000
1000
0000
,
0000
0000
0001
0000
,
0000
0000
0100
0000
,
0000
0000
0010
0000
,
0000
0000
0010
0000
,
0000
0000
1000
0000
,
0000
0000
0001
0000
,
0000
0000
1000
0000
,
0010
0100
0010
0000
,
1000
0001
1000
0000
,
0010
0001
0100
0000
,
0010
1000
0001
0000
,
0110
0000
1001
0000
,
0101
0000
1010
0000
,
0010
0100
0010
0100
,
1001
0000
0000
0000
,
0100
0000
0010
0000
,
1000
0000
0001
0000
,
0100
0000
0001
0000
,
0010
0000
0001
0000
,
2000
0000
0000
3000
,
0100
0010
0100
0000
,
0001
0100
0010
0000
,
0100
1000
0001
0000
,
1000
0010
0001
0000
,
0100
1000
0001
0000
,
0001
0010
0100
0000
,
0100
0010
0100
0002
,
1000
1003
2000
0001
,
3001
0100
0010
0000
,
1000
0010
0100
0000
,
1000
0100
0010
0000
,
0010
0100
1000
0000
,
1000
0001
1000
0000
,
0010
0100
0001
0000
,
2002
0000
0000
0000
,
3003
0000
0100
0200
,
0300
0000
0000
0000
;

//---------------dance-single - ----------------
#NOTES:
     dance-single:
     :
     Beginner:
     3:
     0.179,0.257,0.047,0.068,0.000:
0000
0000
0000
0000
,
0000
0000
0000
0000
,
0100
0000
0000
0000
,
0010
0000
0000
0000
,
0001
0000
0000
0000
,
1000
0000
0000
0000
,
0100
0000
0000
0000
,
0010
0000
0000
0000
,
1000
0000
0000
0000
,
0010
0000
0000
0000
,
1000
0000
0000
0000
,
0001
0000
0000
0000
,
0100
0000
0000
0000
,
0001
0000
0000
0000
,
1000
0000
0000
0000
,
0010
0000
0000
0000
,
1000
0000
0000
0000
,
0001
0000
0000
0000
,
0110
0000
0010
0000
,
1000
0000
0010
0000
,
1000
0000
0001
0000
,
0100
0000
0001
0000
,
0010
0000
0001
0000
,
1000
0000
0010
0000
,
0100
0000
0001
0000
,
1000
0000
0010
0000
,
1001
0000
0010
0000
,
0100
0000
0001
0000
,
1000
0000
0010
0000
,
1000
0000
0010
0000
,
0100
0000
0001
0000
,
0100
0000
0010
0000
,
2000
0000
3000
0000
,
1000
0000
0001
0000
,
0100
0000
0001
0000
,
0100
0000
0010
0000
,
1000
0000
0010
0000
,
1000
0000
0001
0000
,
1001
0000
0010
0000
,
0100
0000
0010
0000
,
0100
0000
0001
0000
,
2000
0000
3000
0000
,
1001
0000
0010
0000
,
0100
0100
0100
0000
,
0010
0000
1000
0000
,
0001
0001
0001
0000
,
1000
0000
0001
0000
,
0001
0000
1000
0000
,
0010
0010
0010
0000
,
1000
0000
0001
0000
,
0100
0000
0010
0000
,
0200
0000
0300
0000
,
0010
0000
1000
0000
,
0020
0000
0030
0000
,
1000
0000
0001
0000
,
0001
0001
0001
0000
,
0100
0000
0010
0000
,
0010
0010
0010
0000
,
0000
0000
0010
0000
,
0000
0000
0100
0000
,
0000
0000
0001
0000
,
0000
0000
1000
0000
,
0000
0000
0010
0000
,
0000
0000
0100
0000
,
0000
0000
0010
0000
,
0000
0000
1000
0000
,
1000
1000
1000
0000
,
0100
0100
0100
0000
,
1000
1000
1000
0000
,
0001
0001
0001
0000
,
0010
0000
0010
0000
,
0100
0000
0001
0000
,
1000
0000
0010
0000
,
2002
0000
3003
0000
,
0110
0000
1000
0000
,
0010
0000
0100
0000
,
0001
0000
0100
0000
,
0010
0000
1000
0000
,
0002
0000
0003
0000
,
1001
0000
0100
0000
,
0010
0010
0010
0000
,
0100
0000
0001
0000
,
1000
1000
1000
0000
,
0001
0000
1000
0000
,
1000
0000
0001
0000
,
0100
0100
0100
0000
,
0001
0000
1000
0000
,
0010
0000
0100
0000
,
0020
0000
0030
0000
,
0100
0000
0001
0000
,
0200
0000
0300
0000
,
0001
0000
1000
0000
,
1000
1000
1000
0000
,
0010
0000
0100
0000
,
0100
0100
0100
0200
,
0300
0000
0000
0000
;

//---------------dance-single - ----------------
#NOTES:
     dance-single:
     :
     Medium:
     7:
     0.341,0.449,0.108,0.284,0.003:
0000
0000
0000
0000
,
0000
0000
0000
0000
,
1001
0000
0010
0000
,
0100
0000
0001
0000
,
1000
0000
0010
0000
,
1000
0000
0001
0000
,
0001
0000
0002
0023
,
0032
0203
0320
2030
,
3020
0000
0030
0000
,
1000
0000
0010
0000
,
0100
0000
0001
0000
,
2000
3200
0320
0032
,
0023
0000
0030
0000
,
2000
3002
2003
3002
,
0203
0000
0300
0000
,
0010
0000
0000
1000
0000
0000
0010
0000
0100
0000
0000
0000
0000
0000
1000
0000
,
0002
0000
0000
0000
,
0000
0000
2000
0000
,
3003
0010
1000
0001
,
2000
0010
3010
0001
,
0100
0010
1000
0001
,
0002
0010
0013
0101
,
1010
0000
0000
0010
1000
0000
0000
0001
,
0100
0000
0000
1000
0100
0000
0000
0010
,
1000
0100
0010
0001
,
0100
0010
1000
0100
,
1010
0100
0010
1000
,
0010
0100
0001
0000
,
0001
0100
0010
0001
,
0010
0100
0010
0100
,
0011
0000
0000
0001
1000
0000
0000
1000
,
0010
0000
0000
0010
0100
0000
0000
0100
,
0020
0000
0030
0000
,
0010
0100
0001
0010
,
1000
0000
0000
1000
0100
0000
1000
0000
,
0010
0000
0000
0010
1000
0000
0010
0000
,
0100
0000
0000
0001
0100
0000
0010
0000
,
0001
0000
0000
0100
0001
0000
0100
0000
,
0010
0000
1000
0000
,
0001
0000
0100
0000
,
0001
1000
0001
1000
,
0010
0100
0010
0100
0020
0000
0030
0000
,
1000
0010
0100
0001
,
0100
0110
1001
0000
,
0010
0100
0001
1000
,
0010
1001
0110
0000
,
1000
0100
1000
0010
1000
0000
0000
0000
,
0010
0001
0100
0001
0010
0000
0000
0000
,
1000
2000
3010
0020
,
1030
0001
0100
0001
,
0010
0000
0000
0010
0001
0000
0100
0000
,
0020
0000
0031
1000
,
0001
0000
0000
0001
1000
0000
0010
0000
,
2000
0000
3001
1000
,
0001
0100
0010
0000
,
0100
0000
0010
0000
1000
0000
0000
0010
,
2000
0010
3010
0100
,
0001
1000
0010
1001
,
0020
0000
0030
0000
,
2000
0000
3000
0000
,
0002
0000
0003
0000
,
2000
0000
3000
0000
,
0010
0010
1000
0001
,
0000
0000
0100
0010
0100
0000
0000
0010
,
0200
0000
0000
0000
,
0300
0000
0000
0000
,
1000
0010
0100
0000
,
0010
0100
0001
0000
,
1000
0001
1000
0000
,
0001
0100
0001
0000
,
0010
0001
0100
0000
,
0100
0010
0001
0000
,
0001
0010
0100
1000
,
1001
0000
0020
0030
,
0010
0000
1000
1000
,
1000
0000
0001
0001
,
0001
0000
0100
0100
,
0100
0000
0010
0020
,
0000
0000
0000
0030
,
0001
0100
0010
1000
,
0010
0110
1001
0000
,
0100
0010
1000
0001
,
0100
1001
0110
0000
,
0001
0010
0001
0100
0001
0000
0000
0000
,
0100
1000
0010
1000
0100
0000
0000
0000
,
0001
0002
0103
0200
,
0301
1000
0010
1000
,
0100
0000
0000
0100
1000
0000
0010
0000
,
0200
0000
1300
0001
,
1000
0000
0000
1000
0001
0000
0100
0000
,
0002
0000
1003
0001
,
1000
0010
0100
0000
,
0010
0000
0100
0000
0001
0000
0000
0100
,
0002
0100
0103
0010
,
1000
0001
0100
2002
,
3003
0000
0000
0000
;

//---------------dance-single - ----------------
#NOTES:
     dance-single:
     :
     Hard:
     12:
     0.439,0.545,0.101,0.398,0.054: // measure 1
0000
0000
0000
0000
,  // measure 2
0000
0000
0000
0000
,  // measure 3
1010
0000
0100
0000
,  // measure 4
0010
0000
1000
0000
,  // measure 5
0001
0000
0100
0000
,  // measure 6
0001
0000
1000
0000
,  // measure 7
0010
0000
2000
3200
,  // measure 8
2300
3020
0230
0302
,  // measure 9
0023
0000
0030
0000
,  // measure 10
0010
0000
0100
0000
,  // measure 11
0001
0000
0010
0000
,  // measure 12
0002
0023
0230
2300
,  // measure 13
3002
0000
0003
0000
,  // measure 14
2000
3200
0320
0032
,  // measure 15
2003
0000
3000
0000
,  // measure 16
0010
0000
0000
1000
0000
0000
0010
0000
0100
0000
0000
0000
0000
0000
0100
0000
,  // measure 17
0002
0000
0000
0000
,  // measure 18
0000
0000
2000
0000
,  // measure 19
3003
1000
0010
0100
,  // measure 20
0010
0000
0000
1000
0010
0000
0100
0010
,  // measure 21
0100
0000
0010
0001
0010
0100
0010
1000
,  // measure 22
0010
0000
0000
0010
1000
0000
0010
0000
,  // measure 23
1001
0000
0000
0010
0001
0000
0000
1000
,  // measure 24
0100
0000
0000
0001
1000
0000
0000
0010
,  // measure 25
2000
0000
0000
0000
3000
0000
1000
0010
,  // measure 26
0001
0010
1000
0000
0010
0000
0100
0000
,  // measure 27
0001
0100
1000
0010
0001
0100
0001
0100
,  // measure 28
1000
0010
0100
0010
1000
0000
0000
0000
,  // measure 29
1000
0100
0010
0001
0100
0010
1000
0001
,  // measure 30
0100
0001
0100
0010
0001
0000
0101
0000
,  // measure 31
1001
0000
0000
0100
1000
0000
0000
0001
,  // measure 32
0010
0000
0000
1000
0001
0000
0000
0100
,  // measure 33
0002
0000
0003
0000
,  // measure 34
1000
0100
0001
0000
0100
0000
0010
0000
,  // measure 35
1000
0000
0010
0000
1000
0100
0010
0000
,  // measure 36
2000
0000
3010
0000
,  // measure 37
0000
0001
0010
1000
0010
0001
0010
0001
,  // measure 38
2000
0000
3001
0000
,  // measure 39
0010
0000
0001
0010
0100
0000
1000
0000
,  // measure 40
0010
0000
1000
0010
1000
0010
0001
0000
,  // measure 41
0100
0010
0001
1000
0001
1000
0010
0100
,  // measure 42
0010
1000
0100
1000
0002
0000
0003
0000
,  // measure 43
0010
0000
0100
0000
0010
0100
0000
0000
,  // measure 44
1000
0010
1000
0000
,  // measure 45
1000
0000
0010
0000
0100
0001
0000
0000
,  // measure 46
0101
0110
1010
0000
,  // measure 47
0100
0010
0000
0000
0100
0000
0010
0000
1000
0000
0000
0000
0010
0000
0000
0000
,  // measure 48
0001
0100
0001
0000
0100
0000
0010
0000
1000
0000
0000
0000
0010
0000
0000
0000
,  // measure 49
2000
3200
0320
0032
,  // measure 50
0103
0001
0100
0001
,  // measure 51
1000
0000
1000
0001
1000
0000
0100
0000
,  // measure 52
0001
0100
0202
0303
,  // measure 53
0100
0010
0000
0010
1000
0000
1000
0000
,  // measure 54
0010
1000
2000
3100
,  // measure 55
1000
0000
0100
0000
0010
0001
0000
0000
,  // measure 56
0010
0000
0000
0010
0000
0000
0100
0000
0010
0000
0000
0000
0000
0000
0010
0000
,  // measure 57
0200
0000
0310
1000
0010
0000
1000
0000
,  // measure 58
0010
0000
0100
0010
0001
0000
0100
0000
,  // measure 59
1001
0000
0020
0000
,  // measure 60
2030
0000
3002
0000
,  // measure 61
0203
0000
0020
0300
,  // measure 62
2000
0030
3200
0000
,  // measure 63
0310
0001
0010
0001
,  // measure 64
0000
0000
0100
0001
1000
0000
0000
1000
,  // measure 65
0002
0000
1000
0000
,  // measure 66
1003
0010
0100
0000
1000
0010
0100
0000
,  // measure 67
0100
0010
0000
0000
0010
1000
0000
0000
1000
0000
0010
0000
0000
0000
0010
0100
,  // measure 68
0010
0100
0001
0100
0010
1000
0100
0000
,  // measure 69
0100
0010
0000
0000
0010
0001
0000
0000
0001
1000
0000
0000
0000
0000
1000
0000
,  // measure 70
0010
1000
0010
0100
0001
0000
0000
0000
,  // measure 71
2000
0000
3020
0000
,  // measure 72
1030
0000
0000
1000
0000
0000
1000
0000
0100
0000
0000
0000
0100
0000
0000
0000
,  // measure 73
0010
0000
0000
0010
0000
0000
0010
0000
0001
0000
0000
0000
0001
0000
0000
0000
,  // measure 74
1001
0000
0000
0000
0000
0000
0000
0000
0020
0000
0000
2030
0000
0000
3002
0000
,  // measure 75
2000
0000
3003
0010
1000
0000
2000
0000
,  // measure 76
3010
0100
1000
0000
0010
0100
0001
0000
,  // measure 77
0100
0001
1000
0100
0010
0000
0000
0000
,  // measure 78
0100
0100
0200
0020
,  // measure 79
0000
0000
0330
0000
,  // measure 80
0100
0000
0010
0000
0100
0010
0000
0000
,  // measure 81
0001
0100
0001
0000
,  // measure 82
0001
0000
0100
0000
0010
1000
0000
0000
,  // measure 83
1010
0110
0101
0000
,  // measure 84
0010
0100
0000
0000
0010
0000
0100
0000
0001
0000
0000
0000
0100
0000
0000
0000
,  // measure 85
1000
0010
1000
0000
0010
0000
0100
0000
0001
0000
0000
0000
0100
0000
0000
0000
,  // measure 86
0002
0023
0230
2300
,  // measure 87
3010
1000
0010
1000
,  // measure 88
0001
0000
0001
1000
0001
0000
0010
0000
,  // measure 89
1000
0010
2020
3030
,  // measure 90
0010
0100
0000
0100
0001
0000
0001
0000
,  // measure 91
0100
0001
0002
0013
,  // measure 92
0001
0000
0010
0000
0100
1000
0000
0000
,  // measure 93
0100
0000
0000
0100
0000
0000
0010
0000
0100
0000
0000
0000
0000
0000
0100
0000
,  // measure 94
0020
0000
0130
0001
0100
0000
0001
0000
,  // measure 95
0100
0000
0001
1000
0010
0000
2002
0000
,  // measure 96
3003
0000
0000
0000
;
