#TITLE:Falling Apart;
#SUBTITLE:;
#ARTIST:Pegboard Nerds, Stonebank & EMEL;
#TITLETRANSLIT:;
#SUBTITLETRANSLIT:;
#ARTISTTRANSLIT:;
#CREDIT:;
#BANNER:Falling Apart.png;
#BACKGROUND:Falling Apart-bg.png;
#LYRICSPATH:;
#CDTITLE:;
#MUSIC:Falling Apart.mp3;
#OFFSET:-0.060;
#SAMPLESTART:67.980;
#SAMPLELENGTH:15.000;
#SELECTABLE:YES;
#BPMS:0.000=170.000;
#STOPS:;
#BGCHANGES:;

//---------------dance-single - ----------------
#NOTES:
     dance-single:
     :
     Easy:
     5:
     0.254,0.304,0.030,0.084,0.000:
0000
0000
0000
0000
,
0001
0000
0100
0000
,
0001
0000
0000
0000
,
1000
0000
0100
0000
,
1000
0000
0000
0000
,
1000
0000
0010
0000
,
0010
0000
0000
0000
,
0001
0000
0100
0000
,
0001
0000
0000
0000
,
0100
0000
0010
0000
,
0100
0000
0000
0000
,
0001
0000
1000
0000
,
0010
0000
0000
0000
,
1000
0000
0001
0000
,
0100
0000
0000
0000
,
0010
0000
0100
0000
,
0001
0000
0000
0000
,
0100
0001
0100
0010
,
1000
0010
0000
0000
,
1000
0000
0010
0000
,
1000
0000
0010
0000
,
0001
0100
1000
0100
,
1000
0001
0000
0000
,
0100
0000
0010
0000
,
1000
0000
1000
0000
,
1001
0000
0001
0000
,
0100
0000
0010
0000
,
0100
0000
0001
0000
,
1000
0000
0100
0000
,
1000
0000
0100
0000
,
0010
0000
0001
0000
,
0010
0000
0001
0000
,
1000
0000
0001
0000
,
1001
0000
1000
0000
,
0010
0000
1000
0000
,
0001
0000
0100
0000
,
0001
0000
0100
0000
,
0010
0000
1000
0000
,
0100
0000
1000
0000
,
0010
0000
0100
0000
,
0010
0000
0001
0000
,
0010
0001
0001
1000
,
0100
0010
0000
0000
,
1000
0000
0001
0000
,
1000
0000
0001
0000
,
0001
0010
0001
0100
,
0010
1000
0000
0000
,
0002
0000
0103
0000
,
0220
0330
0000
0000
,
0010
1000
0010
1000
,
0001
0100
0001
0100
,
0001
0010
0100
1000
,
0010
1000
0001
0100
,
1000
0100
0010
0001
,
0100
0010
1000
0001
,
0100
0001
1000
0010
,
2000
0000
0020
0000
,
3030
1000
0010
1000
,
0001
0100
0010
0100
,
0001
0100
0010
1000
,
0100
1000
0001
0010
,
0001
0100
0010
1000
,
0100
1000
0010
0100
,
0010
0001
0010
1000
,
0002
0000
0003
0000
,
0100
0001
0100
0001
,
1000
0010
1000
0010
,
1000
0100
0010
0001
,
0100
0001
1000
0010
,
0001
0010
0100
1000
,
0010
0100
0001
1000
,
0010
1000
0001
0100
,
0002
0000
0200
0000
,
0303
0001
0100
0001
,
1000
0010
0100
0010
,
1000
0010
0100
0001
,
0010
0001
1000
0100
,
1000
0010
0100
0001
,
0010
0001
0100
0010
,
0100
1000
0100
0001
,
2000
0000
3000
0000
,
2002
0000
0000
0000
,
3003
0000
0000
0000
,
0001
0000
0000
0000
,
0100
0000
0000
0000
,
0010
0000
0000
0000
,
1000
0000
0000
0000
,
0010
0000
0000
0000
,
1000
0000
0000
0001
;

//---------------dance-single - ----------------
#NOTES:
     dance-single:
     :
     Beginner:
     2:
     0.179,0.270,0.023,0.076,0.000:
0000
0000
0000
0000
,
0110
0000
0000
0000
,
1000
0000
0000
0000
,
0010
0000
0000
0000
,
0001
0000
0000
0000
,
0100
0000
0000
0000
,
0010
0000
0000
0000
,
0010
0000
0000
0000
,
1000
0000
0000
0000
,
0001
0000
0000
0000
,
1000
0000
0000
0000
,
0010
0000
0000
0000
,
1000
0000
0000
0000
,
0001
0000
0000
0000
,
0010
0000
0000
0000
,
0001
0000
0000
0000
,
1000
0000
0000
0000
,
0010
0010
0010
0000
,
1000
0000
0000
0000
,
0001
0000
0000
0000
,
1000
0000
0000
0000
,
0001
0001
0001
0000
,
1000
0000
0000
0000
,
0001
0000
0000
0000
,
0100
0000
0000
0000
,
0110
0000
0000
0000
,
1000
0000
0000
0000
,
0001
0000
0000
0000
,
0100
0000
0000
0000
,
0010
0000
0000
0000
,
1000
0000
0000
0000
,
0001
0000
0000
0000
,
1000
0000
0000
0000
,
1000
0000
1000
0000
,
0100
0000
0100
0000
,
0010
0000
0010
0000
,
0001
0000
0001
0000
,
1000
0000
0001
0000
,
0100
0000
0010
0000
,
0100
0000
0001
0000
,
1000
0000
0001
0000
,
2000
0000
3000
0000
,
0001
0000
0100
0000
,
0001
0000
0100
0000
,
0010
0000
1000
0000
,
0010
0000
1000
0000
,
0001
0000
0100
0000
,
0001
0000
0000
0000
,
2002
0000
3003
0000
,
0010
0100
0010
0000
,
1000
0001
1000
0000
,
0001
1000
0001
0000
,
0100
0001
0100
0000
,
0010
1000
0010
0000
,
1000
0010
1000
0000
,
0001
0100
0001
0000
,
0200
0000
0300
0000
,
0100
0010
0100
0000
,
0001
1000
0001
0000
,
1000
0001
1000
0000
,
0010
1000
0010
0000
,
0100
0001
0100
0000
,
0001
0100
0001
0000
,
1000
0010
1000
0000
,
0020
0000
0030
0000
,
1000
1000
1000
0000
,
0001
0001
0001
0000
,
1000
1000
1000
0000
,
0010
0010
0010
0000
,
0100
0100
0100
0000
,
0001
0001
0001
0000
,
1000
1000
1000
0000
,
0020
0000
0030
0000
,
0000
0100
0000
0001
,
0000
0100
0000
0010
,
0000
1000
0000
0010
,
0000
0100
0000
0001
,
0000
1000
0000
0010
,
0000
1000
0000
0001
,
0000
1000
0000
0001
,
0000
1000
0000
0001
,
0002
0000
0000
0000
,
0003
0000
0000
0000
,
2000
0000
0000
0000
,
3000
0000
0000
0000
,
0020
0000
0000
0000
,
0030
0000
0000
0000
,
0200
0000
0000
0000
,
0300
0000
0000
0100
;

//---------------dance-single - ----------------
#NOTES:
     dance-single:
     :
     Medium:
     7:
     0.343,0.405,0.015,0.533,0.000:
0000
0000
0000
0000
,
0110
0000
0010
0000
0000
0100
0000
0000
,
0001
0000
0000
0000
,
0000
0000
1000
0000
0000
0010
0000
0000
,
1000
0000
0000
0010
0000
0000
1000
0000
,
0000
0000
0010
0000
0000
0100
0000
0000
,
0001
0000
0000
0000
,
0000
0000
0100
0000
0000
0010
0000
0000
,
0001
0000
0000
1000
0000
0000
0010
0000
,
1000
0000
0010
0000
0000
1000
0000
0000
,
0010
0000
0000
1000
0000
0010
0000
0000
,
0000
0000
0000
0000
0000
0100
0000
0100
,
0000
0000
0000
0001
0000
0010
0000
0001
,
0000
0000
0100
0000
0000
0100
0000
0000
,
0010
0000
0000
0001
0000
0100
0000
0001
,
0000
0000
0000
0000
0000
0010
0000
0010
,
0000
0000
0000
1000
0000
0000
0000
0000
,
1000
0100
1000
0001
,
0010
0001
0000
0000
,
0001
0010
1000
0010
,
0001
1000
0010
1000
,
0100
1000
0100
0001
,
0100
1000
1000
0100
,
0020
0000
0030
0000
,
0001
0000
0100
0001
0100
0000
0010
0000
,
1000
0000
1000
0100
1000
0000
1000
0000
,
0010
0000
0100
0010
0100
0000
0001
0000
,
0100
0000
0010
0001
0010
0000
0100
0000
,
1000
0000
0010
1000
0010
0000
0100
0000
,
0001
0000
0001
0010
0001
0000
0001
0000
,
0100
0000
0010
0100
0010
0000
1000
0000
,
0010
0000
0100
1000
0100
0000
0010
0000
,
0100
0000
1000
0100
1000
0000
0100
0000
,
2000
0000
3200
0000
,
0300
0000
0000
0000
,
0002
0000
0203
0000
,
0300
0000
0000
0000
,
0200
0000
0320
0000
,
0030
0000
0000
0000
,
2000
0000
3002
0000
,
0003
0000
0000
0000
,
1000
0010
0001
0001
,
0100
1000
0000
0000
,
0001
0010
0100
1000
,
0100
1000
0001
0010
,
0100
0010
0001
1000
,
0010
1000
0010
1000
,
0020
0000
0030
0000
,
2002
0000
3003
0000
,
1000
0000
2000
0000
0000
3020
0000
0000
,
2030
0000
0000
0000
0000
3000
0001
0100
,
0001
0000
0200
0000
0000
0320
0000
0000
,
0230
0000
0300
0200
0000
0300
0020
0000
,
0030
0000
0002
0000
0000
2003
0000
0000
,
3200
0000
0000
0000
0000
0300
0010
0001
,
0010
0000
0002
0000
0000
2003
0000
0000
,
3002
0000
0003
0002
0000
0003
2000
0000
,
3001
0000
0200
0000
0000
0320
0000
0000
,
0230
0000
0000
0000
0000
0300
0001
1000
,
0001
0000
2000
0000
0000
3020
0000
0000
,
2030
0000
3000
2000
0000
3000
0020
0000
,
0030
0000
0002
0000
0000
0203
0000
0000
,
0302
0000
0023
0000
,
0230
0000
0000
0000
,
0300
0000
1000
0000
1000
0010
1000
0010
,
0001
0000
0002
0000
0000
0203
0000
0000
,
0302
0000
0000
0000
0000
0003
1000
0010
,
1000
0000
0020
0000
0000
0230
0000
0000
,
0320
0000
0030
0020
0000
0030
0200
0000
,
0300
0000
2000
0000
0000
3002
0000
0000
,
0023
0000
0000
0000
0000
0030
0100
1000
,
0100
0000
2000
0000
0000
3002
0000
0000
,
2003
0000
3000
2000
0000
3000
0002
0000
,
1003
0000
0020
0000
0000
0230
0000
0000
,
0320
0000
0000
0000
0000
0030
1000
0001
,
1000
0000
0002
0000
0000
0203
0000
0000
,
0302
0000
0003
0002
0000
0003
0200
0000
,
0300
0000
2000
0000
0000
3020
0000
0000
,
2030
0000
3200
0000
,
0320
0000
0000
0000
,
0030
0000
0001
0000
0001
0100
0001
0100
,
0001
0000
0100
0000
0000
0010
0000
0000
,
1000
0000
0000
0000
,
0000
0000
0001
0000
0000
0100
0000
0000
,
0001
0000
0000
0100
0000
0000
0001
0000
,
0000
0000
0100
0000
0000
0010
0000
0000
,
1000
0000
0000
0000
,
0000
0000
0010
0000
0000
0100
0000
0000
,
1000
0000
0000
0001
0000
0000
0100
0000
;

//---------------dance-single - ----------------
#NOTES:
     dance-single:
     :
     Hard:
     13:
     0.454,0.506,0.068,0.114,0.000: // measure 1
0000
0000
0000
0000
,  // measure 2
0110
0000
0001
0000
0000
1000
0000
0000
,  // measure 3
0001
0000
0000
0000
,  // measure 4
0000
0000
1000
0000
0000
0100
0000
0000
,  // measure 5
0010
0000
0000
0100
0000
0000
0001
0000
,  // measure 6
0000
0000
1000
0000
0000
0010
0000
0000
,  // measure 7
0001
0000
0000
0000
,  // measure 8
0000
0000
0001
0000
0000
1000
0000
0000
,  // measure 9
0010
0000
0000
1000
0000
0000
0010
0000
,  // measure 10
1000
0000
0010
0000
0000
1000
0000
0000
,  // measure 11
0001
0000
0000
0100
0000
0001
0000
1000
,  // measure 12
0000
0000
0000
0000
0000
0100
0010
0100
,  // measure 13
0000
0010
0000
1000
0000
0001
0100
1000
,  // measure 14
0000
0000
0100
0000
0000
0001
0000
0000
,  // measure 15
1000
0000
0000
0010
0000
1000
0000
0001
,  // measure 16
0000
0000
0000
0000
0000
0010
0100
0010
,  // measure 17
0000
0100
0000
0001
0000
1000
0010
0001
,  // measure 18
0010
0100
0101
0010
,  // measure 19
1000
1010
0000
0000
,  // measure 20
1000
0010
0100
0010
,  // measure 21
1000
0001
0100
0001
,  // measure 22
0100
0001
0011
0100
,  // measure 23
1000
1010
0010
1000
,  // measure 24
0002
0000
0003
0000
,  // measure 25
1000
0000
1000
0100
0010
0001
0100
0010
,  // measure 26
1000
0010
1000
0001
,  // measure 27
0100
0001
0010
0000
0001
0000
0100
0000
,  // measure 28
0001
1000
0100
0000
1000
0000
0010
0000
,  // measure 29
1000
0000
1000
0100
0010
0100
1000
0100
,  // measure 30
0010
1000
0001
0100
,  // measure 31
0001
0100
1000
0000
1000
0000
0002
0000
,  // measure 32
1003
0010
1000
0002
,  // measure 33
0103
0000
0100
0010
1000
0000
2000
0000
,  // measure 34
3100
1000
0010
0100
,  // measure 35
0010
0001
0100
0010
,  // measure 36
1000
0100
0010
0001
,  // measure 37
0100
0001
0010
0100
,  // measure 38
1000
0001
0100
0001
,  // measure 39
1000
0010
0100
0010
,  // measure 40
1000
0001
1000
0001
,  // measure 41
1000
0010
0100
0010
0100
0001
0100
0010
,  // measure 42
0100
0010
1010
0100
,  // measure 43
0001
0101
0000
0000
,  // measure 44
0001
0100
0010
0100
,  // measure 45
0001
1000
0010
1000
,  // measure 46
0010
1000
1100
0010
,  // measure 47
0001
0101
0100
0001
,  // measure 48
2000
0000
3000
0000
,  // measure 49
0001
0000
0001
0010
0100
1000
0010
0100
,  // measure 50
0001
0000
0100
0000
0001
0100
0010
1000
,  // measure 51
0100
1000
0010
0100
0001
1000
0010
1000
,  // measure 52
0000
0000
1000
0000
1000
0100
0010
0100
,  // measure 53
0010
0100
1000
0001
0100
0001
0200
0000
,  // measure 54
0300
0000
0100
0000
0100
0001
0100
1000
,  // measure 55
0100
0001
0100
1000
0100
0010
0001
1000
,  // measure 56
0000
0000
0001
0000
0010
1000
0001
1000
,  // measure 57
0001
0100
0010
0100
0001
1000
0002
0000
,  // measure 58
0103
0000
0010
0000
0100
0010
1000
0001
,  // measure 59
0010
0001
1000
0010
0100
0001
1000
0001
,  // measure 60
0000
0000
0001
0000
0001
0010
1000
0010
,  // measure 61
1000
0010
0001
0100
0010
0100
0020
0000
,  // measure 62
0030
0000
0010
0000
0010
0100
0010
0001
,  // measure 63
0010
0100
0010
0001
0020
0000
0001
0000
,  // measure 64
0032
1000
1000
1003
,  // measure 65
1000
0000
0010
0000
1000
0010
1000
0010
,  // measure 66
1000
0000
0010
0000
1000
0010
0100
0001
,  // measure 67
0010
0001
0100
0010
1000
0001
0100
0001
,  // measure 68
0000
0000
0001
0000
0001
0010
0100
0010
,  // measure 69
0100
0010
0001
1000
0010
1000
0020
0000
,  // measure 70
0030
0000
0010
0000
0010
1000
0010
0001
,  // measure 71
0010
1000
0010
0001
0010
0100
1000
0001
,  // measure 72
0000
0000
1000
0000
0100
0001
1000
0001
,  // measure 73
1000
0010
0100
0010
1000
0001
2000
0000
,  // measure 74
3010
0000
0100
0000
0010
0100
0001
1000
,  // measure 75
0100
1000
0001
0100
0010
1000
0001
1000
,  // measure 76
0000
0000
1000
0000
1000
0100
0001
0100
,  // measure 77
0001
0100
1000
0010
0100
0010
0200
0000
,  // measure 78
0300
0000
0100
0000
0100
0010
0100
1000
,  // measure 79
0100
0010
0100
1000
0200
0000
1000
0000
,  // measure 80
2300
0001
0001
3001
,  // measure 81
0001
0000
0100
0000
0001
0100
0001
0100
,  // measure 82
0001
0000
0100
0000
0000
0010
0000
0000
,  // measure 83
0100
0000
0000
0000
,  // measure 84
0000
0000
0010
0000
0000
1000
0000
0000
,  // measure 85
0001
0000
0000
1000
0000
0000
0100
0000
,  // measure 86
0000
0000
0010
0000
0000
0001
0000
0000
,  // measure 87
0100
0000
0000
0000
,  // measure 88
0000
0000
0100
0000
0000
0010
0000
0000
,  // measure 89
0001
0000
0000
0010
0000
0000
0001
0000
;
