#TITLE:FANCY;
#SUBTITLE:;
#ARTIST:TWICE;
#TITLETRANSLIT:;
#SUBTITLETRANSLIT:;
#ARTISTTRANSLIT:;
#CREDIT:;
#BANNER:FANCY.png;
#BACKGROUND:FANCY-bg.png;
#LYRICSPATH:;
#CDTITLE:;
#MUSIC:FANCY.mp3;
#OFFSET:1.660;
#SAMPLESTART:57.880;
#SAMPLELENGTH:15.000;
#SELECTABLE:YES;
#BPMS:0.000=132.000;
#STOPS:;
#BGCHANGES:3.060=FANCY.avi=1.000=0=0=0,
99999=-nosongbg-=1.000=0=0=0 // don't automatically add -songbackground-
;

//---------------dance-single - ----------------
#NOTES:
     dance-single:
     :
     Easy:
     4:
     0.258,0.383,0.078,0.156,0.000:
0000
0000
0000
0000
,
0000
0000
0000
0000
,
0000
0000
0000
0000
,
0000
0000
0000
0000
,
0000
0000
0000
0000
,
0010
1000
0010
0000
,
0100
0001
0100
0000
,
0001
0010
1000
0000
,
1000
0001
0100
0001
,
1001
0000
0001
0000
,
0100
0000
0010
0110
,
0010
0000
1000
0000
,
0001
0000
1000
0001
,
0001
0000
0100
0000
,
0010
0000
1000
1001
,
0001
0000
0100
0000
,
0001
1000
1000
1010
,
1000
0010
0000
0100
,
0001
0010
0000
0100
,
0010
0100
0000
0001
,
1000
0010
0000
1000
,
0010
0001
0000
0001
,
1000
0010
0000
0001
,
0010
1000
0000
0010
,
0010
0010
0000
1000
,
0001
0001
0100
0001
,
0001
0001
1000
0001
,
0001
0001
0010
0001
,
0001
0100
0001
0001
,
1000
0010
1000
0010
,
1000
0001
0100
0001
,
0100
0010
0100
0010
,
0100
0010
1010
0000
,
1010
1000
0001
0000
,
0001
0100
0001
1000
,
0010
0000
0100
0000
,
0010
0100
0010
0000
,
1001
0001
0100
0000
,
1000
0100
0010
0001
,
0100
0000
0010
0000
,
1000
0001
1000
0000
,
0002
0100
0103
0000
,
2000
0100
3100
0000
,
0020
0100
0130
0010
,
0100
0010
1000
0001
,
0200
0001
0301
0000
,
2000
0010
3010
0000
,
0200
0010
0310
0010
,
2000
3002
2003
3002
,
1003
0000
0010
0000
,
0100
0000
0001
0000
,
1000
0000
0010
0000
,
1000
0000
0001
0000
,
0100
0000
0001
0000
,
1000
0000
0010
0000
,
1000
0010
1000
0010
,
1000
0010
0110
2002
,
0000
0000
0000
3003
,
0101
0001
1000
0000
,
1000
0010
1000
0001
,
0100
0000
0010
0000
,
0100
0010
0100
0000
,
1001
1000
0010
0000
,
0001
0010
0100
1000
,
0010
0000
0100
0000
,
0001
1000
0001
0000
,
2000
0010
3010
0000
,
0002
0010
0013
0000
,
0200
0010
0310
0100
,
0010
0100
0001
1000
,
0020
1000
1030
0000
,
0002
0100
0103
0000
,
0020
0100
0130
0100
,
0002
2003
3002
2003
,
3001
0000
0100
0000
,
0010
0000
1000
0000
,
0001
0000
0000
0000
0100
0000
0000
0010
,
0000
0100
0010
0000
0000
0000
0000
0000
;

//---------------dance-single - ----------------
#NOTES:
     dance-single:
     :
     Beginner:
     1:
     0.164,0.219,0.071,0.071,0.000:
0000
0000
0000
0000
,
0000
0000
0000
0000
,
0000
0000
0000
0000
,
0000
0000
0000
0000
,
0000
0000
0000
0000
,
0000
0000
0000
0000
,
0000
0000
0000
0000
,
0000
0000
0000
0000
,
0000
0000
0000
0000
,
1000
0000
1000
0000
,
0100
0000
0001
0000
,
0010
0000
0010
0000
,
0100
0000
0010
0000
,
0001
0000
0001
0000
,
0010
0000
1000
0000
,
0100
0000
0100
0000
,
0010
0000
0100
0000
,
0010
0010
0010
0000
,
1000
0000
0001
0000
,
1000
1000
1000
0000
,
0010
0000
0100
0000
,
0010
0010
0010
0000
,
1000
0000
0010
0000
,
0100
0100
0100
0000
,
0001
0000
1000
0000
,
1001
0000
0001
0000
,
0100
0000
0010
0000
,
1000
0000
0001
0000
,
0100
0000
0010
0000
,
0110
0000
0010
0000
,
1000
0000
0010
0000
,
1000
0000
0001
0000
,
0100
0000
0001
0000
,
0110
0000
0010
0000
,
1000
0001
1000
0000
,
0001
0000
0100
0000
,
0001
0010
0001
0000
,
1000
0000
0010
0000
,
0100
0010
0100
0000
,
0010
0000
1000
0000
,
0010
1000
0010
0000
,
2002
0000
3003
0000
,
1000
0000
0001
0000
,
0010
0000
0100
0000
,
0010
0000
0100
0000
,
0220
0000
0330
0000
,
0100
0000
0010
0000
,
1000
0000
0001
0000
,
0200
0000
0000
0000
,
0300
0000
0010
0000
,
1010
0000
0001
0000
,
0100
0000
0001
0000
,
1001
0000
0010
0000
,
0100
0000
0010
0000
,
0110
0000
0100
0000
,
0001
0000
1000
0000
,
0010
0000
0100
0000
,
0200
0000
0000
0000
,
0300
0000
0100
0000
,
0001
1000
0001
0000
,
1000
0000
0010
0000
,
1000
0100
1000
0000
,
0001
0000
0100
0000
,
0010
0100
0010
0000
,
0100
0000
0001
0000
,
0100
0001
0100
0000
,
2002
0000
3003
0000
,
0001
0000
1000
0000
,
0100
0000
0010
0000
,
0100
0000
0010
0000
,
0220
0000
0330
0000
,
0010
0000
0100
0000
,
0001
0000
1000
0000
,
0010
0000
1000
0000
,
0001
0000
0100
0000
,
0001
0000
1000
0000
,
0010
0000
0100
0000
,
0010
0010
0000
0000
;

//---------------dance-single - ----------------
#NOTES:
     dance-single:
     :
     Medium:
     9:
     0.384,0.442,0.113,0.113,0.039:
0000
0000
0000
0000
,
0000
0000
0000
0000
,
0000
0000
0000
0000
,
0000
0000
0000
0000
,
0000
0000
0000
0000
,
0110
0000
0000
0000
0000
0000
0000
0100
,
0000
0010
0100
0000
0010
1000
0010
0000
,
1001
0000
0000
0000
,
2002
0000
0000
3003
,
0110
0000
0000
0010
0000
0000
0100
0000
0000
0000
0000
0000
0000
0000
0000
0000
,
0001
0000
0000
1000
0000
0000
0010
0000
0000
0000
0000
0000
0000
0000
0000
0000
,
0010
0000
0000
1000
0000
0000
0010
0000
0000
0000
0000
0000
0000
0000
0000
0000
,
1000
0000
0000
0100
0000
0000
0010
0000
0000
0000
0000
0000
0000
0000
0000
0000
,
0001
0000
0000
1000
0000
0000
0001
0000
0000
0000
0000
0000
0000
0000
0000
0000
,
1000
0000
0000
0010
0000
0000
0001
0000
0000
0000
0000
0000
0000
0000
0000
0000
,
1000
0000
0000
0010
0000
0000
1000
0000
0000
0000
0010
0000
0001
0000
0010
0000
,
0001
0000
1000
0100
0010
0000
1001
0000
,
0001
0100
0010
0000
1000
0010
0100
0000
,
0010
0100
0010
0000
1000
0010
1000
0000
,
0001
0100
0001
0000
0001
0010
0100
0000
,
0010
0100
1000
0000
1000
0001
1000
0000
,
0001
0100
0001
0000
1000
0010
0100
0000
,
0010
0100
0010
0000
1000
0100
0010
0000
,
0100
0010
0001
0000
1000
0001
1000
0000
,
0010
0000
0000
0100
0000
0000
0010
0000
0000
0000
0220
0000
0000
0000
0330
0000
,
0010
1000
0010
0000
1000
0000
0001
0000
,
0100
0001
1000
0010
,
1000
0010
1000
0000
0001
0000
0100
0000
,
0001
0010
0001
1000
,
1000
0001
0100
0000
0010
0000
0100
0000
,
0010
1000
0001
0100
,
0001
0000
0000
1000
0000
0000
0001
0000
0000
1000
0000
0000
0010
0000
0000
0100
,
0000
0001
0010
0100
1000
0000
1000
0100
,
1000
0000
0001
0000
1000
0000
0010
0100
,
0010
0000
0001
0000
1000
0000
0001
0010
,
0100
0000
1000
0000
0010
0000
0100
0010
,
0100
0000
0010
0000
1000
0001
1000
0001
,
0100
0000
0001
0000
0100
0000
0010
1000
,
0001
0000
0100
0000
0010
0000
1000
0001
,
0100
0000
0010
0000
1000
0000
0001
0100
,
0001
1000
0010
1001
,
1000
0010
1000
0010
1000
0010
1000
0000
,
0001
0100
0001
0100
0001
0100
0001
0000
,
0010
0100
0010
0100
0010
0100
0010
0000
,
1000
0100
1000
0100
1000
0100
1000
0000
,
0010
1000
0010
1000
0010
1000
0010
0000
,
0100
0001
0100
0001
0100
0001
0100
0000
,
0001
1000
0001
1000
0001
1000
0001
0000
,
2000
3200
0320
0032
,
0003
0001
0000
0000
0000
0010
0000
0000
,
0000
0100
0000
0000
0000
1000
0000
0000
,
0000
0010
0000
0000
0000
0100
0000
0000
,
0000
0001
0000
0000
0000
1000
0000
0000
,
0011
0010
0100
1000
,
1100
1000
0001
1000
,
1001
0001
0100
0010
,
0110
0100
0110
2002
,
0000
0000
0000
0000
0000
3003
0001
0010
,
0001
0000
1000
0000
0001
0000
0100
0010
,
0100
0000
1000
0000
0001
0000
1000
0100
,
0010
0000
0001
0000
0100
0000
0010
0100
,
0010
0000
0100
0000
0001
1000
0001
1000
,
0010
0000
1000
0000
0010
0000
0100
0001
,
1000
0000
0010
0000
0100
0000
0001
1000
,
0010
0000
0100
0000
0001
0000
1000
0010
,
1000
0001
0100
1001
,
0001
0100
0001
0100
0001
0100
0001
0000
,
1000
0010
1000
0010
1000
0010
1000
0000
,
0100
0010
0100
0010
0100
0010
0100
0000
,
0001
0010
0001
0010
0001
0010
0001
0000
,
0100
0001
0100
0001
0100
0001
0100
0000
,
0010
1000
0010
1000
0010
1000
0010
0000
,
1000
0001
1000
0001
1000
0001
1000
0000
,
0002
0023
0230
2300
,
3010
0100
0000
0010
0000
0000
0000
0001
,
0000
1000
0001
0000
0100
0010
0100
0000
,
0110
0000
0000
0000
0000
0000
0000
0010
,
0000
1000
2002
0000
0000
0000
0000
0000
,
3003
0000
0000
0000
;

//---------------dance-single - ----------------
#NOTES:
     dance-single:
     :
     Hard:
     14:
     0.507,0.607,0.120,0.092,0.234: // measure 1
0000
0000
0000
0000
,  // measure 2
0000
0000
0000
0000
,  // measure 3
0000
0000
0000
0000
,  // measure 4
0000
0000
0000
0000
,  // measure 5
0000
0000
0000
0000
,  // measure 6
2001
0000
0000
0000
0000
0000
3000
1000
,  // measure 7
0000
0001
0100
0000
0010
0100
0010
0000
,  // measure 8
0120
0000
0000
0000
0000
0000
0130
0010
,  // measure 9
1000
0100
1000
0010
1000
0001
1000
0010
,  // measure 10
0100
0000
0000
0010
0000
0000
0100
0000
0001
0000
0000
0100
0000
0000
0010
0000
,  // measure 11
1000
0000
0000
0010
0000
0000
0100
0000
0001
0000
0000
0000
1001
0000
0000
0000
,  // measure 12
0010
0000
0000
0100
0000
0000
0010
0000
1000
0000
0000
0100
0000
0000
0010
0000
,  // measure 13
0001
0000
0000
0010
0000
0000
0100
0000
1000
0000
0000
0000
0001
0000
0100
0000
,  // measure 14
0010
0000
0000
0100
0000
0000
0010
0000
1000
0000
0000
0010
0000
0000
0100
0000
,  // measure 15
0001
0000
0000
0100
0000
0000
0010
0000
1000
0000
0000
0000
1001
0000
0000
0000
,  // measure 16
0100
0000
0000
0010
0000
0000
0100
0000
0000
0000
0100
0000
0001
0000
0100
0000
,  // measure 17
0001
0000
1000
0010
1000
0000
0101
0100
,  // measure 18
0010
0000
0000
0100
0000
0000
0010
0000
1000
0000
0000
0010
0000
0000
0100
0000
,  // measure 19
0001
0000
0000
0100
0000
0000
0010
0000
1000
0000
0001
0000
0010
0000
0000
0000
,  // measure 20
0010
0000
0000
0010
0000
0000
0100
0000
0001
0000
0000
0010
0000
0000
0100
0000
,  // measure 21
1000
0000
0000
0100
0000
0000
0010
0000
0001
0000
1000
0000
0010
0000
0000
0000
,  // measure 22
0100
0000
0000
0010
0000
0000
0100
0000
0001
0000
0000
0100
0000
0000
0010
0000
,  // measure 23
2000
0000
3010
1000
0000
1000
0100
0010
,  // measure 24
0001
0000
0000
0001
0000
0000
0100
0000
0000
0000
0010
0000
0100
0000
0010
0000
,  // measure 25
0200
0000
0000
0310
0000
0000
1001
0000
0000
0000
2002
0000
0000
0000
3003
0000
,  // measure 26
1000
0010
0100
0000
0010
0000
1000
0000
,  // measure 27
0001
1000
0010
1000
0001
1000
0010
1000
,  // measure 28
0001
0010
0100
0000
1000
0010
0100
0010
,  // measure 29
1000
0100
0010
0001
0100
0001
0100
0001
,  // measure 30
0001
0100
0010
0000
0100
0000
0001
0000
,  // measure 31
1000
0001
0100
0001
1000
0001
0100
0001
,  // measure 32
1000
0100
0010
0001
1000
0100
0010
0001
,  // measure 33
1000
0001
0100
0001
1000
0010
1000
0001
1000
0000
0000
0000
0010
0000
1000
0000
,  // measure 34
1010
0000
0000
0010
0000
0000
1000
0000
0000
0010
0000
0000
1000
0000
0000
0000
,  // measure 35
0001
0010
0100
1000
0010
1000
0001
0100
,  // measure 36
0001
0000
0100
0001
0000
1000
0020
0000
,  // measure 37
1030
0010
1000
0000
1000
1001
0001
0010
,  // measure 38
0011
0000
0000
0001
0000
0000
0010
0000
0000
0001
0000
0000
0010
0000
0000
0000
,  // measure 39
0100
0001
1000
0010
0001
0010
0100
1000
,  // measure 40
0100
0000
1000
0100
0000
0010
0002
0000
,  // measure 41
0013
0001
0010
0000
0001
1000
0010
0000
1000
0010
0100
0010
1000
0000
0001
0000
,  // measure 42
1000
0000
0010
1000
0010
0000
1000
0000
0010
0000
1000
0000
0010
0000
0100
0000
,  // measure 43
0001
0000
0100
0001
0100
0000
0001
0000
0100
0000
0010
0000
0100
0000
0010
0000
,  // measure 44
0100
0000
0001
1000
0010
0000
1000
0000
0001
0000
1000
0000
0001
0000
1000
0000
,  // measure 45
0001
0000
1000
0001
1000
0000
0010
0000
1000
0000
0010
0000
1000
0000
0010
0000
,  // measure 46
1000
0000
0010
0100
0001
0000
0010
0000
0001
0000
1000
0000
0100
0000
1000
0000
,  // measure 47
0010
0000
1000
0010
0100
0000
0010
0000
0100
0000
0001
0000
0010
0000
0001
0000
,  // measure 48
1000
0000
0001
1000
0100
0000
1000
0000
0001
0000
0100
0000
0010
0000
0100
0000
,  // measure 49
0000
0000
0010
0100
0000
0000
0110
0000
,  // measure 50
0100
0000
0000
0010
0000
0000
1000
0000
0000
0001
0000
0000
0100
0000
0000
0000
,  // measure 51
0010
1000
0001
0100
0000
0000
0001
0000
0000
1000
0000
0000
,  // measure 52
0010
0000
0000
1000
0000
0000
1000
0000
0010
0000
0000
0100
0000
0000
0001
0000
,  // measure 53
1000
0000
0000
0100
0000
0000
0010
0000
0001
0000
0000
0010
0000
0000
0000
0000
,  // measure 54
1001
0000
0000
0010
0000
0000
0100
0000
0000
0001
0000
0000
0100
0000
0000
0000
,  // measure 55
0010
1000
0001
0100
0000
0000
0010
0000
0000
1000
0000
0000
,  // measure 56
0001
0100
0010
1000
,  // measure 57
0001
1000
0001
2002
,  // measure 58
0000
0000
0000
0000
0000
3003
0100
0001
,  // measure 59
0101
0000
0000
0100
0000
0000
0001
0000
0000
0100
0000
0000
0001
0000
0000
0000
,  // measure 60
1000
0100
0010
0001
0100
0001
1000
0010
,  // measure 61
1000
0000
0010
1000
0000
0001
0200
0000
,  // measure 62
0301
0100
0001
0000
0001
1001
1000
0100
,  // measure 63
1100
0000
0000
1000
0000
0000
0100
0000
0000
1000
0000
0000
0100
0000
0000
0000
,  // measure 64
0010
1000
0001
0100
1000
0100
0010
0001
,  // measure 65
0010
0000
0001
0010
0000
0100
2000
0000
,  // measure 66
3100
1000
0100
0000
1000
0001
0100
0000
0001
0100
0010
0100
0001
0000
1000
0000
,  // measure 67
0001
0000
0100
0001
0100
0000
0001
0000
0100
0000
0001
0000
0100
0000
0010
0000
,  // measure 68
1000
0000
0010
1000
0010
0000
1000
0000
0010
0000
0100
0000
0010
0000
0100
0000
,  // measure 69
0010
0000
1000
0001
0100
0000
0001
0000
1000
0000
0001
0000
1000
0000
0001
0000
,  // measure 70
1000
0000
0001
1000
0001
0000
0100
0000
0001
0000
0100
0000
0001
0000
0100
0000
,  // measure 71
0001
0000
0100
0010
1000
0000
0100
0000
1000
0000
0001
0000
0010
0000
0001
0000
,  // measure 72
0100
0000
0001
0100
0010
0000
0100
0000
0010
0000
1000
0000
0100
0000
1000
0000
,  // measure 73
0001
0000
1000
0001
0010
0000
0001
0000
1000
0000
0010
0000
0100
0000
0010
0000
,  // measure 74
0000
0000
0100
0010
0000
0100
0010
0000
,  // measure 75
0001
1000
0000
0010
0000
0000
0000
1000
,  // measure 76
0000
0010
0100
0000
0001
1000
0010
0000
,  // measure 77
1001
0001
0000
1000
0000
0000
0000
0010
,  // measure 78
0000
0010
0200
0000
0000
0000
0000
0000
,  // measure 79
0300
0000
0000
0000
;
