#TITLE:Everyday I Love You (feat. HaSeul);
#SUBTITLE:;
#ARTIST:LOONA;
#TITLETRANSLIT:;
#SUBTITLETRANSLIT:;
#ARTISTTRANSLIT:;
#CREDIT:;
#BANNER:Everyday I Love You (feat. HaSeul).png;
#BACKGROUND:Everyday I Love You (feat. HaSeul)-bg.png;
#LYRICSPATH:;
#CDTITLE:;
#MUSIC:Everyday I Love You (feat. HaSeul).mp3;
#OFFSET:-0.620;
#SAMPLESTART:57.100;
#SAMPLELENGTH:15.000;
#SELECTABLE:YES;
#BPMS:0.000=120.000;
#STOPS:;
#BGCHANGES:-1.420=Everyday I Love You (feat. HaSeul).avi=1.000=0=0=0,
99999=-nosongbg-=1.000=0=0=0 // don't automatically add -songbackground-
;

//---------------dance-single - ----------------
#NOTES:
     dance-single:
     :
     Easy:
     5:
     0.202,0.314,0.075,0.123,0.000:
0000
0000
0000
0000
,
0000
0000
0000
0000
,
0000
0000
0000
0000
,
0000
0000
0000
0000
,
0000
0000
0000
0000
,
0000
0000
0000
0000
,
0000
0000
0000
0000
,
0000
0000
0000
0000
,
0000
0000
0000
0000
,
0000
0000
0000
0000
,
0000
1000
0000
0001
,
0000
1000
0000
0001
,
1000
0110
0001
1000
,
0010
1010
0100
0010
,
0001
0101
0000
0010
,
1000
0010
0100
0001
,
0001
0110
1000
0001
,
0100
0101
0010
0100
,
1000
1010
0000
0100
,
0001
0100
0010
1000
,
2000
0010
0000
3010
,
0200
0001
0000
0301
,
0002
1000
0000
1003
,
0020
0100
0000
0130
,
0002
0100
0000
0103
,
0020
1000
0000
1030
,
2000
0001
0000
3001
,
0010
0010
0000
0100
0000
0010
0000
0000
,
0002
0023
0230
2300
,
3001
0001
1000
0010
,
0000
0010
0100
0010
,
0000
1000
0010
0100
,
0000
0001
0010
0100
,
0000
1000
0100
0010
,
0000
1000
0001
1000
,
0000
0010
0000
0100
,
0000
0001
0000
1000
,
1001
0001
0000
0010
,
0110
0010
0000
0100
,
1010
0010
0000
0001
,
0011
0100
0000
1000
,
0010
0100
0000
0010
,
0010
1000
0000
0100
,
0010
0010
0000
0100
,
0001
0010
0000
0020
,
0030
0000
0000
0010
,
0010
0000
0000
0010
,
0010
0000
0000
0010
,
0010
0000
0000
0010
,
0010
0000
0000
0000
,
0000
0010
0000
0010
,
0000
0100
0000
0100
,
0001
0010
0001
1000
,
0200
2300
3200
2300
,
3010
1000
0001
0100
,
0000
0100
0010
0100
,
0000
0001
0100
0010
,
0000
1000
0100
0010
,
0000
0001
0010
0100
,
0000
0001
1000
0001
,
0000
0100
0000
0010
,
0000
1000
0000
0001
,
1000
1000
0010
0100
,
0000
0100
0001
0100
,
0000
0010
0100
0001
,
0000
1000
0100
0001
,
0000
0010
0001
0100
,
0000
0010
1000
0010
,
0000
0100
0000
0001
,
0000
1000
0000
0010
,
2020
0000
3030
0000
;

//---------------dance-single - ----------------
#NOTES:
     dance-single:
     :
     Beginner:
     3:
     0.148,0.169,0.007,0.021,0.000:
0000
0000
0000
0000
,
0000
0000
0000
0000
,
0000
0000
0000
0000
,
0000
0000
0000
0000
,
0000
0000
0000
0000
,
0000
0000
0000
0000
,
0000
0000
0000
0000
,
0000
0000
0000
0000
,
0000
0000
0000
0000
,
0000
0000
0000
0000
,
0000
1000
0000
1000
,
0000
0001
0000
0001
,
0000
0100
0000
0010
,
0000
1000
0000
0010
,
0000
1000
0000
0001
,
0000
0100
0000
0001
,
0000
0100
0000
0010
,
0000
1000
0000
0010
,
0000
1000
0000
0001
,
0000
0100
0000
0001
,
0000
0010
0000
0010
,
0000
0100
0000
0100
,
0000
1000
0000
0010
,
0000
1000
0000
0100
,
0000
0001
0000
0100
,
0000
1000
0000
0001
,
0000
0100
0000
0001
,
0000
1000
0000
0010
,
0020
0000
0000
0030
,
0000
0010
0100
0010
,
0000
1000
0001
1000
,
0000
0001
0100
0001
,
0000
1000
0010
1000
,
0000
0001
0010
0001
,
0000
1000
0100
1000
,
0000
0100
0010
0100
,
0000
0001
1000
0001
,
0000
0100
0100
0100
,
0000
0001
0001
0001
,
0000
0010
0010
0010
,
0000
1000
1000
1000
,
0000
0001
0000
1000
,
0000
0010
0000
0100
,
0000
0001
0000
1000
,
0000
0010
0000
1000
,
0000
0000
0000
0010
,
0010
0000
0000
1000
,
1000
0000
0000
1000
,
1000
0000
0000
0100
,
0100
0000
0000
0000
,
1001
0000
0010
0000
,
0100
0000
0001
0000
,
1000
1000
1000
1000
,
2000
0000
0000
3000
,
0000
0100
0010
0100
,
0000
0001
1000
0001
,
0000
1000
0010
1000
,
0000
0001
0100
0001
,
0000
1000
0100
1000
,
0000
0001
0010
0001
,
0000
0010
0100
0010
,
0000
1000
0001
1000
,
0000
0100
0001
0100
,
0000
0010
1000
0010
,
0000
1000
0001
1000
,
0000
0010
0100
0010
,
0000
1000
0100
1000
,
0000
0010
0001
0010
,
0000
0001
0100
0001
,
0000
1000
0010
1000
,
2000
0000
3000
0000
;

//---------------dance-single - ----------------
#NOTES:
     dance-single:
     :
     Medium:
     7:
     0.323,0.507,0.014,0.397,0.027:
0000
0000
0000
0000
,
0000
0000
0000
0000
,
0000
0000
0000
0000
,
0000
0000
0000
0000
,
0000
0000
0000
0000
,
0000
0000
0000
0000
,
0000
0000
0000
0000
,
0000
0000
0000
0000
,
0000
0000
0000
0000
,
0000
0000
0000
0000
,
0000
1000
0010
1000
,
0000
0001
0100
0010
,
0100
0000
0000
0001
0000
0000
0000
0000
1000
0000
0000
0000
0010
0000
0000
0000
,
0100
0000
0000
0010
0000
0000
0000
0000
1000
0000
0000
0000
0100
0000
0000
0000
,
1000
0000
0000
1000
0000
0000
0000
0000
0010
0000
0000
0000
0001
0000
0000
0000
,
1000
0000
0000
0001
0000
0000
0000
0000
0010
0000
0000
0000
0100
0000
0000
0000
,
0010
0000
0000
1000
0000
0000
0000
0000
0001
0000
0000
0000
0100
0000
0000
0000
,
0010
0000
0000
0100
0000
0000
0000
0000
0001
0000
0000
0000
0010
0000
0000
0000
,
0001
0000
0000
0001
0000
0000
0000
0000
0100
0000
0000
0000
1000
0000
0000
0000
,
0001
0000
0000
1000
0000
0000
0000
0000
0100
0000
0000
0000
0010
0000
0000
0000
,
0010
0100
1000
0001
0000
0000
1000
0000
,
0001
0100
0000
0010
,
0001
0100
0000
1000
,
0010
0100
0000
0100
,
0001
0010
0100
1000
0000
0000
0100
0000
,
1000
0010
0000
0001
,
0010
0100
0000
0100
,
0010
0100
0000
0010
0000
0100
0000
0000
,
0002
0023
0230
2300
,
3000
0000
0010
1000
0000
0020
2030
3002
,
0203
0300
0010
0100
0000
0002
2003
3020
,
0230
0300
0100
0010
0000
2000
3200
0320
,
0032
0003
0001
0100
0000
0002
0203
0320
,
2030
3000
0001
1000
0000
0001
0000
0100
,
0000
0010
0000
1000
0000
0010
0000
0100
,
0010
0100
0010
0100
0000
0010
0000
1000
,
0100
0100
0000
0010
0000
0100
0000
0000
,
0001
0010
0001
0000
0100
0000
0010
0000
,
0010
0100
1000
0000
0010
0000
1000
0000
,
0100
0010
0001
0000
0100
0000
0001
0000
,
0100
0001
1000
0000
0010
1000
0001
0000
,
0100
0001
1000
0000
0010
1000
0100
0000
,
0010
0000
1000
0100
0010
0000
0100
0010
,
0001
0100
0001
1000
,
0001
0001
0000
0100
0000
0020
0000
0000
,
1030
0000
0000
1000
0000
0000
1000
0000
,
1000
0000
0000
0010
0000
0000
0010
0000
,
0010
0000
0000
0100
0000
0000
0100
0000
,
0100
0000
0000
0001
0000
0000
0001
0000
,
0001
0000
0000
0000
0001
0100
0010
0000
,
0110
0000
0000
0000
0100
0010
0100
0000
,
1001
0001
0000
1000
,
0010
1000
0001
0100
,
0002
2003
3002
2003
,
3000
0000
0100
0001
0000
0200
0302
2003
,
3020
0030
0100
0010
0000
2000
3002
0203
,
0320
0030
0010
0100
0000
0002
0023
0230
,
2300
3000
1000
0010
0000
2000
3020
0230
,
0302
0003
1000
0001
0000
1000
0000
0010
,
0000
0100
0000
0001
0000
0100
0000
0010
,
0100
0010
0100
0010
0000
0100
0000
0001
,
0010
0010
0000
0100
0000
0010
0000
0000
,
0000
0000
0001
0010
0000
0002
0023
0230
,
2300
3000
0001
1000
0000
0200
0320
0032
,
2003
3000
1000
0001
0000
0020
2030
3002
,
0203
0300
0100
1000
0000
0200
2300
3002
,
0023
0030
0100
0010
0000
0100
0000
1000
,
0000
0001
0000
0010
0000
0001
0000
1000
,
0001
1000
0001
1000
0000
0001
0000
0010
,
1000
1000
0000
0001
0000
1000
0000
0000
,
0200
0000
0300
0000
;

//---------------dance-single - ----------------
#NOTES:
     dance-single:
     :
     Hard:
     14:
     0.382,0.652,0.062,0.082,0.188: // measure 1
0000
0000
0000
0000
,  // measure 2
0000
0000
0000
0000
,  // measure 3
0000
0000
0000
0000
,  // measure 4
0000
0000
0000
0000
,  // measure 5
0000
0000
0000
0000
,  // measure 6
0000
0000
0000
0000
,  // measure 7
0000
0000
0000
0000
,  // measure 8
0000
0000
0000
0000
,  // measure 9
0000
0000
0000
0000
,  // measure 10
0000
0000
0000
0000
,  // measure 11
0010
0000
1000
0010
1000
0000
0000
0000
0000
0000
0010
0000
0010
0000
0000
0000
,  // measure 12
0001
0000
0100
0001
0100
0000
0000
0000
0000
0000
0100
0000
0100
0000
0000
0000
,  // measure 13
0001
0000
0000
0100
0000
0000
0001
0010
0100
0000
0010
0000
1000
0000
0100
0000
,  // measure 14
1000
0000
0000
0010
0000
0000
1000
0010
1000
0000
0010
0000
0100
0000
0001
0000
,  // measure 15
0010
0000
0000
0001
0000
0000
0100
0000
0000
0000
0000
0000
0100
0000
0010
0000
,  // measure 16
0100
0000
0000
0010
0000
0000
1000
0000
0000
0000
0010
0000
0100
0000
1000
0000
,  // measure 17
0001
0000
0000
0010
0000
0000
1000
0100
0010
0000
0100
0000
0001
0000
0010
0000
,  // measure 18
0001
0000
0000
0100
0000
0000
0001
0100
0001
0000
0100
0000
0010
0000
1000
0000
,  // measure 19
0100
0000
0000
1000
0000
0000
0010
0000
0000
0000
0000
0000
0010
0000
0100
0000
,  // measure 20
0010
0000
0000
0100
0000
0000
0001
0000
0000
0000
0100
0000
0010
0000
0001
0000
,  // measure 21
0100
0001
0100
0010
0000
1000
0000
1001
,  // measure 22
0000
0000
0000
1000
0000
0010
0000
0110
,  // measure 23
0000
0000
0000
0000
0000
0010
0100
0001
,  // measure 24
0100
0010
1000
0010
0000
0100
0010
0100
,  // measure 25
0010
1000
0010
0100
0000
0001
0000
1001
,  // measure 26
0000
0000
0000
0001
0000
0100
0000
0110
,  // measure 27
0000
0000
0000
0000
0000
0100
0010
1000
,  // measure 28
0010
0100
0001
0100
0000
0010
0100
0000
,  // measure 29
2001
3200
0320
0032
,  // measure 30
0103
0000
0000
0000
0001
0000
0100
0000
0000
0000
0010
0000
0100
0000
0001
0100
,  // measure 31
0000
0000
0000
0000
1000
0000
1000
0000
0000
0000
0010
0000
0100
0000
0010
1000
,  // measure 32
0000
0000
0000
0000
0010
0000
0001
0000
0000
0000
0010
0000
0001
0000
0010
0001
,  // measure 33
0000
0000
0100
0001
0000
0010
0000
0001
,  // measure 34
0000
0000
0010
1000
0000
0100
0000
1000
,  // measure 35
0000
0010
0000
0100
0000
0010
0000
0001
,  // measure 36
0010
0001
0100
1000
0000
1000
0000
0000
,  // measure 37
0010
0010
0000
1000
0000
0010
1000
0000
,  // measure 38
1001
0000
0010
0000
0100
0000
0010
0100
0010
0100
0010
0000
1000
0000
0001
0000
,  // measure 39
0000
0000
0100
0000
0001
0000
1000
0010
1000
0010
1000
0001
0100
0000
0001
0000
,  // measure 40
0000
0000
0001
0000
0001
0000
0100
0001
0100
0001
1000
0010
1000
0000
0010
0000
,  // measure 41
0100
0010
0100
0010
1000
0001
1000
0001
0100
0010
0100
0010
1000
0000
0010
0000
,  // measure 42
0000
0000
1000
0010
0100
0001
0100
0010
1000
0001
0100
0010
0100
0001
0000
0000
,  // measure 43
1000
0000
0000
0000
0010
0100
0010
0100
0001
1000
0010
1000
0001
1000
0010
0000
,  // measure 44
1000
0000
0001
0000
0100
0000
0001
0000
1000
0000
0010
0100
0000
0000
0010
1000
,  // measure 45
0010
0100
0001
0100
0010
0000
0100
0001
0010
0001
0100
0002
0000
0000
0000
0000
,  // measure 46
1003
0010
1000
0010
0000
0100
0100
0100
,  // measure 47
0100
0000
0010
0001
0000
1000
0010
1000
,  // measure 48
0010
0000
0100
1000
0000
0001
0010
0100
,  // measure 49
1000
0000
1000
0001
0000
1000
0100
0010
,  // measure 50
0001
0000
0000
0100
1000
0001
0010
0000
,  // measure 51
1001
0000
0000
0010
0100
0010
0100
0000
,  // measure 52
0110
0010
0000
1000
,  // measure 53
0100
0010
0100
0010
,  // measure 54
0002
0023
0230
2300
,  // measure 55
3010
0000
1000
0010
0000
0100
0010
1000
,  // measure 56
0010
0000
0000
0000
0001
0000
0001
0000
0000
0000
0100
0000
0010
0000
0100
0001
,  // measure 57
0000
0000
0000
0000
0100
0000
1000
0000
0000
0000
0100
0000
1000
0000
0100
1000
,  // measure 58
0000
0000
0000
0000
0010
0000
1000
0000
0000
0000
0100
0000
0010
0000
1000
0001
,  // measure 59
0000
0000
0100
0001
0000
0010
0000
0001
,  // measure 60
0000
0000
0010
0100
0000
0100
0000
1000
,  // measure 61
0100
1000
0010
0001
0000
0001
0000
0000
,  // measure 62
0100
0100
0000
0001
0000
0100
0001
0000
,  // measure 63
0001
0000
1000
0001
0000
0100
0001
1000
,  // measure 64
0001
0000
0000
0000
0010
0000
0010
0000
0000
0000
0100
0000
0001
0000
0100
0010
,  // measure 65
0000
0000
0000
0000
0100
0000
1000
0000
0000
0000
0100
0000
1000
0000
0100
0010
,  // measure 66
0000
0000
0000
0000
0001
0000
1000
0000
0000
0000
0100
0000
0010
0000
1000
0010
,  // measure 67
0000
0000
0100
0010
0000
0001
0000
0002
,  // measure 68
0000
0100
0000
1000
0000
0100
0003
1000
,  // measure 69
0100
1000
0001
0010
0000
0010
0000
0000
,  // measure 70
0100
0100
0000
0010
0000
0100
0010
0000
,  // measure 71
2020
0000
3030
0000
;
