#TITLE:Emergence;
#SUBTITLE:;
#ARTIST:Yultron & LLLLNNNN;
#TITLETRANSLIT:;
#SUBTITLETRANSLIT:;
#ARTISTTRANSLIT:;
#CREDIT:;
#BANNER:Emergence.png;
#BACKGROUND:Emergence-bg.png;
#LYRICSPATH:;
#CDTITLE:;
#MUSIC:Emergence.mp3;
#OFFSET:-0.080;
#SAMPLESTART:35.700;
#SAMPLELENGTH:15.000;
#SELECTABLE:YES;
#BPMS:0.000=77.500,32.000=155.000,64.000=310.000,320.000=77.500;
#STOPS:;
#BGCHANGES:;

//---------------dance-single - ----------------
#NOTES:
     dance-single:
     :
     Easy:
     6:
     0.288,0.460,0.061,0.366,0.000:
0000
0000
0000
0000
,
0000
0000
0000
0000
,
0000
0000
0000
0000
,
0000
0000
0000
0000
,
1001
0001
1000
0001
,
1000
0010
0100
0001
,
0100
0010
0100
1000
,
0100
0001
2002
0000
,
3003
0010
1000
0010
,
1000
0001
0100
0001
,
0100
0001
1000
0010
,
1000
0010
0001
0010
,
1000
0001
1000
0001
,
1000
0100
0010
0001
,
0001
0010
0100
1000
,
2000
0000
0010
0010
3010
0000
0100
0000
,
1010
0000
1000
0000
,
0010
0000
1000
0000
,
0002
0000
0203
0000
,
0302
0000
0203
0000
,
0301
0000
1000
0000
,
0010
0000
1000
0000
,
2000
0000
3020
0000
,
2030
0000
3020
0000
,
1030
0000
0100
0000
,
0010
0000
0100
0000
,
0001
0000
0100
0000
,
0010
0000
0100
0000
,
0001
0000
0100
0000
,
0010
0000
1000
0000
,
2002
0000
0000
0000
,
3003
0000
0100
0000
,
0010
0000
1000
0000
,
0001
0000
0100
0000
,
0020
0000
0230
0000
,
0302
0000
0203
0000
,
0301
0000
1000
0000
,
0010
0000
1000
0000
,
0200
0000
0320
0000
,
2030
0000
3002
0000
,
1003
0000
0001
0000
,
1000
0000
0001
0000
,
0100
0000
0010
0000
,
1000
0000
0010
0000
,
1000
0000
0100
0000
,
0010
0000
0001
0000
,
0202
0000
0000
0000
,
0303
0000
0010
0000
,
0001
0000
0010
0000
,
1000
0000
0010
0000
,
0001
0000
0010
0000
,
1000
0000
0100
0000
,
1000
0000
0100
0000
,
0001
0000
0100
0000
,
0010
0000
1000
0000
,
0001
0000
0100
0000
,
0001
0000
1000
0000
,
0010
0000
1000
0000
,
0001
0000
0100
0000
,
0001
0000
1000
0000
,
0001
0000
1000
0000
,
0010
0000
0100
0000
,
0220
0000
0000
0000
,
0330
0000
0010
0000
,
1000
0000
0010
0000
,
0100
0000
0001
0000
,
0100
0000
0010
0000
,
1000
0000
0010
0000
,
0100
0000
0010
0000
,
0100
0000
0001
0000
,
0010
0000
0100
0000
,
0010
0000
0001
0000
,
0010
0000
1000
0000
,
0100
0000
0010
0000
,
1000
0000
0100
0000
,
0010
0000
1000
0000
,
0100
0000
0010
0000
,
0001
0000
1000
0000
,
2002
0000
0000
0000
,
3003
0000
0001
0000
,
2000
0000
3002
0000
,
0203
0000
0320
0000
,
0230
0000
0320
0000
,
2030
0000
3002
0000
,
0023
0000
0230
0000
,
2300
0000
3200
0000
,
0320
0000
0032
0000
,
2003
0000
0000
0000
,
3000
0000
0000
0000
;

//---------------dance-single - ----------------
#NOTES:
     dance-single:
     :
     Beginner:
     3:
     0.225,0.383,0.087,0.148,0.000:
0000
0000
0000
0000
,
1000
0000
0001
0000
,
1000
0000
0010
0000
,
0100
0000
0010
0000
,
1001
0001
0001
1000
,
1000
0010
0010
0100
,
0100
0001
0001
1000
,
1000
0010
0020
0030
,
0010
0010
0010
0000
,
1000
1000
1000
0000
,
0001
0001
0001
0000
,
1000
1000
1000
0000
,
0100
0100
0100
0000
,
0001
0001
0001
0000
,
0020
0000
0000
0030
,
0010
0010
0010
0000
,
1000
0000
0001
0000
,
1000
0000
0000
0000
,
0101
0000
1010
0000
,
0101
0000
0000
0000
,
0100
0000
0001
0000
,
0100
0000
0000
0000
,
0010
0000
1000
0000
,
0010
0000
0000
0000
,
1000
0000
0001
0000
,
1000
0000
0000
0000
,
0001
0000
1000
0000
,
0001
0000
0000
0000
,
1000
0000
0100
0000
,
1000
0000
0000
0000
,
0010
0000
0100
0000
,
0010
0000
0000
0000
,
0001
0000
0010
0000
,
0001
0000
0000
0000
,
0110
0000
1001
0000
,
0110
0000
0000
0000
,
0010
0000
0100
0000
,
0010
0000
0000
0000
,
1001
0000
0110
0000
,
1001
0000
0000
0000
,
1000
0000
0100
0000
,
1000
0000
0000
0000
,
0001
0000
0010
0000
,
0001
0000
0000
0000
,
0001
0000
1000
0000
,
0001
0000
0000
0000
,
0010
0000
0100
0000
,
0010
0000
0000
0000
,
0100
0000
0100
0000
,
0100
0000
0000
0000
,
0010
0000
0010
0000
,
0010
0000
0000
0000
,
1000
0000
1000
0000
,
1000
0000
0000
0000
,
0001
0000
0001
0000
,
0001
0000
0000
0000
,
1000
0000
1000
0000
,
1000
0000
0000
0000
,
0001
0000
0001
0000
,
0001
0000
0000
0000
,
0100
0000
0100
0000
,
0100
0000
0000
0000
,
0010
0000
0010
0000
,
0010
0000
0000
0000
,
0100
0000
0100
0000
,
0100
0000
0000
0000
,
0001
0000
0001
0000
,
0001
0000
0000
0000
,
1000
0000
1000
0000
,
1000
0000
0000
0000
,
0010
0000
0010
0000
,
0010
0000
0000
0000
,
0100
0000
0100
0000
,
0100
0000
0000
0000
,
0001
0000
0001
0000
,
0001
0000
0000
0000
,
1000
0000
1000
0000
,
1000
0000
0000
0000
,
0001
0000
0001
0000
,
0001
0000
0000
0000
,
0200
0300
0200
0300
,
0002
0003
0002
0003
,
2000
3000
2000
3000
,
0200
0300
0200
0300
,
0020
0030
0020
0030
,
0200
0300
0200
0300
,
0002
0003
0002
0003
,
2000
0000
0000
0000
,
3000
0000
0000
0000
;

//---------------dance-single - ----------------
#NOTES:
     dance-single:
     :
     Medium:
     9:
     0.427,0.652,0.070,0.479,0.000:
0000
0000
0000
0000
,
0000
0000
0000
0000
,
0000
0000
0000
0000
,
0000
0000
0000
0000
,
1001
0010
1000
0010
0000
0100
0010
0100
,
0000
0001
0010
0001
0000
1000
0100
1000
,
0000
0001
0010
0100
0000
1000
0100
0010
,
0000
1000
0001
1000
0002
0000
0000
0000
,
1003
0000
0010
1000
0010
0000
0100
0000
,
0001
1000
0010
1000
,
0010
0000
1000
0010
1000
0000
1000
0000
,
0010
1000
0001
0010
,
0001
0000
0100
0001
0100
0000
0010
0000
,
0100
0010
1000
0010
,
1000
0100
0010
0001
0010
0100
1000
0010
,
2000
0000
0001
0001
3001
0000
0110
0000
,
1000
0001
1000
0000
,
0010
0100
0010
0000
,
2000
3020
2030
3020
,
0230
0302
0203
0302
,
0103
0001
1000
0000
,
1000
0010
0100
0000
,
0200
0302
0203
0302
,
2003
3020
2030
3020
,
1030
0100
0010
0000
,
0100
0010
0001
0000
,
0100
0001
1000
0000
,
0001
0010
1000
0000
,
0100
0001
1000
0000
,
1000
0010
0100
0000
,
0220
0000
0000
0000
,
0330
0000
1001
0000
,
0001
1000
0001
0000
,
0100
0010
0100
0000
,
0002
0203
0302
0203
,
0320
2030
3020
2030
,
3010
1000
0001
0000
,
0001
0100
0010
0000
,
0020
2030
3020
2030
,
3002
0203
0302
0203
,
0301
0010
0100
0000
,
0010
0100
1000
0000
,
0010
1000
0001
0000
,
1000
0100
0001
0000
,
0010
1000
0001
0000
,
0001
0100
0010
0000
,
0220
0000
0000
0000
,
0330
0000
1001
0000
,
1000
0010
0100
0010
,
1000
0000
0010
0000
,
0100
0001
1000
0010
,
0100
0000
0001
0000
,
0001
0100
1000
0100
,
0001
0000
0001
0000
,
1000
0010
0001
0010
,
1000
0000
0100
0000
,
0010
0100
0010
0100
,
0010
0000
1000
0000
,
1000
0001
1000
0001
,
1000
0000
0001
0000
,
0001
0010
0100
1000
,
1000
0000
1000
0000
,
1000
0100
0010
0001
,
0001
0000
0100
0000
,
0001
0100
0010
0100
,
0001
0000
0100
0000
,
0010
1000
0001
0100
,
0010
0000
1000
0000
,
1000
0010
0001
0010
,
1000
0000
1000
0000
,
0001
0100
1000
0100
,
0001
0000
0010
0000
,
0100
0010
0100
0010
,
0100
0000
0001
0000
,
0001
1000
0001
1000
,
0001
0000
1000
0000
,
1000
0100
0010
0001
,
0001
0000
0001
0000
,
2002
0000
0000
0000
,
3003
0000
0110
0000
,
2000
0010
3020
0100
,
0230
0001
0302
1000
,
2003
0001
3002
0100
,
0203
0010
0320
1000
,
2030
0010
3020
0100
,
0230
0001
0302
0010
,
0023
0100
0230
1000
,
2300
0000
0000
0000
,
3000
0000
0000
0000
;

//---------------dance-single - ----------------
#NOTES:
     dance-single:
     :
     Hard:
     15:
     0.621,0.805,0.061,0.514,0.039: // measure 1
0000
0000
0000
0000
,  // measure 2
0000
0000
0000
0000
,  // measure 3
0000
0000
0000
0000
,  // measure 4
0000
0000
0000
0000
,  // measure 5
0110
0100
0010
1000
0000
0010
0100
0010
,  // measure 6
0000
0001
0010
0001
0000
0100
0010
0100
,  // measure 7
0000
1000
0100
1000
0000
1000
0001
1000
,  // measure 8
0000
0000
0001
0000
0100
0000
0001
0000
1000
0001
1000
0001
1000
0010
0100
0010
,  // measure 9
0100
0000
0010
1000
0010
0000
1000
0000
,  // measure 10
0020
0230
0302
0203
,  // measure 11
0301
0000
0100
0001
0100
0000
0010
0000
,  // measure 12
1000
0000
1000
0010
1000
0000
0001
0100
0001
0000
1000
0010
1000
0000
0001
0100
,  // measure 13
0001
0010
0100
0001
0010
0100
1000
0010
,  // measure 14
1000
0010
0100
0001
0100
0001
0100
0010
,  // measure 15
0100
1000
0100
0001
0100
1000
0100
0001
,  // measure 16
0200
0000
0000
0000
0310
0000
0100
0000
0010
0000
0100
0001
0100
0000
0010
0000
,  // measure 17
1000
0000
0100
0000
0100
1000
0100
1000
,  // measure 18
0100
0000
1000
0000
0001
0100
0001
0100
,  // measure 19
0002
2003
3020
2030
,  // measure 20
3002
0203
0320
0230
,  // measure 21
0310
0000
0010
0000
0100
0010
0100
0010
,  // measure 22
0100
0010
1000
0010
,  // measure 23
2000
3020
2030
3020
,  // measure 24
0230
0302
0203
0302
,  // measure 25
0103
0000
0001
0000
0010
0001
0010
0001
,  // measure 26
0010
0001
1000
0010
,  // measure 27
1000
0100
1000
0000
0010
0100
0010
0000
,  // measure 28
0001
0100
0101
0000
,  // measure 29
0001
0000
0100
0000
0010
0000
1000
0010
,  // measure 30
0100
0001
0100
0001
,  // measure 31
0100
0001
0100
0000
0001
0100
0001
0000
,  // measure 32
1000
0010
1000
0000
1001
0000
0000
0000
,  // measure 33
0001
0000
0010
0000
0010
0001
0010
0001
,  // measure 34
0010
0000
0001
0000
1000
0010
1000
0010
,  // measure 35
2000
3002
0203
0302
,  // measure 36
2003
3020
0230
0320
,  // measure 37
0130
0000
0100
0000
0010
0100
0010
0100
,  // measure 38
0010
0100
0001
0100
,  // measure 39
0002
0203
0302
0203
,  // measure 40
0320
2030
3020
2030
,  // measure 41
3010
0000
1000
0000
0100
1000
0100
1000
,  // measure 42
0100
1000
0001
0100
,  // measure 43
0001
0010
0001
0000
0100
0010
0100
0000
,  // measure 44
1000
0010
1010
0000
,  // measure 45
1000
0000
0010
0000
0100
0000
0001
0100
,  // measure 46
0010
1000
0010
1000
,  // measure 47
0010
1000
0010
0000
1000
0010
1000
0000
,  // measure 48
0001
0100
0001
0000
1001
0000
0000
0000
,  // measure 49
0001
0100
0010
1000
,  // measure 50
0020
0130
0010
0100
,  // measure 51
0001
1000
0010
1000
,  // measure 52
0001
1000
0010
0001
,  // measure 53
0010
1000
0010
0001
,  // measure 54
2000
3001
0100
0010
,  // measure 55
1000
1000
0100
0010
,  // measure 56
0001
0010
0100
1000
,  // measure 57
0010
1000
0001
0100
,  // measure 58
0020
0130
0010
0100
,  // measure 59
0010
0100
0001
1000
,  // measure 60
0010
0001
0010
0100
,  // measure 61
1000
0100
0010
0001
,  // measure 62
2000
3001
1000
0010
,  // measure 63
1000
0000
0010
0100
0010
0000
1000
0001
,  // measure 64
1000
0000
0001
0100
0010
0000
1000
0000
,  // measure 65
1001
0010
0100
0001
,  // measure 66
0200
0310
0100
0010
,  // measure 67
1000
0001
0100
0001
,  // measure 68
1000
0001
0100
1000
,  // measure 69
0100
0001
0100
1000
,  // measure 70
0002
1003
0010
0100
,  // measure 71
0001
0001
0010
0100
,  // measure 72
1000
0100
0010
0001
,  // measure 73
0100
0001
1000
0010
,  // measure 74
0200
0310
0100
0010
,  // measure 75
0100
0010
1000
0001
,  // measure 76
0100
1000
0100
0010
,  // measure 77
0000
0010
1000
0100
0000
0010
0100
0001
,  // measure 78
0000
0001
0100
0010
0000
1000
0100
1000
,  // measure 79
0000
0010
0001
0010
0000
0100
0010
0100
,  // measure 80
0000
1000
0001
0000
1001
0000
0000
0000
,  // measure 81
0200
0310
1000
0001
2000
3001
0010
0001
,  // measure 82
0002
0013
0100
1000
2000
3010
1000
0010
,  // measure 83
0020
0130
0001
1000
2000
3010
0100
0001
,  // measure 84
0200
0310
1000
0010
0002
0013
0001
0100
,  // measure 85
0020
0130
0001
1000
0002
1003
0100
1000
,  // measure 86
2000
3100
0010
0001
0002
0103
0001
0100
,  // measure 87
0200
0310
1000
0001
0002
0103
0010
1000
,  // measure 88
0020
0000
0000
0000
,  // measure 89
0030
0000
0000
0000
;
