#TITLE:Egoist (feat. JinSoul);
#SUBTITLE:;
#ARTIST:LOONA;
#TITLETRANSLIT:;
#SUBTITLETRANSLIT:;
#ARTISTTRANSLIT:;
#CREDIT:;
#BANNER:Egoist (feat. JinSoul).png;
#BACKGROUND:Egoist (feat. JinSoul)-bg.png;
#LYRICSPATH:;
#CDTITLE:;
#MUSIC:Egoist (feat. JinSoul).mp3;
#OFFSET:-0.280;
#SAMPLESTART:52.260;
#SAMPLELENGTH:15.000;
#SELECTABLE:YES;
#BPMS:0.000=92.000;
#STOPS:;
#BGCHANGES:-0.680=Egoist (feat. JinSoul).avi=1.000=0=0=0,
99999=-nosongbg-=1.000=0=0=0 // don't automatically add -songbackground-
;

//---------------dance-single - ----------------
#NOTES:
     dance-single:
     :
     Easy:
     3:
     0.150,0.181,0.054,0.101,0.000:
0000
0000
0000
0000
,
0000
0000
0000
0000
,
0000
0000
0000
0000
,
0000
0000
0000
0000
,
1001
0000
0010
0100
,
0010
0000
1000
0010
,
0100
0000
0001
1000
,
0010
0000
0100
0001
,
1000
0000
0010
0100
,
0001
0000
0100
0010
,
1000
0000
0001
0100
,
0010
0000
0100
0010
,
1000
0100
0010
1000
,
1000
0010
0100
0001
,
0001
0100
0010
0001
,
0100
0010
1000
0010
,
1000
1000
0100
0100
,
0010
0010
0001
0001
,
1000
0001
1000
0000
0001
1000
0001
0000
,
0220
0000
0000
0000
,
0330
2002
3003
0010
,
0000
0100
0010
1000
,
0000
0001
0100
0010
,
0000
1000
0001
1000
,
0000
0202
0303
0001
,
0000
0010
0001
1000
,
0000
1000
0010
0100
,
0000
0010
0010
0100
,
0010
0000
1000
0000
,
0001
0000
0100
0000
,
0001
0000
0100
0000
,
0010
0000
1000
0000
,
0100
0000
1000
0000
,
0001
0000
0100
0000
,
0001
0000
0010
0000
,
0010
0010
1000
1000
,
2002
0000
0000
0000
,
3003
2002
3003
0100
,
0000
0010
0100
0001
,
0000
1000
0010
0100
,
0000
0001
1000
0001
,
0000
2020
3030
1000
,
0000
0100
1000
0001
,
0000
0001
0100
0010
,
0000
0100
0100
0010
,
0000
0100
0000
0010
,
0000
1000
0000
0001
,
0000
0100
0000
0010
,
0000
1000
0000
0010
,
0000
2000
0000
3000
,
0000
0001
0000
0100
,
0000
0010
0000
1000
,
0000
0001
0000
0100
,
2002
0000
0000
0000
,
3003
0000
0000
0000
;

//---------------dance-single - ----------------
#NOTES:
     dance-single:
     :
     Beginner:
     1:
     0.107,0.145,0.074,0.141,0.000:
0000
0000
0000
0000
,
0000
0000
0000
0000
,
0000
0000
0000
0000
,
0000
0000
0000
0000
,
0000
0001
0000
0010
,
0000
0100
0000
1001
,
0000
0010
0000
0100
,
0000
0010
0000
0110
,
0000
0010
0000
1000
,
0000
0001
0000
0110
,
0000
0001
0000
1000
,
0000
0010
0000
1000
,
0000
0010
0000
0100
,
0000
0010
0000
0001
,
0000
0010
0000
0001
,
0000
0100
0000
1000
,
0000
0100
0000
0010
,
0000
0001
0000
0100
,
0000
0010
0000
0010
,
0020
0000
0000
0030
,
0000
2002
0000
3003
,
0000
0010
0000
1000
,
0000
0001
0000
0100
,
0000
0020
0000
0030
,
0000
0220
0000
0330
,
0000
0010
0000
1000
,
0000
0001
0000
1000
,
0000
2000
0000
3000
,
1000
0000
0000
0000
,
1000
0000
0000
0000
,
0001
0000
0000
0000
,
0100
0000
0000
0000
,
0010
0000
0000
0000
,
1001
0000
0000
0000
,
0100
0000
0000
0000
,
0002
0003
2000
3000
,
2002
0000
0000
3003
,
0000
2002
0000
3003
,
0000
0100
0000
0001
,
0000
1000
0000
0010
,
0000
0200
0000
0300
,
0000
0220
0000
0330
,
0000
0100
0000
0001
,
0000
1000
0000
0001
,
0000
0002
0000
0003
,
0000
0010
0000
0001
,
0000
1000
0000
0010
,
0000
0100
0000
0010
,
0000
1000
0000
0001
,
0000
2002
0000
3003
,
0000
0010
0000
1000
,
0000
0010
0000
0100
,
0000
0001
0000
0000
,
0220
0000
0000
0000
,
0330
0000
0000
0000
;

//---------------dance-single - ----------------
#NOTES:
     dance-single:
     :
     Medium:
     6:
     0.223,0.308,0.040,0.148,0.027:
0000
0000
0000
0000
,
0000
0000
0000
0000
,
0000
0000
0000
0000
,
0000
0000
0000
0000
,
0001
0100
0010
0000
0100
0000
0010
0000
,
1000
0010
0001
0000
0100
0000
0001
0000
,
0001
0010
1000
0000
0010
0000
0100
0000
,
0010
1000
0001
0000
0100
0000
0010
0000
,
0100
0010
1000
0000
0010
0000
0100
0000
,
0100
0001
1000
0000
0010
0000
0100
0000
,
0010
0001
0010
0000
0010
0000
0001
0000
,
0100
0010
0100
0000
0010
0000
1000
0000
,
1000
0000
0000
0010
0000
0000
1000
0000
0000
0010
0000
0000
0100
0000
0010
0000
,
1000
0000
0000
0001
0000
0000
0100
0000
0000
0001
0000
0000
0010
0000
0001
0000
,
0010
0000
0000
0001
0000
0000
0100
0000
0000
1000
0000
0000
0010
0000
0100
0000
,
0001
0000
0000
0100
0000
0000
0001
0000
0000
1000
0000
0000
0010
0000
1000
0000
,
0001
0100
0010
1000
,
0010
0100
0001
1000
,
1000
0100
0010
0001
0010
0100
1000
0100
,
0010
0001
0100
0010
1000
0001
0100
0001
,
1000
0220
0330
0010
,
1000
0000
0001
0000
0100
0100
0010
0000
,
0001
0000
0010
0000
0010
0010
0010
0000
,
1000
0000
0010
0000
1000
0010
0001
0000
,
0100
2002
3003
0001
,
1000
0000
0010
0000
0100
0010
0001
0000
,
0010
0000
0001
0000
1000
0010
1000
0000
,
0100
0000
0010
0000
0001
0010
0001
0000
,
0002
0000
0003
0000
,
0200
0000
0300
0000
,
0020
0000
0030
0000
,
2000
0000
3000
0000
,
0002
0000
0003
0000
,
0200
0000
0300
0000
,
0020
0000
0030
0000
,
2000
0001
0001
3001
,
0020
0000
0000
0000
,
0130
0220
0330
0100
,
0001
0000
1000
0000
0010
0010
0100
0000
,
1000
0000
0100
0000
0100
0100
0100
0000
,
0001
0000
0100
0000
0001
0100
1000
0000
,
0010
2002
3003
1000
,
0001
0000
0100
0000
0010
0100
1000
0000
,
0100
0000
1000
0000
0001
0100
0001
0000
,
0010
0000
0100
0000
1000
0100
1000
0000
,
0010
0220
0000
0330
,
0100
0100
0100
0000
0001
0000
1000
0000
,
0001
1000
0010
0001
,
0100
0001
0010
1000
,
0010
2002
0000
3003
,
0010
0010
0010
0000
1000
0000
0010
0000
,
0100
0001
1000
0010
,
0100
0000
0001
0000
0010
0001
0100
0010
,
2000
0000
0000
0000
,
3000
0000
0000
0000
;

//---------------dance-single - ----------------
#NOTES:
     dance-single:
     :
     Hard:
     14:
     0.373,0.380,0.013,0.087,0.393: // measure 1
0000
0000
0000
0000
,  // measure 2
0000
0000
0000
0000
,  // measure 3
0000
0000
0000
0000
,  // measure 4
0000
0000
0000
1001
,  // measure 5
0010
0000
0100
0000
0001
0000
0000
0000
0001
0010
0100
1000
0000
0000
0001
0100
,  // measure 6
0001
0000
0010
0000
1000
0000
0000
0000
1000
0010
0100
0010
0000
0000
0001
1000
,  // measure 7
0001
0000
0100
0000
0010
0000
0000
0000
0100
0010
0100
0010
0000
0100
0000
0000
,  // measure 8
0010
1000
0001
0100
0000
0010
0000
0000
0100
0001
1000
0010
0000
0000
1000
0010
,  // measure 9
1000
0000
0100
0000
1000
0000
0000
0000
1000
0100
0010
0001
0000
0000
0100
0010
,  // measure 10
0100
0000
0001
0000
0010
0000
0000
0000
0001
0000
0100
0000
0010
0000
1000
0100
,  // measure 11
1000
0000
0010
0000
1000
0000
0000
0000
1000
0100
0010
0001
0000
0100
0000
0000
,  // measure 12
0001
0010
0100
1000
0000
0010
0000
0000
1000
0001
1000
0001
0000
0000
0001
1000
,  // measure 13
0001
0000
0010
0000
0100
0000
1000
0001
0000
0100
0000
0000
0000
0001
0010
0100
,  // measure 14
1000
0000
0010
0000
0100
0000
0010
1000
0000
0010
0000
0000
0100
0000
0010
0100
,  // measure 15
0000
0000
0001
0000
0010
0000
0001
0100
0000
0001
0000
0000
0100
0000
0010
2000
,  // measure 16
0000
0000
0000
0000
3000
0000
0000
0000
0001
0000
0000
0001
0000
0000
0001
0000
,  // measure 17
1000
0000
0100
0000
0010
0000
0001
1000
0000
0010
0000
0000
0000
1000
0100
0010
,  // measure 18
0001
0000
0100
0000
0010
0000
0100
0001
0000
0100
0000
0000
0010
0000
0100
0010
,  // measure 19
0000
0000
1000
0000
0100
0000
1000
0010
0000
1000
0000
0000
0010
0000
0100
0002
,  // measure 20
0000
0000
0000
0000
0003
0000
0000
0000
1000
0000
0000
1000
0000
1000
0000
0010
,  // measure 21
1000
0010
0100
0001
0200
0000
0000
0000
0300
0000
0000
0000
0010
0100
0010
0000
,  // measure 22
0000
0000
0100
0000
0000
0000
0010
0000
1000
0000
0100
0000
0010
0000
0001
0100
,  // measure 23
0001
0000
0100
0000
0010
0000
1000
0010
1000
0000
0100
0000
0010
0000
1000
0010
,  // measure 24
0100
0000
0001
0000
0100
0000
0010
1000
0000
0000
1000
0001
0000
0001
0100
0001
,  // measure 25
0100
0001
0010
0001
2000
0000
0000
0000
3000
0000
0000
0000
0100
0001
0100
0000
,  // measure 26
0000
0000
0010
0000
0000
0000
1000
0000
0010
0000
0001
0000
0010
0000
0001
0100
,  // measure 27
0001
0000
0010
0000
0100
0000
0010
0100
1000
0000
0010
0000
1000
0000
0010
0100
,  // measure 28
0001
1000
0010
0200
0000
0000
0000
0000
,  // measure 29
0310
0100
0010
0000
0000
0000
0000
0000
0000
0000
0000
0000
1000
0000
1000
0000
,  // measure 30
1000
0000
0000
0000
0000
0000
0000
0000
0100
0010
0001
0010
0000
0001
0000
0000
,  // measure 31
0010
1000
0001
0100
0000
0010
0000
0000
0000
0000
0000
0000
0100
0000
0000
0100
,  // measure 32
0000
0000
0000
0000
0010
0000
0000
0010
0000
0000
0000
0000
0000
0000
0000
0000
,  // measure 33
0100
0010
0100
0000
0000
0000
0000
0000
0000
0000
0000
0000
0001
0000
0001
0000
,  // measure 34
0001
0000
0000
0000
0000
0000
0000
0000
0010
0100
1000
0100
0000
1000
0000
0000
,  // measure 35
0100
0001
1000
0010
0000
0100
0000
0000
0000
0000
0000
0000
0010
0000
0010
0000
,  // measure 36
0020
0000
0100
0100
0100
0000
1030
0001
,  // measure 37
1000
0100
0010
0001
0010
0100
1000
0001
2000
0000
0000
0000
0002
0000
0003
0000
,  // measure 38
3001
0100
0010
1000
0020
0000
0000
0000
0030
0000
0000
0000
0100
0010
0100
0000
,  // measure 39
0000
0000
0010
0000
0000
0000
0100
0000
0001
0000
0010
0000
0100
0000
1000
0010
,  // measure 40
1000
0000
0010
0000
0100
0000
0001
0100
0001
0000
0010
0000
0100
0000
0001
0100
,  // measure 41
0010
0000
1000
0000
0010
0000
0100
0001
0000
0000
0001
1000
0000
1000
0010
1000
,  // measure 42
0010
1000
0100
1000
0002
0000
0000
0000
0003
0000
0000
0000
0010
1000
0010
0000
,  // measure 43
0000
0000
0100
0000
0000
0000
0001
0000
0100
0000
1000
0000
0100
0000
1000
0010
,  // measure 44
1000
0000
0100
0000
0010
0000
0100
0010
0001
0000
0100
0000
0001
0000
0100
0010
,  // measure 45
1000
0001
0100
0020
0000
0000
0000
0000
,  // measure 46
0130
0000
0000
0000
0010
0100
0001
0000
0000
0000
0000
0000
0100
0010
0001
0000
,  // measure 47
0000
0000
0001
0000
0001
0000
0000
0000
1000
0000
0010
1000
0001
0000
0000
0000
,  // measure 48
1000
0000
0010
0000
0100
0010
1000
0000
0000
0000
0000
0000
0010
0100
1000
0000
,  // measure 49
0010
0000
1000
0000
0001
0000
0100
0000
0001
0000
1000
0010
0000
0100
0001
0000
,  // measure 50
0010
0000
0000
0000
0100
0010
1000
0000
0000
0000
0000
0000
0010
0100
1000
0000
,  // measure 51
0000
0000
1000
0000
1000
0000
0000
0000
0001
0000
0100
0001
1000
0000
0000
0000
,  // measure 52
0001
0000
0100
0000
0010
0100
0001
0000
0000
0000
0000
0000
0100
0010
0001
0000
,  // measure 53
0100
0000
0000
0001
0000
0000
1000
0000
0010
0000
0100
0000
0010
0000
1000
0000
,  // measure 54
2002
0000
0000
0000
,  // measure 55
3003
0000
0000
0000
;
