#TITLE:Eclipse;
#SUBTITLE:;
#ARTIST:LOONA;
#TITLETRANSLIT:;
#SUBTITLETRANSLIT:;
#ARTISTTRANSLIT:;
#CREDIT:;
#BANNER:Eclipse.png;
#BACKGROUND:Eclipse-bg.png;
#LYRICSPATH:;
#CDTITLE:;
#MUSIC:Eclipse.mp3;
#OFFSET:-0.040;
#SAMPLESTART:58.105;
#SAMPLELENGTH:15.000;
#SELECTABLE:YES;
#BPMS:0.000=97.500;
#STOPS:;
#BGCHANGES:-0.240=Eclipse.avi=1.000=0=0=0,
99999=-nosongbg-=1.000=0=0=0 // don't automatically add -songbackground-
;

//---------------dance-single - ----------------
#NOTES:
     dance-single:
     :
     Easy:
     3:
     0.162,0.173,0.106,0.106,0.000:
0000
0000
0000
0000
,
0000
0000
0000
0000
,
0000
0000
0000
0000
,
0000
0000
0000
0000
,
0000
0000
0000
0000
,
0000
0000
0000
0000
,
0000
0000
0000
0000
,
0000
0000
0000
0110
,
1001
0001
0100
0001
,
0000
0100
0010
1000
,
0000
0010
0010
0100
,
0000
0001
1000
0010
,
0000
1000
0010
0001
,
0000
0100
0010
0001
,
0000
0010
0100
1000
,
0000
0001
0010
1000
,
0000
0100
0010
1000
,
0000
0001
0010
0001
,
0000
0010
0001
1000
,
0000
0100
1000
0010
,
0000
0100
0010
1000
,
0000
0010
0100
1000
,
0000
1000
0001
1000
,
0000
0220
0000
0330
,
0000
0010
0100
0110
,
0000
1000
0001
1001
,
0000
0010
0001
0011
,
0000
0010
0100
1010
,
0000
0100
0010
0110
,
0000
0001
1000
1001
,
0000
0100
1000
1100
,
0000
0100
0010
0101
,
0000
0002
0013
0001
,
0000
0200
0310
1000
,
0000
2000
3010
0001
,
0000
2000
3100
1000
,
0000
2000
3100
1000
,
0000
0020
0130
0001
,
0000
0002
0103
1000
,
0000
0002
0013
0002
,
0003
0000
0000
0000
;

//---------------dance-single - ----------------
#NOTES:
     dance-single:
     :
     Beginner:
     1:
     0.124,0.135,0.077,0.077,0.000:
0000
0000
0000
0000
,
0000
0000
0000
0000
,
0000
0000
0000
0000
,
0000
0000
0000
0000
,
0220
0000
0000
0000
,
0330
0000
0000
0000
,
2002
0000
0000
0000
,
3003
0000
0000
1001
,
0000
0010
0000
1000
,
0000
0001
0000
0100
,
0000
0100
0000
0010
,
0000
1000
0000
1001
,
0000
0001
0000
0100
,
0000
0001
0000
1000
,
0000
0010
0000
0001
,
0000
1000
0000
0110
,
0000
1000
0000
0001
,
0000
0001
0000
1000
,
0000
0010
0000
0100
,
0000
0010
0000
1001
,
0000
1000
0000
1000
,
0000
0001
0000
0100
,
0000
0001
0000
0010
,
0000
0220
0000
0330
,
0000
0010
0010
0010
,
0000
1000
1000
1000
,
0000
0001
0001
0001
,
0000
0100
0100
0100
,
0000
0010
0010
0010
,
0000
1000
1000
1000
,
0000
0001
0001
0001
,
0000
1000
1000
1000
,
0000
0010
0000
1000
,
0000
0001
0000
0100
,
0000
0001
0000
1000
,
0000
0010
0000
1000
,
0000
0010
0000
0100
,
0000
0001
0000
0100
,
0000
0001
0000
1000
,
0000
0010
0000
2002
,
3003
0000
0000
0000
;

//---------------dance-single - ----------------
#NOTES:
     dance-single:
     :
     Medium:
     6:
     0.265,0.288,0.058,0.115,0.038:
0000
0000
0000
0000
,
0000
0000
0000
0000
,
0000
0000
0000
0000
,
0000
0000
0000
0000
,
0020
0000
0030
0000
,
2000
0000
3000
0000
,
0002
0000
0003
0000
,
2000
0000
3000
1001
,
0110
0000
0010
1000
0010
0000
0100
0000
,
0001
0000
0010
0001
0100
0000
0010
0000
,
0010
0000
0001
0010
0100
0000
1000
0000
,
0010
0000
1000
0001
1000
0000
0010
0000
,
0010
0000
0100
0001
0100
0000
0010
0000
,
1000
0000
0100
1000
0010
0000
0100
0000
,
0100
0000
1000
0100
0010
0000
0001
0000
,
0100
0000
0001
1000
0001
0000
0100
0000
,
1000
0000
0010
0100
0010
0000
0001
0000
,
1000
0000
0010
1000
0001
0000
0010
0000
,
0010
0000
1000
0010
0001
0000
0100
0000
,
0010
0000
0100
1000
0100
0000
0010
0000
,
0010
0000
0001
1000
0001
0000
0010
0000
,
0100
0000
0001
0100
0010
0000
0001
0000
,
0001
0000
0100
0001
0010
0000
1000
0000
,
0001
1000
2002
3003
,
1000
0000
0010
0100
0100
0000
0010
0000
,
1000
0000
0010
0000
1000
0000
0100
0001
0000
0001
0100
0000
0001
0000
0000
0000
,
1000
0000
0100
0001
0001
0000
1000
0000
,
0010
0000
1000
0000
0010
0000
0100
0010
0000
0010
1000
0000
0001
0000
0000
0000
,
0001
0000
0100
0010
0010
0000
0100
0000
,
0001
0000
0100
0000
0001
0000
0010
1000
0000
1000
0010
0000
1000
0000
0000
0000
,
0001
0000
0010
1000
1000
0000
0001
0000
,
0100
0000
0001
0000
0100
0000
0010
0100
0000
0100
0001
0000
1000
0000
0000
0000
,
2002
3003
0001
0100
0010
0000
1000
0000
,
0010
0000
0100
0010
1000
0000
0010
0000
,
0100
0000
0010
0100
0001
0000
1000
0000
,
0010
0000
1000
0010
1000
0000
0001
0000
,
2002
3003
1000
0010
0100
0000
0001
0000
,
0100
0000
0010
0100
0001
0000
0100
0000
,
0010
0000
0100
0010
1000
0000
0001
0000
,
0100
0000
0001
0100
0001
0000
2002
0000
,
3003
0000
0000
0000
;

//---------------dance-single - ----------------
#NOTES:
     dance-single:
     :
     Hard:
     14:
     0.419,0.423,0.115,0.154,0.394: // measure 1
0000
0000
0000
0000
,  // measure 2
0000
0000
0000
0000
,  // measure 3
0000
0000
0000
0000
,  // measure 4
0000
0000
0000
0000
,  // measure 5
0002
0000
0000
0003
,  // measure 6
0020
0000
0000
0030
,  // measure 7
0200
0000
0000
0300
,  // measure 8
0000
0000
1000
0000
0100
0000
0010
0000
0001
1000
0100
0000
0010
0000
1000
0001
,  // measure 9
1000
0000
0001
0100
0001
0000
0100
0001
0000
0001
0100
0000
0010
0000
0000
0000
,  // measure 10
0010
0000
1000
0010
0100
0000
0010
1000
0000
1000
0001
0000
1000
0000
0000
0000
,  // measure 11
0001
0000
0010
0001
0010
0000
0100
1000
0000
1000
0001
0000
1000
0000
0110
0000
,  // measure 12
0001
0000
0001
0000
0100
0001
0100
0001
,  // measure 13
0000
0000
1000
0000
0000
0000
0000
1010
0000
0101
0000
0000
0001
0100
0010
1000
,  // measure 14
0000
0010
0100
0000
0010
0000
0100
0001
0000
0000
0001
0000
1000
0000
0010
1000
,  // measure 15
0000
0000
1001
0000
0000
0010
0000
0100
0000
0100
0010
0000
0100
0000
0010
1000
,  // measure 16
0000
1000
0001
0000
2002
0000
0000
0000
3003
0000
0001
0000
0010
0000
0100
0000
,  // measure 17
2000
0000
0000
0000
3010
1000
0010
1000
0000
0100
0010
0000
0000
0010
0001
0010
,  // measure 18
0000
0000
0001
0000
0000
0000
0000
0000
0010
1000
0001
0000
0100
0000
0010
1000
,  // measure 19
0000
0100
0010
1000
0001
0010
0010
1000
,  // measure 20
0010
0000
1000
0000
0001
0000
0100
0001
0000
1000
0000
0010
0000
0000
0000
0000
,  // measure 21
0002
0000
0000
0000
0103
0001
0100
0001
0000
0000
0100
0000
0010
0000
0000
0000
,  // measure 22
0010
0000
1000
0010
1000
0010
0000
1000
0000
0001
1000
0000
0010
0000
0100
0001
,  // measure 23
0000
0010
0100
0001
1000
0100
0200
0000
,  // measure 24
0300
0000
0001
0000
2000
0000
0000
0000
3001
1000
0001
0000
0100
0000
0010
0100
,  // measure 25
0010
0000
1000
0000
0020
0000
0100
0000
0130
0000
0010
0000
1000
0000
0001
0100
,  // measure 26
0000
0100
0001
0000
0101
0000
0010
0000
0010
0000
0100
0000
0010
0100
0010
0100
,  // measure 27
0000
1000
0100
0000
1000
0000
0001
0000
0010
0000
1000
0000
0010
0000
1000
0001
,  // measure 28
0000
0001
0100
0000
0010
0000
1000
0000
0010
0000
0001
0000
0100
0000
0001
0000
,  // measure 29
0100
0000
0001
0000
0200
0000
0010
0000
0310
0000
0100
0000
0001
0000
1000
0010
,  // measure 30
0000
0010
1000
0000
1010
0000
0200
0000
0000
0310
0000
0000
0100
0010
0000
0010
,  // measure 31
0000
0001
0010
0000
0001
0000
1000
0000
0100
0000
0000
0000
0100
0000
0001
0000
,  // measure 32
1000
0000
0000
0010
0000
0000
0001
0000
0000
0000
1000
0000
0010
0000
0000
0000
,  // measure 33
2000
0000
3001
1000
0010
0000
0010
1000
0000
0010
1000
0000
0010
0000
0000
0000
,  // measure 34
0101
0000
0010
1000
0001
0000
0100
0001
0000
0001
0100
0000
0010
0000
0000
0000
,  // measure 35
1001
0000
0100
0010
1000
0000
0010
0100
0000
0100
0010
0000
1000
0000
0010
0100
,  // measure 36
0000
0010
0100
0000
0001
1000
0001
1000
0000
1000
0010
0000
0100
0000
0000
0000
,  // measure 37
0002
0000
1003
0001
0100
0000
0100
0001
0000
0100
0001
0000
0100
0000
0000
0000
,  // measure 38
1010
0000
0100
0001
1000
0000
0010
1000
0000
1000
0010
0000
0100
0000
0000
0000
,  // measure 39
1001
0000
0010
0100
0001
0000
0100
0010
0000
0010
0100
0000
0001
0000
0000
0000
,  // measure 40
0010
0000
0000
0000
1000
0001
1000
0001
0000
0001
0100
0000
2002
0000
0000
0000
,  // measure 41
3003
0000
0000
0000
;
