#TITLE:Drop That Low;
#SUBTITLE:;
#ARTIST:Bear Grillz & Datsik;
#TITLETRANSLIT:;
#SUBTITLETRANSLIT:;
#ARTISTTRANSLIT:;
#CREDIT:;
#BANNER:Drop That Low.png;
#BACKGROUND:Drop That Low-bg.png;
#LYRICSPATH:;
#CDTITLE:;
#MUSIC:Drop That Low.mp3;
#OFFSET:-0.060;
#SAMPLESTART:61.000;
#SAMPLELENGTH:15.000;
#SELECTABLE:YES;
#BPMS:0.000=127.980,60.000=63.990,64.000=127.980,128.000=255.960,256.000=63.990;
#STOPS:;
#BGCHANGES:;

//---------------dance-single - ----------------
#NOTES:
     dance-single:
     :
     Easy:
     6:
     0.277,0.429,0.048,0.199,0.004:
0000
0000
0000
0000
,
0000
0000
0000
0000
,
0000
0000
0000
0000
,
0000
0000
0000
0000
,
0000
0100
0000
0001
,
0000
1000
0000
0010
,
0000
0100
0000
0001
,
0000
1000
0000
0100
,
0000
0010
0000
0100
,
1001
0010
0000
1000
,
0000
0001
0000
0100
,
0000
0010
0000
1000
,
0000
0010
0000
0100
,
0000
0001
0000
1000
,
0000
0010
0000
1000
,
2002
0000
0000
0000
,
3003
0010
1000
0010
,
1000
0010
0010
1000
,
0001
0100
0001
0100
,
0001
0000
1000
0000
0010
0000
1000
1000
,
1000
0100
0010
0100
,
1000
0001
0100
0010
,
1000
0010
0100
0001
,
0100
0010
2000
0000
,
3001
0000
1000
0000
0001
0001
0001
0000
,
0010
0000
0100
0000
0010
0010
0010
0000
,
1000
0000
0001
0000
1000
1000
1000
0000
,
1000
0000
0010
0000
0100
0100
0100
0000
,
0001
0100
0001
0100
,
0010
1000
0010
1000
,
0100
1000
0100
1000
,
2002
0000
3003
0000
0010
0010
0010
0000
,
1001
0000
1000
0010
,
1000
0000
0001
0100
,
0001
0000
0100
0000
,
0010
0000
0010
0000
,
1000
0000
0001
0100
,
0001
0000
1000
0010
,
2000
0000
3002
0000
,
2003
0000
3002
0000
,
0103
0000
0010
0001
,
0010
0000
0100
1000
,
0100
0000
0001
0000
,
1000
0000
1000
0000
,
0100
0000
0010
0001
,
0010
0000
0100
1000
,
0200
0000
0320
0000
,
0230
0000
0320
0000
,
0130
0000
0001
0100
,
0001
0000
1000
0010
,
1000
0000
0010
0000
,
0100
0000
0100
0000
,
0001
0000
1000
0010
,
1000
0000
0001
0100
,
0002
0000
2003
0000
,
3002
0000
2003
0000
,
3010
0000
0100
1000
,
0100
0000
0010
0001
,
0010
0000
1000
0000
,
0001
0000
0001
0000
,
0200
0000
0000
0000
,
0000
0000
0000
0000
,
0320
0000
0230
0000
,
0320
0000
0230
0000
,
0310
0100
0010
0000
1000
0010
1000
0000
,
0001
0100
0001
0000
0100
0010
1000
0000
,
0010
0100
0001
0000
0001
0100
0001
0000
,
1000
0010
1000
0000
2020
0000
0030
0000
,
3001
0010
0100
0000
0001
0100
0001
0000
,
1000
0010
1000
0000
0010
0100
0001
0000
,
0100
0010
1000
0000
1000
0010
1000
0000
,
0001
0000
0100
0000
0001
0000
0000
0000
0102
0000
0000
0000
0100
0100
0100
0000
,
0003
0000
0000
0000
;

//---------------dance-single - ----------------
#NOTES:
     dance-single:
     :
     Beginner:
     3:
     0.177,0.257,0.056,0.024,0.000:
0000
0000
0000
0000
,
0000
0000
0000
0000
,
0000
0000
0000
0000
,
0000
0000
0000
0000
,
0000
1000
0000
1000
,
0000
0001
0000
0001
,
0000
0001
0000
0001
,
0000
0100
0000
0100
,
0000
0010
0000
0010
,
0000
1000
0000
0010
,
0000
0100
0000
0001
,
0000
1000
0000
0010
,
0000
0001
0000
0010
,
0000
1000
0000
1000
,
0000
0001
0000
1000
,
2000
0000
0000
0000
,
3000
1000
1000
1000
,
0000
0001
0001
0001
,
0000
1000
1000
1000
,
0000
0010
0010
0010
,
0000
0100
0100
0100
,
0000
0001
0001
0001
,
0000
0100
0100
0100
,
0000
0010
0010
0010
,
0000
1000
0001
1000
,
0000
0001
1000
0001
,
0000
0100
0010
0100
,
0000
0010
0100
0010
,
0000
1000
0100
1000
,
0000
0001
0010
0001
,
0000
1000
0001
1000
,
2002
0000
3003
0000
,
0110
0000
0010
0000
,
0010
0000
0010
0000
,
0000
0000
1000
0000
,
1000
0000
1000
0000
,
0000
0000
0001
0000
,
0001
0000
0001
0000
,
0000
0000
1000
0000
,
0001
0000
1000
0000
,
1001
0000
1000
0000
,
1000
0000
1000
0000
,
0000
0000
0010
0000
,
0010
0000
0010
0000
,
0000
0000
0001
0000
,
0001
0000
0001
0000
,
0000
0000
1000
0000
,
1000
0000
1000
0000
,
1001
0000
1000
0000
,
1000
0000
1000
0000
,
0000
0000
0010
0000
,
0010
0000
0010
0000
,
0000
0000
0100
0000
,
0100
0000
0100
0000
,
0000
0000
0001
0000
,
0001
0000
0001
0000
,
1001
0000
1000
0000
,
1000
0000
1000
0000
,
0000
0000
0010
0000
,
0010
0000
0010
0000
,
0000
0000
0100
0000
,
0100
0000
0100
0000
,
0000
0000
0010
0000
,
0010
0000
0010
0000
,
0110
0010
0100
0010
,
0000
1000
0100
1000
,
0000
0010
0001
0010
,
0000
0100
1000
0100
,
0000
0010
0100
0010
,
0000
0100
0001
0100
,
0000
0010
1000
0010
,
0000
1000
0001
1001
;

//---------------dance-single - ----------------
#NOTES:
     dance-single:
     :
     Medium:
     10:
     0.406,0.716,0.247,0.215,0.087:
0000
0000
0000
0000
,
0000
0000
0000
0000
,
0000
0000
0000
0000
,
0000
0000
0000
0000
,
0000
0000
0010
0000
0000
0000
0010
0100
,
0000
0100
0000
0100
,
0000
0001
0000
0001
,
0000
1000
0000
1000
,
0000
0100
0000
0100
,
1001
0000
0000
0010
0000
0000
0100
0000
0000
0010
0000
0000
1000
0000
0010
0000
,
1000
0000
0000
1000
0000
0000
1000
0000
0000
1000
0000
0000
1000
0000
0001
0000
,
0010
0000
0000
0100
0000
0000
0010
0000
0000
0001
0000
0000
1000
0000
0100
0000
,
1000
0000
0000
0001
0000
0000
0100
0000
0000
0010
0000
0000
0100
0000
0010
0000
,
0100
0000
0000
0100
0000
0000
0010
0000
0000
0100
0000
0000
0001
0000
0100
0000
,
0001
0000
0000
0001
0000
0000
0001
0000
0000
0001
0000
0000
0001
0000
1000
0000
,
2002
0000
0000
0000
,
3003
1000
0010
1000
,
0010
0100
0001
0100
,
0010
1000
0010
0001
,
0010
0000
1000
0000
0100
0000
0010
1000
,
0001
0100
0001
1000
,
0010
1000
0010
1000
,
0001
0100
0001
0100
0001
0000
0000
0000
0100
0000
0000
0000
0001
0000
0000
0000
,
0100
1000
0220
0330
,
0010
0000
0100
0000
0010
0100
0010
0000
,
1000
0000
0001
0000
1000
0001
1000
0000
,
0001
0000
0100
0000
0001
0100
0001
0000
,
1000
0000
0010
0000
1000
0010
1000
0000
,
0010
0100
0010
0001
,
0010
0100
1000
0100
,
1000
0001
1000
0001
1000
0001
1000
0001
,
1001
0100
0010
1000
0010
0100
0101
0000
,
0202
0303
0001
0001
,
0100
0010
1000
0010
,
1000
0010
0100
0010
,
1000
0000
0000
1000
0000
0000
1000
0000
,
0001
0100
0010
1000
,
0010
0100
0001
1000
,
0002
0000
0023
0000
,
0230
0000
2300
0000
,
3001
1000
0010
0010
,
0001
1000
0100
1000
,
0100
1000
0001
1000
,
0100
0020
0000
0130
,
0010
0001
1000
0100
,
1000
0001
0010
0100
,
2002
3003
1000
0000
0000
0000
0001
0000
,
0100
0000
0000
0010
0000
0000
1000
0000
,
2020
3030
1000
1000
,
0010
0100
0001
0100
,
0001
0100
0010
0100
,
0001
0000
0000
0001
0000
0000
0001
0000
,
1000
0010
0100
0001
,
0100
0010
1000
0001
,
2000
0000
3200
0000
,
0320
0000
0032
0000
,
1003
0001
0100
0100
,
1000
0001
0010
0001
,
0010
0001
1000
0001
,
0010
0100
0010
1000
,
2002
0000
0000
0000
,
0000
0000
0000
3003
,
1001
0100
0110
0010
,
0101
0000
0001
0000
0011
0000
0001
1000
,
0101
1010
0001
1000
0010
1000
2020
3030
,
0110
0000
1001
0000
0100
0000
0010
0000
1000
0000
0001
0000
1000
0001
1000
0000
,
1001
0110
0010
0100
0010
1000
0010
1000
,
1010
0000
0000
0101
0000
0000
0001
0000
0000
0010
0000
0000
0100
0000
0010
0000
0100
0000
0020
0000
0000
0030
0000
0000
,
1010
0101
1000
0001
0100
0001
0100
0010
,
0110
1001
0010
0100
0001
1000
2002
3003
,
1001
0000
0110
0000
0100
0000
0010
0000
0100
0000
0001
0000
0100
0001
0100
0001
,
0101
0000
0000
0000
0000
0000
1010
0000
0000
0000
0000
0000
1000
0000
0000
0000
0000
0000
0100
0000
0000
0000
0000
0000
0010
0000
0000
0000
0100
0000
0000
0000
0010
0000
0000
0000
0200
0000
0000
0010
0000
0000
0010
0000
0000
0000
0000
0000
,
0300
0000
0000
0000
;

//---------------dance-single - ----------------
#NOTES:
     dance-single:
     :
     Hard:
     15:
     0.543,0.945,0.143,0.406,0.390: // measure 1
0000
0000
0000
0000
,  // measure 2
0000
0000
0000
0000
,  // measure 3
0000
0000
0000
0000
,  // measure 4
0000
0000
0000
0000
,  // measure 5
1000
0010
1000
0010
,  // measure 6
0001
0100
0001
0100
,  // measure 7
0010
1000
0001
1000
,  // measure 8
0010
0001
0010
1000
,  // measure 9
0010
1000
0001
1000
,  // measure 10
1000
0000
0000
0010
0000
0000
1000
0000
0000
0001
0000
0000
0100
0000
0001
0000
,  // measure 11
0100
0000
0000
0010
0000
0000
1000
0000
0000
0010
0000
0000
1000
0000
0010
0000
,  // measure 12
0100
0000
0000
0001
0000
0000
0010
0000
0000
0001
0000
0000
0100
0000
0001
0000
,  // measure 13
1000
0000
0000
0100
0000
0000
0001
0000
0000
1000
0000
0000
0010
0000
1000
0000
,  // measure 14
0010
0000
0000
0100
0000
0000
0001
0000
0000
0100
0000
0000
0001
0000
0100
0000
,  // measure 15
0010
0000
0000
1000
0000
0000
0100
0000
0000
1000
0000
0000
0010
0000
0100
0000
,  // measure 16
0220
0000
0000
0000
0000
0000
0000
0330
,  // measure 17
0110
0000
0000
0010
0000
0000
0100
0000
0000
0010
0000
0000
0001
0000
0000
0000
,  // measure 18
0100
0000
0000
0001
0000
0000
0100
0000
0000
0010
0000
0000
1000
0000
0000
0000
,  // measure 19
1000
0000
0000
0010
0000
0000
1000
0000
0000
0010
0000
0000
1000
0000
0000
0000
,  // measure 20
0100
1000
0100
1000
0000
0100
1000
0000
0000
1000
0000
0000
0001
0000
0100
0000
,  // measure 21
0001
0000
0000
0010
0000
0000
0100
0000
0000
1000
0000
0000
0010
0000
0000
0000
,  // measure 22
1000
0000
0000
0100
0000
0000
0010
0000
0000
0001
0000
0000
0100
0000
0000
0000
,  // measure 23
0010
0100
0010
0100
0010
0000
1000
0000
0000
0001
0000
0000
0001
0000
0000
0000
,  // measure 24
0010
0001
0010
0001
0000
0001
0010
0000
0101
0000
0000
0000
0001
0000
0000
0000
,  // measure 25
1001
0000
0000
1000
0000
0000
0010
0000
1000
0000
0010
0000
0100
0000
0000
0000
,  // measure 26
0100
0010
0100
0010
0000
0100
0001
0000
0100
0000
0010
0000
1000
0000
0000
0000
,  // measure 27
1001
0000
0000
0001
0000
0000
0100
0000
0001
0000
0100
0000
0010
0000
0000
0000
,  // measure 28
0010
0100
0010
0100
0000
0010
1000
0000
0010
0000
0100
0000
0001
0000
0000
0000
,  // measure 29
0010
0000
0000
0010
0000
0000
0100
0000
0010
1000
0010
1000
0000
1000
0010
0000
,  // measure 30
1000
0000
0000
1000
0000
0000
0001
0000
1000
0100
1000
0100
0000
0100
1000
0000
,  // measure 31
0001
1000
0001
1000
0001
1000
0001
1000
0001
1000
0001
1000
0001
1000
0001
1000
,  // measure 32
0002
1003
0010
0100
0010
0100
1001
0000
,  // measure 33
2020
0000
3030
0000
1000
0010
1000
0000
,  // measure 34
1000
0010
1000
0000
0010
0000
0100
0000
,  // measure 35
0202
0000
0303
0000
0001
0100
0010
0000
,  // measure 36
0100
0000
0000
0010
0000
0000
1000
0000
,  // measure 37
0001
0000
0100
0000
0100
0010
1000
0000
,  // measure 38
0001
0100
0001
0100
0001
0000
0100
0000
,  // measure 39
0002
0000
0023
0000
,  // measure 40
0230
0000
2300
0000
,  // measure 41
3010
0000
1000
0000
0010
1000
0001
0000
,  // measure 42
0100
0001
1000
0001
1000
0000
1100
0000
,  // measure 43
2002
0000
3003
0000
0010
0100
0001
0000
,  // measure 44
0100
0010
2000
0000
0000
3000
2000
0000
,  // measure 45
0020
0000
3030
0000
0100
0010
1000
0000
,  // measure 46
0001
0100
0001
0000
1000
0000
0010
0000
,  // measure 47
2000
0002
3003
0010
,  // measure 48
0100
0000
0000
0010
0000
0000
0100
0000
,  // measure 49
0202
0303
0001
0100
,  // measure 50
0010
0000
0100
0001
0100
0000
0100
0000
,  // measure 51
0010
1000
0010
0000
1000
0000
0010
1000
,  // measure 52
0020
0000
1030
0010
0100
0010
1000
0000
,  // measure 53
2020
3030
1000
0010
,  // measure 54
0100
0000
0010
1000
0010
1000
0010
0000
,  // measure 55
2000
0000
3200
0000
,  // measure 56
0320
0000
0032
0000
,  // measure 57
2000
3003
1000
0010
,  // measure 58
0100
0000
0010
1000
0010
0000
0010
0000
,  // measure 59
0100
0001
0100
0000
0001
0000
0100
0001
,  // measure 60
0200
0000
0301
0100
0010
0100
0001
0000
,  // measure 61
0202
0000
0000
0000
,  // measure 62
0000
0000
0000
0303
,  // measure 63
0010
1001
0100
0110
,  // measure 64
0010
0000
1010
0000
1000
0000
0001
1000
,  // measure 65
0002
0000
0203
0000
0301
0100
0001
0100
0001
1000
0010
1000
0020
0000
0130
0010
,  // measure 66
0200
0000
0320
0000
1030
0100
0010
0001
0010
0100
1000
0001
1000
0001
1000
0000
,  // measure 67
2000
0000
3002
0000
1003
0010
0001
0010
1000
0010
0001
0010
1000
0001
0100
0001
,  // measure 68
2000
0000
0000
0000
0000
0000
3200
0000
0000
0000
0000
0000
0310
0000
0000
0001
0000
0000
0010
0000
0000
0001
0000
0000
0100
0000
0000
0000
0010
0000
0000
0000
1000
0000
0000
0000
0200
0000
0000
0000
0000
0000
0000
0000
0000
0000
0000
0000
,  // measure 69
2300
0000
3200
0000
1300
0100
0001
0100
1000
0001
0100
0001
1000
0001
0100
0001
,  // measure 70
0020
0000
0032
0000
0103
0010
0100
0001
1000
0001
0100
0010
0200
0000
0310
0100
,  // measure 71
0020
0000
0230
0000
0310
1000
0010
1000
0001
0010
0100
1000
0010
1001
0100
1001
,  // measure 72
0020
0000
0000
0000
0000
0000
2030
0000
0000
0000
0000
0000
3001
0000
0000
0100
0000
0000
0001
0000
0000
1000
0000
0000
0010
0000
0000
0000
1000
0000
0000
0000
0010
0000
0000
0000
2000
0000
0000
0010
0000
0000
0001
0000
0000
0000
0000
0000
,  // measure 73
3000
0000
0000
0000
;
