#TITLE:Dream of You;
#SUBTITLE:;
#ARTIST:CHUNG HA & R3HAB;
#TITLETRANSLIT:;
#SUBTITLETRANSLIT:;
#ARTISTTRANSLIT:;
#CREDIT:;
#BANNER:Dream of You.png;
#BACKGROUND:Dream of You-bg.png;
#LYRICSPATH:;
#CDTITLE:;
#MUSIC:Dream of You.mp3;
#OFFSET:0.480;
#SAMPLESTART:50.780;
#SAMPLELENGTH:15.000;
#SELECTABLE:YES;
#BPMS:0.000=117.000;
#STOPS:;
#BGCHANGES:;

//---------------dance-single - ----------------
#NOTES:
     dance-single:
     :
     Beginner:
     2:
     0.190,0.215,0.070,0.091,0.000:
0000
0000
0000
0000
,
0000
0001
0000
0001
,
0000
0010
0000
0010
,
0000
0100
0000
0100
,
0000
2000
0000
3000
,
0000
1000
0000
0001
,
0000
1000
0000
0001
,
0000
0100
0000
0010
,
0000
0100
0000
0010
,
0000
1000
0100
1000
,
0000
0001
0100
0001
,
0000
0010
0100
0010
,
0000
0001
0100
0001
,
2002
0000
0000
0000
,
3003
0010
0000
0010
,
0000
0100
0000
0100
,
0000
0001
0000
1000
,
2000
0000
0000
0000
,
3000
0100
0000
0010
,
0000
0001
0000
1000
,
0000
0001
0000
0001
,
1001
1000
0010
0000
,
0001
0100
0010
0000
,
0100
0001
0100
0000
,
0001
1000
0100
0000
,
1001
0100
1001
0000
,
0010
0100
0001
0000
,
1000
0010
0100
0000
,
0010
0020
0000
0030
,
1000
0010
1000
0000
,
0001
0100
0001
0000
,
0010
0001
0100
0000
,
1000
0010
0100
0000
,
0100
1000
0100
0000
,
0010
0100
0001
0000
,
0100
0010
0001
0000
,
0010
0220
0330
0010
,
0000
1000
0000
0001
,
0000
0100
0000
0010
,
0000
1000
0000
0010
,
0000
1000
0000
0010
,
0000
0001
0010
0100
,
0000
1000
0010
0100
,
0000
0001
0100
1000
,
0000
0001
1000
0001
,
2002
0000
0000
0000
,
3003
0100
0000
0100
,
0000
0010
0000
0010
,
0000
1000
0000
0001
,
0002
0000
0000
0000
,
0003
0010
0000
0100
,
0000
1000
0000
0001
,
0000
1000
0000
1000
,
1001
0001
0100
0000
,
1000
0010
0100
0000
,
0010
1000
0010
0000
,
1000
0001
0010
0000
,
1001
0010
1001
0000
,
0100
0010
1000
0000
,
0001
0100
0010
0000
,
0100
0200
0000
0300
,
0001
0100
0001
0000
,
1000
0010
1000
0000
,
0100
1000
0010
0000
,
0001
0100
0010
0000
,
0010
0001
0010
0000
,
0100
0010
1000
0000
,
0010
0100
1000
0000
,
0100
0220
0330
0000
;

//---------------dance-single - ----------------
#NOTES:
     dance-single:
     :
     Easy:
     3:
     0.207,0.240,0.070,0.070,0.000:
0000
0000
0000
0000
,
1000
0001
0000
0001
,
0100
0001
0000
0010
,
1000
0010
0000
0100
,
0001
0010
0000
0000
,
1000
1010
0000
0101
,
0001
0100
0000
1000
,
0010
1000
0000
0010
,
1000
0001
0000
0100
,
0010
0100
0000
0010
,
1000
0100
0000
0001
,
0100
0001
0000
0010
,
0100
1000
0000
0001
,
0002
1000
0000
1000
,
0000
0103
0000
0010
,
0000
1000
0000
0010
,
0000
0100
0000
0010
,
0200
1000
0000
0001
,
0000
1300
0000
0001
,
0000
0100
0000
0001
,
0000
1000
0000
0010
,
0000
0100
0010
0001
,
0000
0010
0100
0010
,
0000
0100
0010
1000
,
0000
0100
0010
0110
,
1001
0001
0100
0001
,
0000
1000
0010
0100
,
0000
0001
0100
1000
,
0000
2002
0000
3003
,
0000
0001
0100
0010
,
0000
1000
0001
0010
,
0000
0100
1000
0010
,
0000
1000
0100
0010
,
0000
0001
0010
0100
,
0000
0100
0010
0100
,
0000
0010
1000
0100
,
0100
0200
0000
0301
,
0001
0101
0000
1010
,
1000
0010
0000
0001
,
0100
0001
0000
0100
,
0001
1000
0000
0010
,
0100
0010
0000
0100
,
0001
0010
0000
1000
,
0010
1000
0000
0100
,
0010
0001
0000
1000
,
2000
0001
0000
0001
,
0000
3010
0000
0100
,
0000
0001
0000
0100
,
0000
0010
0000
0100
,
0020
0001
0000
1000
,
0000
0031
0000
1000
,
0000
0010
0000
1000
,
0000
0001
0000
0100
,
0000
0010
0100
1000
,
0000
0100
0010
0100
,
0000
0010
0100
0001
,
0000
0010
0100
0110
,
1001
1000
0010
1000
,
0000
0001
0100
0010
,
0000
1000
0010
0001
,
0000
2002
0000
3003
,
0000
1000
0010
0100
,
0000
0001
1000
0100
,
0000
0010
0001
0100
,
0000
0001
0010
0100
,
0000
1000
0100
0010
,
0000
0010
0100
0010
,
0000
0100
0001
0010
,
0010
0020
0000
0030
;

//---------------dance-single - ----------------
#NOTES:
     dance-single:
     :
     Medium:
     8:
     0.384,0.406,0.091,0.188,0.014:
0000
0000
0000
0000
,
0001
0000
0100
0000
0100
0010
0100
0001
,
1000
0000
0010
0000
1000
0010
0001
0010
,
1000
0000
0100
0000
0100
0010
1000
0100
,
0010
0001
0100
0000
0000
0000
0000
0000
,
0001
0000
1000
0000
0010
1000
0010
1000
,
0001
0000
0100
0000
0001
1000
0010
1000
,
1001
0000
0100
0000
0010
0100
0010
0100
,
0010
0000
1000
0000
0001
0010
1000
0010
,
0001
0000
1000
0000
0001
0000
0100
0010
,
1000
0000
0001
0000
1000
0000
0010
0100
,
0010
0000
1000
0000
0001
0000
0001
0010
,
0100
0000
0010
0000
1000
0000
0010
0100
,
2010
0001
0000
0001
,
3000
0000
0100
0000
0000
0000
0010
0100
,
0020
0000
0100
0000
0000
0000
1030
0100
,
0002
0000
0100
0000
0000
0000
0013
1000
,
0200
0010
0000
1300
,
0020
0000
0001
0000
0000
0000
0130
0100
,
0001
0000
1000
0000
0000
0000
1000
0001
,
0200
0000
0020
0000
0000
0000
0000
0330
,
0010
0000
1000
0000
1000
0100
0001
0100
,
1000
0000
0001
0000
0001
0010
1000
0010
,
0001
0000
0100
0000
0010
1000
0010
1000
,
0010
0000
0000
0000
0110
0000
0000
1001
0000
0000
1000
0001
1000
0000
0001
0000
,
1001
0000
0100
0000
0001
1000
0010
1000
,
0001
0000
0100
0000
0010
1000
0010
1000
,
0001
0000
0100
0000
1000
0100
0010
0001
,
0010
0100
2002
0000
0000
3003
0000
0000
,
0000
0100
0010
0100
0000
0001
1000
0001
,
0000
0100
0010
1000
0020
0000
1030
0010
,
0000
0001
0010
0100
0000
0010
0100
1000
,
0000
1000
0010
0001
0020
0000
1030
0010
,
0000
1000
0010
1000
0000
0010
0001
0010
,
0000
0100
0001
1000
0020
0000
1030
0001
,
0000
0100
0001
0010
0000
0010
0100
0001
,
0010
0100
2000
0000
3001
0000
0000
0000
,
1000
0000
0001
0000
0100
0001
0100
0001
,
1000
0000
0010
0000
1000
0001
0100
0001
,
1001
0000
0010
0000
0100
0010
0100
0010
,
0100
0000
0001
0000
1000
0100
0001
0100
,
1000
0000
0001
0000
1000
0000
0010
0100
,
0001
0000
1000
0000
0001
0000
0100
0010
,
0100
0000
0001
0000
1000
0000
1000
0100
,
0010
0000
0100
0000
0001
0000
0100
0010
,
0102
1000
0000
1000
,
0003
0000
0010
0000
0000
0000
0100
0010
,
0200
0000
0010
0000
0000
0000
0301
0010
,
2000
0000
0010
0000
0000
0000
3100
0001
,
0020
0100
0000
0031
,
0200
0000
1000
0000
0000
0000
0310
0010
,
1000
0000
0001
0000
0000
0000
0001
1000
,
0020
0000
0200
0000
0000
0000
0000
0330
,
0100
0000
0001
0000
0001
0010
1000
0010
,
0001
0000
1000
0000
1000
0100
0001
0100
,
1000
0000
0010
0000
0100
0001
0100
0001
,
0100
0000
0000
0000
0110
0000
0000
1001
0000
0000
0001
1000
0001
0000
1000
0000
,
1001
0000
0010
0000
1000
0001
0100
0001
,
1000
0000
0010
0000
0100
0001
0100
0001
,
1000
0000
0010
0000
0001
0010
0100
1000
,
0100
0010
2002
0000
0000
3003
0000
0000
,
0000
0010
0100
0010
0000
1000
0001
1000
,
0000
0010
0100
0001
0200
0000
0301
0100
,
0000
1000
0100
0010
0000
0100
0010
0001
,
0000
0001
0100
1000
0200
0000
0301
0100
,
0000
0001
0100
0001
0000
0100
1000
0100
,
0000
0010
1000
0001
0200
0000
0301
1000
,
0000
0010
1000
0100
0000
0100
0010
1000
,
0100
0010
0202
0000
0303
0000
0000
0000
;

//---------------dance-single - ----------------
#NOTES:
     dance-single:
     :
     Hard:
     12:
     0.437,0.430,0.112,0.153,0.209: // measure 1
0000
0000
0000
0000
,  // measure 2
0100
0000
0000
0000
0010
0000
0000
1000
0000
0000
0010
0000
1000
0000
0001
0000
,  // measure 3
0100
0000
0000
0000
0001
0000
0000
1000
0000
0000
1000
0000
0100
0000
0010
0000
,  // measure 4
0001
0000
0000
0000
0010
0000
0000
0010
0000
0000
0100
0000
0010
0000
1000
0000
,  // measure 5
0001
0001
0001
0000
0000
0000
1000
0010
,  // measure 6
0100
0000
0000
0000
0010
0000
0000
0000
0100
0000
0000
0010
1000
0010
0000
1000
,  // measure 7
0000
0000
1000
0000
0010
0000
0100
0001
0000
0000
0000
0000
1000
0000
0000
2002
,  // measure 8
0000
3003
0001
0000
1000
0000
0010
0100
0000
0000
0100
0000
0010
0000
0001
0000
,  // measure 9
0001
0000
0100
0000
0010
0000
1000
0010
,  // measure 10
0100
0000
0001
0000
0010
0000
1000
0000
0010
0000
0000
0001
1000
0001
0000
0010
,  // measure 11
0000
0000
0100
0000
0010
0000
1000
0100
0000
0000
0000
0010
0100
0010
0000
0100
,  // measure 12
0000
0000
0010
0000
0100
0000
0001
0010
0000
0000
1000
0000
0100
0000
0010
0000
,  // measure 13
0001
0000
0000
0000
0100
0000
0000
0010
0100
0000
0010
0000
1000
0000
0010
0000
,  // measure 14
0200
0000
0000
0000
0010
0000
0000
0000
0000
0000
0000
0000
0301
0000
0001
0100
,  // measure 15
0000
0000
0010
0000
0000
0000
1000
0010
,  // measure 16
1000
0001
0000
0000
0000
0000
0001
0100
,  // measure 17
0010
1000
0000
0000
0000
1000
0001
0100
,  // measure 18
0020
0000
0000
0000
0100
0000
0000
0000
0000
0000
0000
0000
1030
0000
0010
1000
,  // measure 19
0000
0000
0001
0000
0000
0000
1000
0001
,  // measure 20
0100
0001
0000
0000
0000
0000
0010
0100
,  // measure 21
0010
0100
0000
0000
0000
0000
0000
0000
,  // measure 22
1000
0000
0000
0000
1010
0000
0000
0100
0010
0000
0100
0000
0001
0000
0010
0000
,  // measure 23
0001
0000
0000
0000
0101
0000
0000
0001
0100
0000
0010
0000
1000
0000
0100
0000
,  // measure 24
0010
0000
0000
0000
1001
0000
0000
1000
0010
0000
0100
0000
0001
0000
0100
0000
,  // measure 25
1000
0000
0000
0000
0100
0000
0000
0002
0000
0000
0000
0000
0103
0000
0001
0000
,  // measure 26
0101
0000
0000
0000
0010
0000
0000
0110
0000
0100
0010
0000
1000
0000
0010
0000
,  // measure 27
0001
0000
0000
0000
1000
0000
0000
0100
0000
0010
0100
0000
0001
0000
1000
0000
,  // measure 28
0001
0000
0000
0000
0010
0000
0000
0100
0000
0001
1000
0000
0010
0000
0100
0000
,  // measure 29
0010
0000
0100
0000
0020
0000
0000
0000
0130
0000
0000
0000
0100
0010
0100
0000
,  // measure 30
0101
0001
0010
0100
0000
1000
0010
0100
,  // measure 31
0000
1000
0010
0001
0020
0000
1030
0001
,  // measure 32
0000
1000
0010
1000
0000
0001
0100
0010
,  // measure 33
0000
0100
0010
0001
0002
0000
0013
0100
,  // measure 34
0000
1000
0100
1000
0000
0001
0100
0001
,  // measure 35
0000
0010
0100
0001
2000
0000
3010
0100
,  // measure 36
0000
0001
1000
0001
0000
1000
0001
1000
,  // measure 37
0010
0100
0220
0000
0330
0000
0001
0100
,  // measure 38
0010
0000
0000
0000
0100
0000
0000
0100
0010
0000
1000
0000
0001
1000
0000
0001
,  // measure 39
0000
0000
0001
0000
0100
0000
0010
1000
0000
0000
0000
0000
0001
0000
0000
2002
,  // measure 40
0000
3003
1000
0000
0001
0000
0100
0010
0000
0000
0010
0100
0010
0000
1000
0000
,  // measure 41
0100
0000
0010
0000
0100
0000
0001
0100
,  // measure 42
0010
0000
1000
0000
0100
0000
0001
0000
0100
0000
0000
1000
0001
1000
0000
0100
,  // measure 43
0000
0000
0010
0000
0100
0000
0001
0010
0000
0000
0000
0100
0010
0100
0000
0010
,  // measure 44
0000
0000
0100
0000
0010
0000
1000
0100
0000
0000
0001
0000
0010
0000
0100
0000
,  // measure 45
1000
0000
0000
0000
0010
0000
0000
0100
0010
0000
0100
0000
0001
0000
0100
0000
,  // measure 46
0020
0000
0000
0000
0100
0000
0000
0000
0000
0000
0000
0000
1030
0000
1000
0010
,  // measure 47
0000
0000
0100
0000
0000
0000
0001
0100
,  // measure 48
0001
1000
0000
0000
0000
0000
1000
0010
,  // measure 49
0100
0001
0000
0000
0000
0001
1000
0010
,  // measure 50
0200
0000
0000
0000
0010
0000
0000
0000
0000
0000
0000
0000
0301
0000
0100
0001
,  // measure 51
0000
0000
1000
0000
0000
0000
0001
1000
,  // measure 52
0010
1000
0000
0000
0000
0000
0100
0010
,  // measure 53
0100
0010
0000
0000
0000
0000
0000
0000
,  // measure 54
0001
0000
0000
0000
0101
0000
0000
0010
0100
0000
0010
0000
1000
0000
0100
0000
,  // measure 55
1000
0000
0000
0000
1010
0000
0000
1000
0010
0000
0100
0000
0001
0000
0010
0000
,  // measure 56
0100
0000
0000
0000
1001
0000
0000
0001
0100
0000
0010
0000
1000
0000
0010
0000
,  // measure 57
0001
0000
0000
0000
0010
0000
0000
2000
0000
0000
0000
0000
3010
0000
1000
0000
,  // measure 58
1010
0000
0000
0000
0100
0000
0000
0110
0000
0010
0100
0000
0001
0000
0100
0000
,  // measure 59
1000
0000
0000
0000
0001
0000
0000
0010
0000
0100
0010
0000
1000
0000
0001
0000
,  // measure 60
1000
0000
0000
0000
0100
0000
0000
0010
0000
1000
0001
0000
0100
0000
0010
0000
,  // measure 61
0100
0000
0010
0000
0200
0000
0000
0000
0310
0000
0000
0000
0010
0100
0010
0000
,  // measure 62
1010
1000
0100
0010
0000
0001
0100
0010
,  // measure 63
0000
0001
0100
1000
0200
0000
0301
1000
,  // measure 64
0000
0001
0100
0001
0000
1000
0010
0100
,  // measure 65
0000
0010
0100
1000
2000
0000
3100
0010
,  // measure 66
0000
0001
0010
0001
0000
1000
0010
1000
,  // measure 67
0000
0100
0010
1000
0002
0000
0103
0010
,  // measure 68
0000
1000
0001
1000
0000
0001
1000
0001
,  // measure 69
0100
0010
0220
0000
0330
0000
0000
0000
;
