#TITLE:Domino;
#SUBTITLE:;
#ARTIST:Jessie J;
#TITLETRANSLIT:;
#SUBTITLETRANSLIT:;
#ARTISTTRANSLIT:;
#CREDIT:;
#BANNER:Domino.png;
#BACKGROUND:Domino-bg.png;
#LYRICSPATH:;
#CDTITLE:;
#MUSIC:Domino.mp3;
#OFFSET:-0.100;
#SAMPLESTART:112.080;
#SAMPLELENGTH:15.000;
#SELECTABLE:YES;
#BPMS:0.000=127.000;
#STOPS:;
#BGCHANGES:-0.400=Domino.avi=1.000=0=0=0,
99999=-nosongbg-=1.000=0=0=0 // don't automatically add -songbackground-
;

//---------------dance-single - ----------------
#NOTES:
     dance-single:
     :
     Easy:
     4:
     0.271,0.287,0.068,0.286,0.000: // measure 1
0000
0000
0000
0000
,  // measure 2
0000
0000
0000
0000
,  // measure 3
0000
0000
0000
0000
,  // measure 4
0000
0000
0000
0000
,  // measure 5
0000
0100
0000
0100
,  // measure 6
0010
1000
0010
1000
,  // measure 7
0020
0130
0000
0100
,  // measure 8
0001
1000
0010
1000
,  // measure 9
0002
1003
0000
0010
,  // measure 10
1000
0010
0100
0001
,  // measure 11
2000
3010
0000
0010
,  // measure 12
0000
0010
0000
0100
,  // measure 13
0010
0010
0100
0001
,  // measure 14
1000
0010
0000
0100
,  // measure 15
0001
0100
0001
0010
,  // measure 16
0100
1000
0000
0001
,  // measure 17
1000
0001
0000
0100
,  // measure 18
0000
0010
1000
0010
,  // measure 19
0100
0001
0000
0100
,  // measure 20
0000
0001
0001
0010
,  // measure 21
0000
0101
0100
0010
,  // measure 22
1000
0010
0100
0010
,  // measure 23
1000
0001
0100
0001
,  // measure 24
0000
1000
1000
0010
,  // measure 25
0000
1010
0010
0100
,  // measure 26
0001
0100
0010
0100
,  // measure 27
0001
1000
0010
1000
,  // measure 28
0000
1010
0101
1010
,  // measure 29
0000
2000
3010
0100
,  // measure 30
0010
0100
0020
0130
,  // measure 31
0000
0002
0103
0010
,  // measure 32
1000
0010
0200
0310
,  // measure 33
0000
2000
3010
0100
,  // measure 34
0010
0001
0002
0103
,  // measure 35
0000
0002
1003
0010
,  // measure 36
1000
0001
0200
0310
,  // measure 37
0000
0200
1300
0001
,  // measure 38
1000
0001
2000
3001
,  // measure 39
0000
0020
0031
1000
,  // measure 40
0100
1000
0002
1003
,  // measure 41
0000
0200
1300
0001
,  // measure 42
1000
0010
0020
0130
,  // measure 43
0000
0020
0130
1000
,  // measure 44
0100
0010
0002
1003
,  // measure 45
0000
0001
0000
0001
,  // measure 46
0000
1000
0000
1000
,  // measure 47
0000
0010
0000
0100
,  // measure 48
0000
0010
0000
1000
,  // measure 49
0000
0001
0000
1000
,  // measure 50
0000
0010
0000
1000
,  // measure 51
0000
0001
0000
0001
,  // measure 52
0000
0100
0000
0100
,  // measure 53
0020
0100
0000
0100
,  // measure 54
0000
0100
0000
0130
,  // measure 55
0200
0001
0000
0001
,  // measure 56
0000
0001
0000
0301
,  // measure 57
0002
1000
0000
1000
,  // measure 58
0000
1000
0000
1003
,  // measure 59
2002
0000
0000
0000
,  // measure 60
3003
0110
1001
0110
,  // measure 61
0000
0002
0103
0010
,  // measure 62
0100
0010
0200
0310
,  // measure 63
0000
2000
3010
0100
,  // measure 64
0001
0100
0020
0130
,  // measure 65
0000
0002
0103
0010
,  // measure 66
0100
1000
2000
3010
,  // measure 67
0000
2000
3001
0100
,  // measure 68
0001
1000
0020
0130
,  // measure 69
0000
0020
0031
1000
,  // measure 70
0001
1000
0002
1003
,  // measure 71
0000
0200
1300
0001
,  // measure 72
0010
0001
2000
3001
,  // measure 73
0000
0020
0031
1000
,  // measure 74
0001
0100
0200
0310
,  // measure 75
0000
0200
0310
0001
,  // measure 76
0010
0100
2000
3001
,  // measure 77
2002
0000
0000
3003
;

//---------------dance-single - ----------------
#NOTES:
     dance-single:
     :
     Beginner:
     1:
     0.182,0.261,0.116,0.177,0.000:
0000
0000
0000
0000
,
0000
0000
0000
0000
,
0000
0000
0000
0000
,
0000
0000
0000
0000
,
0000
0010
0000
0100
,
0000
0010
0000
1000
,
0000
0010
0000
1000
,
0000
0001
0000
0100
,
0000
0001
0000
0001
,
0000
1000
0000
0001
,
0000
1000
0000
0010
,
0000
0100
0000
0010
,
0000
0110
0000
0100
,
0000
1000
0000
1000
,
0000
0001
0000
0001
,
0000
0001
0000
0100
,
0000
0110
0000
0010
,
0000
1000
0000
0010
,
0000
1000
0000
0001
,
0000
0010
0010
0020
,
0000
0030
0000
0100
,
0000
0010
0000
1000
,
0000
0100
0000
1000
,
0000
0100
0100
0200
,
0000
0300
0000
0010
,
0000
1000
0000
0001
,
0000
0100
0000
0001
,
0000
1001
0110
1001
,
0000
0010
0010
0010
,
0000
1000
0001
1000
,
0000
0100
0000
0010
,
0000
0100
0000
0100
,
0000
0001
0001
0001
,
0000
1000
0010
1000
,
0000
0100
0000
0010
,
0000
1000
0000
0010
,
0000
1000
1000
1000
,
0000
0010
0000
0100
,
0000
0001
0000
0001
,
0000
0001
0000
1000
,
0000
0100
0100
0100
,
0000
0100
0000
0010
,
0000
1000
0000
0001
,
0000
1000
0000
0001
,
0000
0002
0000
0003
,
0000
2000
0000
3000
,
0000
0200
0000
0300
,
0000
0020
0000
0030
,
0000
0200
0000
0300
,
0000
2000
0000
3000
,
0000
0002
0000
0003
,
0000
0200
0000
0300
,
0000
0220
0000
0330
,
0000
2002
0000
3003
,
0000
0202
0000
0303
,
0000
2200
0000
3300
,
0000
0220
0000
0330
,
0000
2002
0000
3003
,
0000
0220
0000
0330
,
0000
0110
1001
0110
,
0000
0100
0100
0100
,
0000
0001
1000
0001
,
0000
0010
0000
0100
,
0000
0010
0000
0010
,
0000
1000
1000
1000
,
0000
0001
0100
0001
,
0000
0010
0000
0100
,
0000
0001
0000
0100
,
0000
0001
0001
0001
,
0000
0100
0000
0010
,
0000
1000
0000
1000
,
0000
1000
0000
0001
,
0000
0010
0010
0010
,
0000
0010
0000
0100
,
0000
0001
0000
1000
,
0000
0001
0000
1001
,
2002
0000
0000
3003
;

//---------------dance-single - ----------------
#NOTES:
     dance-single:
     :
     Medium:
     7:
     0.339,0.339,0.191,0.177,0.000:
0000
0000
0000
0000
,
0000
0000
0000
0000
,
0000
0000
0000
0000
,
0000
0000
0000
0000
,
1010
0000
1000
0000
0000
0010
0000
0100
,
0000
0010
0000
0100
0000
0001
1000
0000
,
0101
0000
0001
0000
0000
1000
0000
0010
,
0000
0100
0000
0010
0000
0100
0010
0000
,
0110
0000
0100
0000
0000
0001
0000
1000
,
0000
0010
0000
1000
0000
0001
1000
0000
,
1001
0000
0001
0000
0000
0001
0000
0100
,
0000
1000
0000
0100
0000
0001
1000
0000
,
0010
0100
0000
0010
,
0100
0010
0000
0001
,
0001
0100
0000
0010
,
1000
0000
0010
0000
0000
1000
0001
1000
,
0000
0001
0000
0100
,
0010
0100
0000
0010
,
0010
1000
0000
1000
,
0010
0000
1001
0000
0001
1000
0000
2002
,
0000
0000
3003
0000
1000
0010
0001
0000
,
2000
0000
3001
0000
0001
1000
0010
0000
,
0200
0000
0310
0000
0010
0100
0010
0100
,
0000
0000
1001
0000
0010
0100
0000
0220
,
0000
0000
0330
0000
0001
0100
1000
0000
,
0002
0000
1003
0000
1000
0001
0100
0000
,
0020
0000
0130
0000
0100
0010
0100
0010
,
0000
0000
1001
0000
0010
0100
0000
1001
,
0000
0002
0013
0001
,
0001
0000
0100
0010
0100
0000
0010
0000
,
0110
0200
0310
1000
,
0010
0000
0100
0010
1000
0000
0010
0000
,
1001
0200
0310
0010
,
1000
0000
0010
1000
0001
0000
0100
0000
,
0101
0020
0130
1000
,
0010
0000
0100
0010
0100
0000
0010
0000
,
1010
0200
0310
0100
,
0100
0000
1000
0010
1000
0000
0010
0000
,
1010
2000
3010
0001
,
0010
0000
1000
0010
0001
0000
0010
0000
,
0101
2000
3010
0010
,
0001
0000
0010
0001
0100
0000
1000
0000
,
1100
0020
1030
0001
,
0010
0000
1000
0010
1000
0000
0010
0000
,
0011
0000
0001
0000
0000
0100
0000
0010
,
0000
0100
0000
0010
0000
0100
0100
0000
,
0000
0000
1000
0000
0000
0010
0000
0100
,
0000
0010
0000
1000
0000
0001
1000
0000
,
0000
0000
1000
0000
0000
0010
0000
0100
,
0000
0010
0000
0100
0000
0010
0010
0000
,
0000
0000
0001
0000
0000
0100
0000
0010
,
0000
0100
0000
0001
0000
1000
0001
0000
,
0000
0000
0001
0000
0000
0010
0000
0001
,
0000
0100
0000
0001
0000
0010
1000
0000
,
0000
0000
0010
0000
0000
0100
0000
0001
,
0000
0010
0000
0001
0000
0100
1000
0000
,
0000
0000
0100
0000
0000
0010
0000
1000
,
0000
0010
0000
0100
0000
1000
0001
0000
,
0000
0000
0010
0000
0000
0010
0000
0100
,
0000
0000
1001
0000
0100
0010
0000
1001
,
0000
2000
3100
1000
,
1000
0000
0010
0100
0010
0000
0100
0000
,
0110
0020
0130
0001
,
0100
0000
0010
0100
0001
0000
0100
0000
,
1001
0020
0130
0100
,
0001
0000
0100
0001
1000
0000
0010
0000
,
1010
0200
0310
0001
,
0100
0000
0010
0100
0010
0000
0100
0000
,
0101
0020
0130
0010
,
0010
0000
0001
0100
0001
0000
0100
0000
,
0101
0002
0103
1000
,
0100
0000
0001
0100
1000
0000
0100
0000
,
1010
0002
0103
0100
,
1000
0000
0100
1000
0010
0000
0001
0000
,
0011
0200
0301
1000
,
0100
0000
0001
0100
0001
0000
0100
0000
,
2002
0000
0000
3003
;

//---------------dance-single - ----------------
#NOTES:
     dance-single:
     :
     Hard:
     10:
     0.413,0.366,0.197,0.252,0.000:
0000
0000
0000
0000
,
0000
0000
0000
0000
,
0000
0000
0000
0000
,
0000
0000
0000
0000
,
0110
0000
0100
0000
0000
0010
0000
1000
,
0000
1000
0001
1000
0001
1000
0001
0000
,
0101
0000
0001
0000
0000
0100
0000
0010
,
0000
1000
0010
1000
0001
0100
0010
0000
,
0110
0000
0010
0000
0000
0100
0000
0001
,
0000
0001
1000
0001
1000
0001
1000
0000
,
1010
0000
1000
0000
0000
0010
0000
0100
,
0000
0001
0100
0001
1000
0010
0100
0000
,
0100
0000
0100
0001
0100
0000
0010
0000
,
1000
0000
0100
0010
1000
0000
0001
0000
,
0001
0000
0100
0010
0100
0000
0010
0000
,
1000
0000
0001
0100
1000
0000
0001
0000
,
1000
0000
0001
1000
0100
0000
0010
0000
,
0010
0000
1000
0010
1000
0000
0001
0000
,
0100
0101
0010
0110
,
1000
0000
0010
0000
0010
1000
0000
2002
,
0000
3003
1000
0000
0100
0010
0100
0010
,
0020
0000
0130
0000
1000
0010
1000
0100
,
0002
0000
0103
0000
0001
0010
0100
1000
,
0000
0000
0100
0000
0100
0001
0000
2002
,
0000
3003
0001
0000
0010
0100
0010
0100
,
0200
0000
0310
0000
0001
0100
0001
0010
,
2000
0000
3010
0000
1000
0100
0010
0001
,
0000
0000
0101
0000
0010
0110
0000
2002
,
0000
3003
2000
0000
0000
3010
0000
1000
,
0000
0001
0100
0001
1000
0000
0010
0000
,
1010
0000
0002
0000
0000
0103
0000
0010
,
0000
1000
0010
0001
0010
1000
0010
0000
,
0101
0000
0020
0000
0000
0130
0000
0010
,
0000
0010
0001
0100
1000
0000
1000
0000
,
1010
0000
0200
0000
0000
0310
0000
0010
,
0000
1000
0010
0001
0010
1000
0010
0000
,
0110
0000
0020
0000
0000
0130
0000
0010
,
0000
1000
0001
1000
0010
0000
0010
0000
,
0110
0000
0002
0000
0000
0103
0000
0010
,
0000
0010
0001
0010
1000
0010
0001
0000
,
0101
0000
2000
0000
0000
3010
0000
1000
,
0000
0001
0100
1000
0100
0000
0001
0000
,
1001
0000
0020
0000
0000
0130
0000
0010
,
0000
0010
1000
0001
0100
0010
0100
0000
,
0000
0010
0100
0010
0100
0010
0000
1000
,
0000
0001
0100
0001
2000
0000
3010
0000
,
0000
1000
0100
0010
0001
1000
0000
0001
,
0000
0100
0001
1000
0020
0000
1030
0000
,
0000
0001
0100
0001
0100
0001
0000
1000
,
0000
0010
0100
0010
0200
0000
0310
0000
,
0000
0001
0010
0100
1000
0001
0000
1000
,
0000
0001
0010
1000
0020
0000
1030
0000
,
0000
0100
0010
0100
0010
0100
0000
0001
,
0000
1000
0010
1000
0002
0000
0103
0000
,
0000
0001
0010
0100
1000
0001
0000
1000
,
0000
0010
1000
0001
0200
0000
0301
0000
,
0000
1000
0010
1000
0010
1000
0000
0001
,
0000
0100
0010
0100
0020
0000
0130
0000
,
0000
1000
0100
0010
0001
1000
0000
0001
,
0000
0000
1010
0000
0100
0110
0000
2002
,
0000
3003
0002
0000
0000
0103
0000
0001
,
0000
1000
0010
1000
0001
0000
0100
0000
,
0101
0000
2000
0000
0000
3010
0000
0100
,
0000
0001
0100
1000
0100
0001
0100
0000
,
1010
0000
0200
0000
0000
0310
0000
0100
,
0000
0100
1000
0010
0001
0000
0001
0000
,
0101
0000
0020
0000
0000
0130
0000
0100
,
0000
0001
0100
1000
0100
0001
0100
0000
,
0110
0000
0200
0000
0000
0310
0000
0100
,
0000
0001
1000
0001
0100
0000
0100
0000
,
0110
0000
2000
0000
0000
3010
0000
0100
,
0000
0100
1000
0100
0001
0100
1000
0000
,
1010
0000
0002
0000
0000
0103
0000
0001
,
0000
1000
0010
0001
0010
0000
1000
0000
,
1001
0000
0200
0000
0000
0310
0000
0100
,
0000
0100
0001
1000
0010
0100
0010
0000
,
2002
0000
0000
3003
;
