#TITLE:Do It (feat. Mayer Hawthorne);
#SUBTITLE:;
#ARTIST:Pitbull;
#TITLETRANSLIT:;
#SUBTITLETRANSLIT:;
#ARTISTTRANSLIT:;
#CREDIT:;
#BANNER:Do It (feat. Mayer Hawthorne).png;
#BACKGROUND:Do It (feat. Mayer Hawthorne)-bg.png;
#LYRICSPATH:;
#CDTITLE:;
#MUSIC:Do It (feat. Mayer Hawthorne).mp3;
#OFFSET:-0.400;
#SAMPLESTART:48.580;
#SAMPLELENGTH:15.000;
#SELECTABLE:YES;
#BPMS:0.000=119.520;
#STOPS:;
#BGCHANGES:;

//---------------dance-single - ----------------
#NOTES:
     dance-single:
     :
     Easy:
     3:
     0.207,0.310,0.130,0.219,0.000:
0000
0000
0000
0000
,
0000
0000
0000
0000
,
0000
0000
0000
0000
,
0000
0000
0000
0000
,
0000
0000
0000
0000
,
0000
0000
0000
0000
,
0000
0000
0000
0000
,
0220
0000
0000
0330
,
0000
0100
0010
0100
,
0000
0001
0001
0010
,
0000
1000
0010
0100
,
0000
0010
0100
1000
,
0000
1000
0010
0100
,
0000
0001
0100
0001
,
0000
0100
0010
1000
,
0000
0010
0100
1001
,
0000
0001
0100
0010
,
0000
0100
0010
0001
,
0000
0001
1000
0001
,
0000
1000
0010
0100
,
0000
0010
0100
0001
,
0000
0001
0001
0010
,
0000
1000
0100
1000
,
0000
0100
0010
0100
,
0110
0010
0100
1000
,
0000
1000
0010
0001
,
0000
0100
0010
0001
,
0000
0001
1000
0010
,
0000
1000
0010
1000
,
0000
0010
0100
0001
,
0000
0001
0100
1000
,
0000
0010
0100
0010
,
0200
0310
0020
0130
,
0200
0310
0000
0000
,
2002
0000
3003
0000
,
1001
0000
0100
0001
,
0202
0303
0100
0000
,
2020
3030
1000
0000
,
2002
3003
0010
0000
,
0220
0330
0100
0010
,
2020
3030
0010
0000
,
0202
0303
0001
0000
,
2002
3003
0100
0000
,
0220
0000
0000
0330
,
0000
0100
0010
0100
,
0001
1000
0010
2000
,
0000
3000
0000
1001
,
0000
0010
0000
1001
,
0000
0010
1000
0010
,
0001
0100
1000
0200
,
0000
0300
0000
0101
,
0000
1000
0000
0101
,
0000
0010
0100
0010
,
1000
0001
0100
0002
,
0000
0003
0000
1001
,
0000
0100
0000
1001
,
0000
0100
0001
0100
,
1000
0010
0001
0020
,
0000
0030
0000
0000
,
2000
3020
2030
3002
,
0203
0300
0000
0010
,
0000
0100
0000
0010
,
0000
1000
0000
0001
,
0000
0100
0000
0001
,
0000
1000
0000
0010
,
0000
1000
0000
0001
,
0000
0100
0000
0001
,
0000
1000
0000
0010
,
0000
1000
0000
0010
,
0000
0100
0000
0010
;

//---------------dance-single - ----------------
#NOTES:
     dance-single:
     :
     Beginner:
     1:
     0.151,0.215,0.027,0.110,0.000:
0000
0000
0000
0000
,
0000
0000
0000
0000
,
0000
0000
0000
0000
,
0000
0000
0000
0000
,
0000
0000
0000
0000
,
0000
0000
0000
0000
,
0000
0000
0000
0000
,
2002
0000
0000
3003
,
0000
0001
0000
1000
,
0000
0010
0000
1000
,
0000
0001
0000
0100
,
0000
0001
0000
0100
,
0000
0001
0000
1000
,
0000
0100
0000
1000
,
0000
0001
0000
0010
,
0000
0001
0000
1000
,
0000
0001
0000
1000
,
0000
0010
0000
1000
,
0000
0001
0000
1000
,
0000
0010
0000
0100
,
0000
0001
0000
0100
,
0000
0010
0000
1000
,
0000
0001
0000
0100
,
0000
0001
0000
1000
,
0000
1000
1000
1000
,
0000
0001
0000
0100
,
0000
0001
0001
0001
,
0000
0010
0000
0100
,
0000
0010
0010
0010
,
0000
1000
0000
0010
,
0000
0100
0100
0100
,
0000
0010
0000
1000
,
2000
3000
2000
3000
,
2000
3000
0000
1000
,
0000
0001
0000
0100
,
0000
0010
0000
0010
,
0020
0030
0010
0010
,
0020
0030
0010
0010
,
0020
0030
0010
0010
,
0020
0030
0010
0010
,
0020
0030
0010
0010
,
0020
0030
0010
0010
,
0020
0030
0010
0010
,
0020
0000
0000
0030
,
0000
0100
0000
0001
,
0000
0010
0000
0001
,
0000
1000
0000
0100
,
0000
1000
0000
0001
,
0000
0100
0000
1001
,
0000
1000
0000
0010
,
0000
1000
0000
0001
,
0000
0100
0000
0001
,
0000
1000
0000
0110
,
0000
1000
0000
0010
,
0000
0100
0000
0010
,
0000
1000
0000
0001
,
0000
1000
0000
1010
,
0000
1000
0000
0001
,
0000
0100
0000
0001
,
0002
0003
0002
0003
,
0002
0000
0000
0003
,
0000
0100
0000
0001
,
0000
1000
0000
0010
,
0000
0100
0000
0010
,
0000
1000
0000
0010
,
0000
1000
0000
0001
,
0000
1000
0000
0010
,
0000
0100
0000
0010
,
0000
1000
0000
0001
,
0000
1000
0000
0001
;

//---------------dance-single - ----------------
#NOTES:
     dance-single:
     :
     Medium:
     7:
     0.273,0.334,0.116,0.151,0.000:
0000
0000
0000
0000
,
0000
0000
0000
0000
,
0000
0000
0000
0000
,
0000
0000
0000
0000
,
0000
0000
0000
0000
,
0000
0000
0000
0000
,
0000
0000
0000
0000
,
0200
0000
0000
0300
,
0010
0000
0100
0000
0010
0100
0010
0000
,
1000
0000
0001
0000
1000
0001
0100
0000
,
0001
0000
0100
0000
0010
0100
0001
0000
,
0100
0000
0010
0000
1000
0010
0100
0000
,
0100
0000
0010
0000
1000
0010
0001
0000
,
0100
0000
0001
0000
0001
1000
0010
0000
,
0001
0000
0100
0000
0010
0100
0010
0000
,
1000
0000
0001
0000
0100
0010
0001
0000
,
0100
0000
0010
0000
0100
0010
0100
0000
,
0001
0000
1000
0000
0001
1000
0010
0000
,
1000
0000
0010
0000
0100
0010
1000
0000
,
0010
0000
0100
0000
0001
0100
0010
0000
,
0010
0000
0100
0000
0001
0100
1000
0000
,
0010
0000
1000
0000
1000
0001
0100
0000
,
1000
0000
0010
0000
0100
0010
0100
0000
,
0001
0000
1000
0000
0010
0100
1000
0000
,
0010
1000
0010
0000
0100
0010
0100
0000
,
0001
0100
0010
0000
1000
0100
1000
0000
,
1000
0100
0010
0000
0100
0010
0001
0000
,
0001
0100
1000
0000
1000
0010
0001
0000
,
0100
0001
0100
0000
0010
0100
0010
0000
,
1000
0010
0100
0000
0001
0010
0001
0000
,
0001
0010
0100
0000
0010
0100
1000
0000
,
1000
0010
0001
0000
0001
0100
1000
0000
,
2010
3000
0120
0030
,
0102
0003
0001
0010
,
0001
0100
0010
1000
,
0100
1000
0010
0100
,
0012
0003
0001
1000
,
2010
3000
1000
0010
,
2010
3000
0010
0100
,
0120
0030
0100
0001
,
0102
0003
0001
1000
,
2001
3000
0010
0100
,
0210
0300
0010
0100
,
2002
0000
0000
3003
,
1000
0010
0100
0010
,
1000
0001
0100
0020
,
0000
0130
0010
0110
,
0000
0010
0100
0110
,
0010
1000
0001
0100
,
0001
1000
0010
2000
,
0000
3001
1000
1001
,
0000
1000
0001
1001
,
0001
0100
0010
0100
,
0001
1000
0010
0200
,
0000
0310
0100
0110
,
0000
0100
0010
0110
,
0100
0001
1000
0010
,
1000
0001
0100
0002
,
0000
1003
0001
0100
,
0002
0023
0230
2300
,
3020
0000
0000
0030
,
0000
1000
0000
0010
,
0000
0001
0000
0100
,
0000
0010
0000
1000
,
0000
0001
0000
0100
,
0000
0001
0000
1000
,
0000
0010
0000
0100
,
0000
0010
0000
1000
,
0000
0001
0000
0100
,
0000
0001
0000
1000
;

//---------------dance-single - ----------------
#NOTES:
     dance-single:
     :
     Hard:
     9:
     0.377,0.406,0.034,0.164,0.000: // measure 1
0000
0000
0000
0000
,  // measure 2
0000
0000
0000
0000
,  // measure 3
0000
0000
0000
0000
,  // measure 4
0000
0000
0000
0000
,  // measure 5
0000
0100
0010
0100
0001
1000
0010
0100
,  // measure 6
0000
0001
0010
0100
1000
0000
1001
0000
,  // measure 7
0000
1000
0001
0100
0001
1000
0010
0100
,  // measure 8
0020
0000
0000
0030
,  // measure 9
0100
0010
0100
0001
0000
0000
0001
0100
,  // measure 10
1000
0100
0010
0001
0000
0000
1000
0001
,  // measure 11
0100
0010
0100
0001
0000
0010
1000
0010
,  // measure 12
0100
0001
0100
0010
0001
0100
0010
0100
,  // measure 13
1001
0000
0001
0100
1000
0100
0001
1000
,  // measure 14
0001
0000
0001
0100
0010
0100
1000
0001
,  // measure 15
1000
0000
1000
0010
0100
0001
0100
0000
,  // measure 16
0001
1000
0010
0100
0010
1000
1001
0000
,  // measure 17
1000
0000
0001
0010
1000
0010
0001
0010
,  // measure 18
1000
0000
0010
1000
0010
0100
0001
0000
,  // measure 19
0001
0100
0001
0000
1000
0010
1000
0000
,  // measure 20
0010
0100
0010
1000
0100
0010
0001
0100
,  // measure 21
0110
0000
1000
0010
0001
0010
1000
0000
,  // measure 22
1000
0000
0010
0100
0001
0100
0010
0000
,  // measure 23
0100
0000
0010
1000
0010
0001
0010
1000
,  // measure 24
0010
1000
0100
0010
0001
0100
0010
1000
,  // measure 25
0101
0000
0001
0100
1000
0100
0001
0100
,  // measure 26
0000
0001
0100
0001
0100
0010
0200
0000
,  // measure 27
0300
0100
0010
1000
0010
0100
0001
0100
,  // measure 28
0000
0010
1000
0010
1000
0001
0200
0000
,  // measure 29
0300
0001
0010
0100
1000
0100
0010
0001
,  // measure 30
0000
1000
0010
0100
0001
0100
0020
0000
,  // measure 31
0030
0010
1000
0010
1000
0010
0100
0001
,  // measure 32
0000
1000
0100
0010
0001
0010
0200
0000
,  // measure 33
2300
3010
0200
0310
,  // measure 34
0020
0000
0031
0000
0001
0100
0001
0000
,  // measure 35
0002
0013
2000
3100
,  // measure 36
0020
0130
0200
0310
,  // measure 37
0020
0000
0130
0000
0001
1000
0010
0000
,  // measure 38
2000
0000
3100
0000
1000
0010
0100
0000
,  // measure 39
0020
0000
0130
0000
0100
0010
0100
0000
,  // measure 40
0002
0000
0103
0000
1000
0001
0100
0000
,  // measure 41
2000
0000
3010
0000
0010
1000
0100
0000
,  // measure 42
2000
0000
3100
0000
1000
0001
1000
0000
,  // measure 43
0020
0000
0130
0000
0010
0100
0010
0200
,  // measure 44
0000
0000
0000
0300
,  // measure 45
0100
0000
0010
0000
1000
0010
0100
0000
,  // measure 46
0001
0000
0100
0000
0001
0100
0010
0000
,  // measure 47
0100
0000
0010
0000
1000
0010
1000
0000
,  // measure 48
0001
0000
0100
0000
0001
0100
0001
0000
,  // measure 49
0100
0000
0010
0000
0100
0010
0100
0000
,  // measure 50
0010
0000
1000
0000
0001
0010
0100
0000
,  // measure 51
0010
0000
1000
0000
1000
0010
1000
0000
,  // measure 52
0001
0000
0100
0000
0001
0100
0010
0000
,  // measure 53
0100
0000
0010
0000
1000
0001
0010
0000
,  // measure 54
0001
0000
0100
0000
0001
1000
0010
0000
,  // measure 55
1000
0000
0010
0000
0100
0010
1000
0000
,  // measure 56
0001
0000
0100
0000
0010
0100
0001
0000
,  // measure 57
0100
0000
0010
0000
1000
0010
0001
0000
,  // measure 58
0001
0000
0100
0000
0001
0010
1000
0000
,  // measure 59
0010
0000
1000
0000
1000
0100
0001
0000
,  // measure 60
0020
0230
0302
2003
,  // measure 61
3010
0000
0100
0000
0001
0100
0010
0000
,  // measure 62
1000
0000
0010
0000
1000
0010
0100
0000
,  // measure 63
0010
0000
0100
0000
0001
0100
0001
0000
,  // measure 64
1000
0000
0010
0000
1000
0010
1000
0000
,  // measure 65
0010
0000
0100
0000
0010
0100
0010
0000
,  // measure 66
0100
0000
0001
0000
1000
0100
0010
0000
,  // measure 67
0100
0000
0001
0000
0001
0100
0001
0000
,  // measure 68
1000
0000
0010
0000
1000
0010
0100
0000
,  // measure 69
0000
0100
0000
0010
,  // measure 70
0000
1000
0000
0001
;
