#TITLE:DM;
#SUBTITLE:;
#ARTIST:fromis_9;
#TITLETRANSLIT:;
#SUBTITLETRANSLIT:;
#ARTISTTRANSLIT:;
#CREDIT:;
#BANNER:DM.png;
#BACKGROUND:DM-bg.png;
#LYRICSPATH:;
#CDTITLE:;
#MUSIC:DM.mp3;
#OFFSET:-0.580;
#SAMPLESTART:55.140;
#SAMPLELENGTH:15.000;
#SELECTABLE:YES;
#BPMS:0.000=122.000;
#STOPS:;
#BGCHANGES:;

//---------------dance-single - ----------------
#NOTES:
     dance-single:
     :
     Hard:
     13:
     0.465,0.493,0.170,0.247,0.332: // measure 1
0000
0100
0000
0100
,  // measure 2
0000
0010
0000
0010
,  // measure 3
0000
1000
0000
1000
,  // measure 4
1000
0010
1000
0000
0001
0100
0001
0000
0100
0000
0010
0000
0100
0000
0010
0000
,  // measure 5
0020
0000
0200
0330
0000
1000
0010
1000
,  // measure 6
0000
0000
0001
0000
0000
0000
0000
0000
0100
0000
0001
0000
1000
0000
0010
1000
,  // measure 7
0010
0000
0100
0010
0000
0010
0100
0000
0001
0000
0000
0000
0000
0000
1000
0001
,  // measure 8
0100
0000
0000
0000
0000
0000
0100
0000
0000
0001
0000
0000
0000
0000
0000
0001
0000
0000
1000
0000
0000
0000
0000
0000
0000
0000
0000
0000
0000
0000
0000
0000
0000
0000
0000
0000
0001
0000
0000
0000
0010
0000
0000
0000
0100
0000
0000
0000
,  // measure 9
1000
0000
1000
0000
0010
0000
0100
0010
,  // measure 10
0000
0110
0000
0001
0100
1000
0100
0001
,  // measure 11
0000
0101
0000
0100
0000
1001
0000
0010
,  // measure 12
0000
0000
0200
0000
0000
0020
0000
0000
0330
0000
0000
0000
1001
0000
0000
0000
,  // measure 13
0000
1000
0010
0100
0010
0100
0001
0100
,  // measure 14
0020
0030
2000
3000
,  // measure 15
1000
0000
0000
0010
0000
0000
1000
0000
0000
0000
0100
0000
0010
0000
0000
0000
,  // measure 16
0010
0000
0000
0010
0000
0000
0010
0000
0000
0000
0100
0000
0010
0000
0000
0000
,  // measure 17
0000
0001
0010
0100
1000
0001
1000
0010
,  // measure 18
2000
3000
0002
0003
,  // measure 19
0101
0000
0000
0000
0000
0000
0001
0100
0001
0000
1000
0000
0010
0000
0010
0000
,  // measure 20
0000
0110
0000
0000
0100
0000
1001
0000
,  // measure 21
2000
0000
3020
0000
1030
0000
0010
1000
,  // measure 22
0000
0000
0000
1000
0000
0000
0010
0000
1000
0000
0001
0000
1000
0000
0000
0000
0000
0000
0001
0000
0000
0000
0000
0000
,  // measure 23
0100
0000
0000
0100
0001
1000
0010
0000
0000
0100
0000
0000
,  // measure 24
0010
0000
0000
0010
0000
0000
0010
0000
0000
0000
0000
0000
0110
0000
0000
0000
,  // measure 25
0001
0000
0000
0100
0001
0000
0000
1000
0010
0000
0000
0010
1000
0000
0000
1000
,  // measure 26
0010
0000
0000
0010
0100
0000
0000
0100
0001
0000
0000
0000
0001
0000
2000
0000
,  // measure 27
0000
3002
0023
0230
0300
1000
0010
0200
,  // measure 28
0002
0000
0000
0000
0000
0000
0300
0000
0103
0001
1000
0000
0010
0000
1000
0000
,  // measure 29
0001
0000
0201
0000
0000
0001
0300
0000
0001
0000
0000
0000
0100
0000
0010
0000
,  // measure 30
0100
0000
0000
0000
1000
0000
0000
0000
0010
0000
0000
0000
0100
0000
0000
0110
,  // measure 31
0000
0000
0000
0000
2000
0000
0002
0000
0000
3003
0000
0000
1000
0010
0100
0000
,  // measure 32
0010
0000
0000
0000
1000
0000
0000
0000
0010
0000
0000
0000
0100
0000
0000
0101
,  // measure 33
0000
0000
0100
0000
0100
0000
0000
0000
0001
0100
0001
1000
0010
0000
0010
1000
,  // measure 34
0000
0000
0010
0000
0010
0000
0000
0000
0100
0010
1000
0010
0100
0000
0100
0001
,  // measure 35
0000
0000
0001
0000
0000
1000
0000
0000
0010
0000
0000
0000
0100
0010
0100
0000
,  // measure 36
0010
0000
0000
0000
1000
0000
0000
0000
0010
1000
0010
0000
0100
0000
0001
0000
,  // measure 37
1000
0000
1002
0000
0000
1000
0003
0000
0100
0000
0000
0000
0010
0000
0100
0000
,  // measure 38
0010
0000
0000
0000
1000
0000
0000
0000
0010
0000
0000
0000
0100
0000
0000
0101
,  // measure 39
0000
0000
0000
0000
0100
0000
0001
0000
0010
0000
0000
0001
0000
0000
0001
0000
,  // measure 40
1000
1010
0010
0101
,  // measure 41
0001
1000
0010
1000
0000
0000
0000
0000
0010
1000
0001
0100
0001
0000
0001
0100
,  // measure 42
0000
0000
0010
0000
0010
0000
0000
0000
1000
0010
1000
0010
0100
0000
0010
0200
,  // measure 43
0000
0000
0000
0000
0000
0000
0002
0000
0000
0000
0300
0000
0103
0001
0100
0000
,  // measure 44
0010
0000
0000
0000
0100
0010
1000
0000
0010
0000
0000
0000
0100
0000
0000
0110
,  // measure 45
0000
0000
0000
0000
0000
0000
0000
0000
0010
0000
0000
0000
0000
0000
1000
0010
,  // measure 46
1000
0000
0010
1000
0010
0000
0100
0010
0100
0000
0001
0000
0100
0000
0000
0000
,  // measure 47
0010
0000
0000
0100
0000
0000
0000
0000
0001
0000
0000
0000
0000
0000
0001
1000
,  // measure 48
0010
0000
0010
1000
0001
0000
0100
0010
0100
0000
0010
0000
0010
0000
0000
0000
,  // measure 49
0000
0000
1000
0001
0100
0001
1000
0000
0100
0000
0000
0010
0000
0000
0000
0000
,  // measure 50
0000
0000
0001
1000
0010
1000
0001
0000
1000
0000
0000
0010
0000
0000
0200
0000
,  // measure 51
0000
0000
0020
0000
0000
0330
0000
0001
,  // measure 52
0010
0000
0100
0000
1000
0000
0100
0000
0010
0000
0000
0001
0000
0000
2002
0000
,  // measure 53
0000
0000
0000
0000
0000
0000
0000
3003
,  // measure 54
1000
0000
0010
0000
0000
1000
0000
0000
0010
0000
0000
0000
0000
0000
0100
0000
,  // measure 55
0000
0000
0010
0000
0000
0010
0000
0000
0002
0000
2000
0000
0000
0000
3003
0000
,  // measure 56
0110
0000
0000
0000
0002
0000
2000
0000
0000
3003
0000
0000
0001
0100
0010
0000
,  // measure 57
0100
0000
0000
0000
0001
0000
0000
0000
0100
0000
0000
0000
0010
0000
0000
1010
,  // measure 58
0000
0000
0010
0000
0010
0000
0000
0000
1000
0010
1000
0001
0100
0000
0100
0001
,  // measure 59
0000
0000
0100
0000
0100
0000
0000
0000
0010
0100
0001
0100
0010
0000
0010
1000
,  // measure 60
0000
0000
1000
0000
0000
0001
0000
0000
0100
0000
0000
0000
0010
0100
0010
0000
,  // measure 61
0100
0000
0000
0000
0001
0000
0000
0000
0100
0001
0100
0000
0010
0000
1000
0000
,  // measure 62
0001
0000
2001
0000
0000
0001
3000
0000
0010
0000
0000
0000
0100
0000
0010
0000
,  // measure 63
0100
0000
0000
0000
0001
0000
0000
0000
0100
0000
0000
0000
0010
0000
0000
1010
,  // measure 64
0000
0000
0000
0000
0010
0000
1000
0000
0100
0000
0000
1000
0000
0000
1000
0000
,  // measure 65
0001
0101
0100
1010
,  // measure 66
1000
0001
0100
0001
0000
0000
0000
0000
0100
0001
1000
0010
1000
0000
1000
0010
,  // measure 67
0000
0000
0100
0000
0100
0000
0000
0000
0001
0100
0001
0100
0010
0000
0100
0020
,  // measure 68
0000
0000
0000
0000
0000
0000
2000
0000
0000
0000
0030
0000
3010
1000
0010
0000
,  // measure 69
0100
0000
0000
0000
0010
0100
0001
0000
0100
0000
0000
0000
0010
0000
0000
0220
,  // measure 70
0000
0000
0000
0330
;

//---------------dance-single - ----------------
#NOTES:
     dance-single:
     :
     Medium:
     7:
     0.318,0.542,0.184,0.254,0.028:
0000
0000
0000
0000
,
0000
0000
0000
0000
,
0000
0000
0000
0000
,
0000
0000
0000
0000
,
1000
1000
0100
0000
,
0001
0001
0010
0000
,
0100
0010
0100
0000
0010
0000
0000
0000
,
0001
1000
0010
0000
1000
0000
0000
0000
,
0001
0100
0010
0000
,
1000
0010
0100
0000
,
0010
0100
0010
0000
0100
0000
0000
0000
,
0100
0001
1000
0000
0010
0000
0101
0000
,
0001
0100
0010
0000
0010
0100
0001
0000
,
0101
0010
0101
0010
,
0100
0010
1000
0000
0010
0000
0100
0000
,
0010
0100
0001
0000
1000
0000
0001
0000
,
1000
0010
0100
0000
0100
0010
1000
0000
,
1010
0100
1010
0100
,
0020
0000
0000
0000
1030
0100
0010
0001
,
0000
0001
0000
0000
0101
0000
1010
0000
,
2000
3200
0320
0030
,
0002
0023
0130
0000
,
0020
0230
1300
0000
,
1000
0000
0000
0010
0000
0000
1000
0000
0000
0000
0000
0000
1001
0000
0000
0000
,
0010
0010
0100
0100
,
0001
0000
0001
0000
1000
0000
1000
0002
,
0000
0000
0000
0000
0003
0001
0000
1000
,
2002
0000
0000
0000
3003
0000
1000
0100
,
0010
0001
0000
0000
0100
0000
0010
0000
,
1000
0000
0000
0000
0010
0000
0000
0000
0100
0000
0000
0000
0001
0000
0000
1001
,
0000
0100
0010
1000
,
0010
0000
0000
0000
0001
0000
0000
0000
0010
0000
0000
0000
1000
0000
0000
0110
,
0000
0000
0100
0000
0010
1000
0010
0000
,
0000
0100
0001
0000
0001
0100
0001
0000
,
0001
1000
0010
0100
,
0010
0000
0100
0000
0100
0000
0001
0010
,
0100
1000
0000
0000
1000
0000
0001
0000
,
0100
0000
0000
0000
0010
0000
0000
0000
1000
0000
0000
0000
0010
0000
0000
1010
,
0000
1000
0010
0100
,
0001
0100
0010
1001
,
0010
0000
0100
0000
0001
1000
0001
0000
,
0000
0010
0100
0000
0010
1000
0010
0000
,
2000
0000
0000
0002
0000
0000
3003
0000
,
1000
0100
0010
0001
,
0202
0000
0303
0000
,
2020
0000
3030
0000
,
0220
0000
0330
0000
,
2002
0000
3003
0000
,
1000
1000
0001
0001
,
0100
0100
0010
0010
,
1000
0100
0010
0001
0010
0100
1000
0001
,
0202
0303
0220
0330
2020
3030
0000
0000
,
2002
0000
3003
0000
,
0100
0000
0010
0000
0000
0100
0000
0000
0010
0000
0000
0000
0000
0000
0100
0000
,
0000
0000
0001
0000
0000
1000
0000
0000
0002
0000
0000
0000
0000
0000
0000
0000
,
0103
0010
0100
0001
,
0100
0000
0000
0000
1000
0000
0000
0000
0100
0000
0000
0000
0001
0000
0000
0110
,
0000
0000
0010
0000
0100
0001
0100
0000
,
0000
0010
1000
0000
1000
0010
1000
0000
,
1000
0001
0100
0010
,
0100
0000
0010
0000
0010
0000
1000
0100
,
0010
0001
0000
0000
0001
0000
1000
0000
,
0010
0000
0000
0000
0100
0000
0000
0000
0001
0000
0000
0000
0100
0000
0000
0101
,
0000
0001
0100
0010
,
1000
0010
0100
1001
,
0220
0330
0010
0000
1000
0001
1000
0000
,
0000
0100
0010
0000
0100
0001
0100
0000
,
0002
0000
0000
2000
0000
0000
3003
0000
,
0001
0010
0100
1000
,
2020
0000
0000
3030
;

//---------------dance-single - ----------------
#NOTES:
     dance-single:
     :
     Easy:
     4:
     0.222,0.271,0.155,0.177,0.000:
0000
0001
0000
0001
,
0000
1000
0000
1000
,
0000
0010
0000
1000
,
0000
0010
0000
1000
,
0000
0100
0100
0001
,
0000
0001
1000
0001
,
0000
0100
0100
0010
,
0000
1000
0100
1000
,
0000
0001
0100
0001
,
0000
0100
0010
0100
,
0000
0010
0100
0100
,
0000
0001
1000
1001
,
0000
0001
0100
0100
,
0000
0010
0000
1000
,
0000
1000
1000
0100
,
0000
0010
0000
0001
,
0000
0100
0001
0100
,
0000
0010
0000
0010
,
0000
0100
0010
0100
,
0000
0010
0000
1010
,
2000
0000
3010
0000
,
0002
0000
0103
0000
,
0020
0000
0130
0000
,
2000
0000
3010
0000
,
1000
1000
1000
0000
,
0001
0100
0001
0000
,
0100
0010
0100
0000
,
0220
0000
0330
0000
,
0210
0000
0300
0000
,
0010
1000
0010
1000
,
1001
0000
0100
0000
,
0001
0100
0010
0100
,
0101
0000
0010
0100
,
0010
0000
1000
0010
,
2000
0000
3000
0000
,
0001
1000
0001
0000
,
1002
0000
0003
0000
,
0010
1000
0001
1000
,
1010
0000
0100
0000
,
0010
0100
0010
0100
,
0110
0000
0010
1000
,
0010
0000
0100
0001
,
0200
0000
0300
0000
,
0100
0000
0010
0000
,
2020
0000
3030
0000
,
2002
0000
3003
0000
,
0202
0000
0303
0000
,
0022
0000
0033
0000
,
0001
0100
0001
0100
,
0010
1000
0010
1000
,
0001
1000
0001
1000
,
1001
0110
1001
0000
,
2000
0000
0000
0000
,
3020
0000
0000
0030
,
0100
0010
0100
0000
,
0110
0000
0010
0000
,
1000
0010
0100
0010
,
1010
0000
0100
0010
,
0100
0000
0001
0100
,
0002
0000
0003
0000
,
1000
0001
1000
0000
,
2001
0000
3000
0000
,
0100
0001
1000
0001
,
0101
0000
0010
0000
,
0100
0010
0100
0010
,
0110
0000
0100
0001
,
0100
0000
0010
1000
,
0020
0000
0030
0000
,
0010
0000
0100
0001
,
2002
0000
0000
3003
;

//---------------dance-single - ----------------
#NOTES:
     dance-single:
     :
     Beginner:
     2:
     0.219,0.320,0.170,0.233,0.000:
0000
0100
0000
0100
,
0000
0010
0000
0010
,
0000
0100
0000
0100
,
0000
0001
1000
0001
,
0000
0100
0000
0010
,
0000
1000
0000
1000
,
0000
0010
0000
0100
,
0000
0010
0000
1000
,
0000
0001
0000
0001
,
0000
0100
0000
0001
,
0000
0100
0000
0001
,
0000
1000
0000
0110
,
0000
0100
0000
0100
,
0000
0100
0100
0100
,
0000
0010
0000
1000
,
0000
1000
1000
1000
,
0000
0001
0000
0100
,
0000
0001
0001
0001
,
0000
0200
0000
0300
,
0000
0010
0010
0010
,
0000
0000
1001
0000
,
0000
0000
1010
0000
,
0000
0000
0101
0000
,
0000
0000
0110
0000
,
1000
0001
1000
0000
,
0001
1000
0001
0000
,
0100
0010
0100
0000
,
0220
0000
0330
0000
,
2000
3000
1000
0000
,
0001
0100
0001
0000
,
1000
0010
1000
0000
,
0100
0010
0100
0000
,
0010
0100
0010
0000
,
0220
0330
2002
3003
,
1000
0001
1000
0000
,
0101
1010
0101
0000
,
0020
0030
0010
0000
,
0100
0100
0100
0000
,
0001
1000
0001
0000
,
1000
0010
1000
0000
,
0010
0001
0010
0000
,
2002
3003
0220
0330
,
2002
0000
3003
0000
,
0001
0001
0001
0000
,
0200
0000
0300
0000
,
0020
0000
0030
0000
,
2000
0000
3000
0000
,
0002
0000
0003
0000
,
0001
0001
0001
0000
,
1000
1000
1000
0000
,
0010
0010
0010
0000
,
0100
0100
0100
0000
,
2002
0000
0000
3003
,
1001
0000
0010
0000
,
0100
0100
0100
0000
,
1000
0001
1000
0000
,
0010
0100
0010
0000
,
0100
0010
0100
0000
,
0220
0330
2002
3003
,
0001
1000
0001
0000
,
1010
0101
1010
0000
,
0200
0300
0100
0000
,
0010
0010
0010
0000
,
1000
0001
1000
0000
,
0001
0100
0001
0000
,
0100
1000
0100
0000
,
2002
3003
0220
0330
,
2002
0000
3003
0000
,
1000
1000
1000
0000
,
0020
0000
0000
0030
;
