#TITLE:DED;
#SUBTITLE:;
#ARTIST:Pixxie;
#TITLETRANSLIT:;
#SUBTITLETRANSLIT:;
#ARTISTTRANSLIT:;
#CREDIT:;
#BANNER:DED.png;
#BACKGROUND:DED-bg.png;
#LYRICSPATH:;
#CDTITLE:;
#MUSIC:DED.mp3;
#OFFSET:1.740;
#SAMPLESTART:100.460;
#SAMPLELENGTH:15.000;
#SELECTABLE:YES;
#BPMS:0.000=115.000;
#STOPS:;
#BGCHANGES:;

//---------------dance-single - ----------------
#NOTES:
     dance-single:
     :
     Beginner:
     2:
     0.162,0.213,0.051,0.014,0.000:
0000
0000
0000
0000
,
0000
0000
0000
0000
,
0000
0000
0000
0000
,
0000
0000
0000
0000
,
0000
0000
0000
0000
,
0000
0100
0000
0100
,
0000
0001
0000
0001
,
0000
1000
0000
1000
,
0001
1000
0001
0000
,
0000
1000
0000
0100
,
0000
0010
0000
0001
,
0000
0010
0000
0100
,
0000
1000
0000
1000
,
0000
0010
0000
0100
,
0000
0001
0000
0001
,
0000
0100
0000
0010
,
0000
1000
0000
0001
,
0000
1000
0010
1000
,
0000
0001
0100
0001
,
0000
0010
0100
0010
,
0000
1000
0001
1000
,
1001
0000
0001
0000
,
0010
0000
0100
0000
,
1000
0000
0001
0000
,
0100
0000
0001
0000
,
0101
0000
0010
0000
,
0100
0000
1000
0000
,
0010
0000
0100
0000
,
1000
0000
0001
0000
,
0100
0001
0100
0000
,
0010
1000
0001
0000
,
0100
0010
0100
0000
,
1000
0001
0100
0000
,
0010
0010
0010
0000
,
1000
0001
1000
0000
,
0001
0100
1000
0000
,
1000
0010
0001
0000
,
0001
0000
0001
0000
,
1000
0000
1000
0000
,
0110
0010
0100
0010
,
1001
0000
0001
0000
,
0100
0000
0010
0000
,
1000
0000
0001
0000
,
1000
0000
1000
0000
,
0010
0000
0100
0000
,
0010
0000
1000
0000
,
0100
0000
0010
0000
,
1000
0100
0010
0001
,
0001
0010
0100
1000
,
1001
0000
1000
0000
,
0100
0000
0010
0000
,
0001
0000
1000
0000
,
0010
0000
1000
0000
,
1010
0000
0100
0000
,
0010
0000
0001
0000
,
0100
0000
0010
0000
,
0001
0000
1000
0000
,
0010
1000
0010
0000
,
0100
0001
1000
0000
,
0010
0100
0010
0000
,
0001
1000
0010
0000
,
0100
0100
0100
0000
,
0001
1000
0001
0000
,
1000
0010
0001
0000
,
0001
0100
1000
0000
,
2002
0000
3003
0000
;

//---------------dance-single - ----------------
#NOTES:
     dance-single:
     :
     Easy:
     5:
     0.234,0.284,0.108,0.123,0.000:
0000
0000
0000
0000
,
1000
0000
0010
0000
,
1000
0000
0000
0000
,
0001
0000
0100
0000
,
0001
0000
0000
0000
,
0010
0010
1000
0010
,
1000
0001
0100
0001
,
0001
0010
0100
1000
,
0001
1000
2002
3003
,
0010
0010
0100
0001
,
1000
0010
0100
1000
,
1000
0010
1000
0001
,
0200
0302
2003
3010
,
0000
1000
0000
0001
,
0000
0100
0000
0010
,
0000
0100
0000
1000
,
0000
0001
0000
1000
,
0100
1000
0001
0100
,
1000
0001
0001
0100
,
1000
0001
0100
1000
,
0010
1000
0100
0010
,
1001
0000
1010
0000
,
0101
0000
0001
0100
,
0001
1000
0010
1000
,
0010
0001
0100
1000
,
1010
0000
0110
0000
,
0101
0100
0001
0001
,
0100
0010
1000
0001
,
0100
0001
1000
0000
,
0001
0000
1000
0000
,
0001
0000
0100
0000
,
0010
0000
1000
0000
,
0001
0000
0100
0000
,
0001
0100
0001
1000
,
0010
1000
0100
1000
,
0001
0100
0001
0101
,
0001
0100
0001
1000
,
0010
1000
0000
0010
,
0000
0100
0000
0001
,
0000
0100
0000
0001
,
0000
0001
0000
1000
,
0001
0001
0100
0000
,
0010
1000
0100
0000
,
0010
0100
0010
0000
,
0001
1000
0010
0000
,
2000
0000
3000
0000
,
0020
0000
0030
0000
,
0100
0010
0100
0010
,
0100
1000
0001
0010
,
1001
0000
0101
0000
,
1010
0000
1000
0010
,
1000
0001
0100
0001
,
0100
1000
0010
0001
,
0101
0000
0110
0000
,
1010
0010
1000
1000
,
0010
0100
0001
1000
,
0010
1000
0001
0000
,
2000
3200
0320
0032
,
1003
0000
0010
1000
,
0100
0000
0001
0001
,
1000
0000
0010
0001
,
2000
3020
2030
3002
,
0103
0000
0010
0001
,
1000
0000
1000
0010
,
1000
0000
0001
1000
,
2002
0000
3003
0000
;

//---------------dance-single - ----------------
#NOTES:
     dance-single:
     :
     Medium:
     9:
     0.331,0.446,0.087,0.130,0.098:
0000
0000
0000
0000
,
0001
0000
0000
0010
0000
0000
0001
0000
1000
0000
0000
0000
0010
0000
0000
0000
,
0000
0100
0000
0010
,
1000
0000
0000
0010
0000
0000
0100
0000
0001
0000
0000
0000
0001
0000
0000
0000
,
0010
0010
0010
0010
,
1000
0001
0000
0001
1000
0000
1010
0000
,
1000
0001
0100
0001
,
1000
1000
0000
0100
0100
0000
1000
0010
,
0001
0100
0110
0000
,
1000
0010
0000
0100
0001
0000
0002
0000
,
0103
0001
0100
1000
0100
0000
0001
0000
,
0001
0010
0100
1000
0001
0000
0010
0000
,
0200
2300
3002
2003
,
3001
0001
0000
0010
,
0000
0100
0000
0010
,
0000
1000
0000
1000
,
0000
0001
0000
1000
,
1000
0000
0000
0100
0000
0000
1000
0000
0000
0001
0000
0000
0100
0000
0001
0000
,
0010
0000
0000
0001
0000
0000
1000
0000
0000
0010
0000
0000
1000
0000
0001
0000
,
0100
0000
0000
0010
0000
0000
0100
0000
0000
0001
0000
0000
1000
0000
0001
0000
,
1000
0100
0010
0001
0010
0100
1000
0000
,
1001
0000
0000
1000
0000
0000
1000
0000
0010
0000
0000
1000
0000
0000
0001
0000
,
0000
0000
0001
0000
0001
0100
0010
0100
,
0001
0000
1000
0000
1000
0010
0100
0010
,
1000
0000
0010
0000
0010
0100
0010
0100
,
0110
0000
0000
0001
0000
0000
0100
0000
0010
0000
0000
1000
0000
0000
0100
0000
,
0000
0000
1000
0000
1000
0100
0010
0001
,
0100
0000
0010
0000
0010
0100
1000
0100
,
1000
0001
1000
0001
,
0000
0100
0000
1000
,
0000
0001
0000
0100
,
0000
0010
1000
0010
,
0000
0100
0001
0010
,
0000
1000
0010
0001
,
0000
1000
0010
0001
,
0000
0001
0100
1000
,
0000
0001
0100
1000
,
0000
0010
0000
0100
,
0000
0010
0000
0100
,
2000
3100
0200
0310
0020
0031
0000
1001
,
0000
0001
0000
1000
,
0001
1000
0010
0000
,
0100
0001
1000
0000
,
0001
0100
0001
0000
,
1000
0010
0100
0000
,
0001
0000
0000
0010
0000
0000
0001
0000
0000
1000
0000
0000
0010
0000
1000
0000
,
0100
0000
0000
1000
0000
0000
0001
0000
0000
0100
0000
0000
0001
0000
1000
0000
,
0010
0000
0000
0100
0000
0000
0010
0000
0000
1000
0000
0000
0001
0000
1000
0000
,
0001
0010
0100
1000
0100
0010
0001
0000
,
1001
0000
0000
0001
0000
0000
0001
0000
0100
0000
0000
0001
0000
0000
1000
0000
,
0000
0000
1000
0000
1000
0010
0100
0010
,
1000
0000
0001
0000
0001
0100
0010
0100
,
0001
0000
0100
0000
0100
0010
0100
0010
,
0110
0000
0000
1000
0000
0000
0010
0000
0100
0000
0000
0001
0000
0000
0010
0000
,
0000
0000
0001
0000
0001
0010
0100
1000
,
0010
0000
0100
0000
0100
0010
0001
0010
,
0001
1000
1000
0010
,
2000
0000
0000
0010
3000
0000
0020
0000
0130
0000
0000
0002
0000
0000
0103
0000
,
0000
0000
0010
0000
0001
0100
0001
0100
,
0001
0000
0100
0000
1000
0010
1000
0010
,
1000
0000
0000
1001
0000
0000
0110
0000
0000
0000
0000
0000
0000
0000
0000
0000
,
0002
0000
2003
0000
3020
0000
0230
0000
0302
0000
0000
0203
0000
0000
0320
0000
,
0030
0000
1000
0000
1000
0010
0001
0010
,
1000
0000
0001
0000
0001
0100
1000
0100
,
0001
0000
0000
0110
0000
0000
1001
0000
0000
0000
0000
0000
0000
0000
0000
0000
,
0110
0000
0000
0000
;

//---------------dance-single - ----------------
#NOTES:
     dance-single:
     :
     Hard:
     12:
     0.459,0.543,0.123,0.116,0.249: // measure 1
0000
0000
0000
0000
,  // measure 2
0001
0000
0000
0100
0000
0000
0001
0000
1000
0000
0000
0000
0010
0000
0000
0000
,  // measure 3
1000
0001
0000
0001
,  // measure 4
1000
0000
0000
1000
0000
0000
0010
0000
1000
0000
0000
0000
0001
0000
0000
0000
,  // measure 5
1000
1000
0000
0010
,  // measure 6
1000
0100
0000
0010
0100
0000
1000
0000
,  // measure 7
1000
0010
0001
0010
1000
0000
0001
0000
,  // measure 8
0001
0100
0000
0100
0010
0000
0010
1000
,  // measure 9
0002
0013
2000
3010
,  // measure 10
0100
0100
0000
0001
0010
0000
1000
0000
,  // measure 11
1000
0100
0010
0001
0100
0000
0001
0000
,  // measure 12
0100
0010
0100
0010
1000
0000
0001
0000
,  // measure 13
0100
0000
0000
0000
0001
0000
0000
0000
1000
0000
0000
0000
1000
0001
0010
0001
,  // measure 14
1000
0000
0000
0010
0000
0000
1000
0000
0001
0000
0000
0000
0010
0100
0010
0100
,  // measure 15
0010
0000
0000
1000
0000
0000
0001
0000
0100
0000
0000
0000
0010
0001
0010
0001
,  // measure 16
0100
0000
0000
0010
0000
0000
1000
0000
1000
0000
0000
0000
1000
0010
0100
0010
,  // measure 17
1000
0000
0000
0001
0000
0000
0100
0000
0100
0000
0000
0000
0001
0010
0100
1000
,  // measure 18
0001
0000
0000
0010
0000
0000
1000
0000
0001
0000
0000
0000
1000
0100
0010
0001
,  // measure 19
1000
0000
0000
0010
0000
0000
0100
0000
0010
0000
0000
0000
1000
0000
0010
0000
,  // measure 20
0100
0001
0010
0001
1000
0010
1000
0001
,  // measure 21
0100
0010
0010
0001
0100
1000
1000
0010
,  // measure 22
1001
0000
0000
1000
0000
0000
0010
0000
1010
0000
0000
0010
0000
0000
0101
0000
,  // measure 23
0000
0010
0100
0001
1000
0001
1000
0010
,  // measure 24
1000
0000
0000
0010
0000
0000
1000
0000
0000
0000
0001
0000
0100
0000
0010
0000
,  // measure 25
0100
0000
0000
0010
0000
0000
1000
0000
0000
0000
0001
0000
0010
0000
0100
0000
,  // measure 26
1010
0000
0000
1000
0000
0000
0010
0000
1001
0000
0000
0001
0000
0000
0101
0000
,  // measure 27
0000
0100
0010
1000
0010
0001
0010
1000
,  // measure 28
0010
0000
0000
0001
0000
0000
0010
0000
0000
0000
0001
0000
0100
0000
1000
0000
,  // measure 29
0100
0000
0000
0001
0000
0000
0100
0000
0000
0000
0000
0000
0000
0010
0100
0001
,  // measure 30
1000
0000
0010
0000
0100
0010
1000
0001
0100
0000
0001
0000
1000
0000
0000
0000
,  // measure 31
1000
0000
0010
0000
0100
0000
0001
0000
0000
1000
0000
0000
0001
0000
0000
1000
0000
0000
0100
0000
0000
0011
0000
0000
,  // measure 32
0000
1000
0001
0100
0001
1000
1010
0000
,  // measure 33
0010
1000
0001
0100
0001
1000
1001
0000
,  // measure 34
0001
0000
0000
0000
0100
0000
0000
0001
0000
0000
0010
0000
0001
0000
0000
0000
,  // measure 35
1000
0000
0000
0000
0001
0000
0000
0100
0000
0000
0010
0000
1000
0000
0000
0000
,  // measure 36
0001
0000
0000
0000
0001
0000
0000
0010
0000
0000
0100
0000
1000
0000
0000
0000
,  // measure 37
1000
0000
0000
0000
0010
0000
0000
1000
0000
0000
0001
0000
0100
0000
0001
0000
,  // measure 38
0010
0000
0001
0000
1000
0100
1000
0010
1000
0001
1000
0000
0000
0000
0010
0000
,  // measure 39
0100
0000
0010
0000
0100
0010
1000
0010
0100
0001
0100
0000
0000
0000
0002
0000
,  // measure 40
0013
0000
2000
0000
3100
0000
0020
0000
0130
0010
0200
0000
0300
0000
1001
0000
,  // measure 41
0000
0000
1000
0010
0100
0000
0010
0100
0001
0000
0100
0000
0000
0000
0001
1000
,  // measure 42
0010
0000
0100
0000
0001
0000
1000
0010
0100
0000
0001
0000
0000
0000
0100
0001
,  // measure 43
0010
0000
0001
0000
1000
0000
0100
0001
0010
0000
1000
0000
0000
0000
0100
0010
,  // measure 44
0100
0000
0010
0100
0010
0000
1000
0000
0001
0000
1000
0000
0000
0000
0000
0000
,  // measure 45
0001
1000
0010
1000
,  // measure 46
0001
0000
0000
0100
0000
0000
0001
0000
1000
0000
0000
0000
0001
0000
0100
0000
,  // measure 47
0001
0000
0000
0100
0000
0000
0010
0000
0100
0000
0000
0000
0001
0000
0100
0000
,  // measure 48
0010
1000
0100
1000
0001
0100
0001
1000
,  // measure 49
0010
0100
0100
1000
0010
0001
0001
0100
,  // measure 50
1001
0000
0000
0001
0000
0000
0100
0000
0101
0000
0000
0100
0000
0000
1010
0000
,  // measure 51
0000
0100
0010
1000
0001
1000
0001
0100
,  // measure 52
0001
0000
0000
0100
0000
0000
0001
0000
0000
0000
1000
0000
0010
0000
0100
0000
,  // measure 53
0010
0000
0000
0100
0000
0000
0001
0000
0000
0000
1000
0000
0100
0000
0010
0000
,  // measure 54
0101
0000
0000
0001
0000
0000
0100
0000
1001
0000
0000
1000
0000
0000
1010
0000
,  // measure 55
0000
0010
0100
0001
0100
1000
0100
0001
,  // measure 56
0100
0000
0000
1000
0000
0000
0100
0000
0000
0000
1000
0000
0010
0000
0001
0000
,  // measure 57
0010
0000
0000
1000
0000
0000
0010
0000
0000
0000
0000
0000
0000
0100
0010
1000
,  // measure 58
0002
0023
0230
2300
,  // measure 59
3001
0000
1000
0010
0001
0010
1000
0010
,  // measure 60
0001
0000
0000
1000
0000
0000
0010
0000
0000
0000
0001
0000
0100
0000
1000
0000
,  // measure 61
0100
0000
0000
0001
0000
0000
0100
0000
0000
0000
0000
0000
0000
0000
0000
0000
,  // measure 62
2000
3200
0320
0032
,  // measure 63
1003
0000
0001
0100
1000
0100
0001
0100
,  // measure 64
1000
0000
0000
0001
0000
0000
0100
0000
0000
0000
1000
0000
0010
0000
0001
0000
,  // measure 65
0010
0000
0000
1000
0000
0000
0010
0000
0000
0000
0100
0000
0010
0000
0000
0000
,  // measure 66
0220
0000
0000
0330
0000
0000
0000
0000
;
