#TITLE:DDU-DU DDU-DU;
#SUBTITLE:;
#ARTIST:BLACKPINK;
#TITLETRANSLIT:;
#SUBTITLETRANSLIT:;
#ARTISTTRANSLIT:;
#CREDIT:;
#BANNER:DDU-DU DDU-DU.png;
#BACKGROUND:DDU-DU DDU-DU-bg.png;
#LYRICSPATH:;
#CDTITLE:;
#MUSIC:DDU-DU DDU-DU.mp3;
#OFFSET:0.840;
#SAMPLESTART:76.280;
#SAMPLELENGTH:15.000;
#SELECTABLE:YES;
#BPMS:0.000=140.000;
#STOPS:;
#BGCHANGES:1.440=DDU-DU DDU-DU.avi=1.000=0=0=0,
99999=-nosongbg-=1.000=0=0=0 // don't automatically add -songbackground-
;

//---------------dance-single - ----------------
#NOTES:
     dance-single:
     :
     Beginner:
     3:
     0.192,0.319,0.134,0.013,0.000:
0000
0000
0000
0000
,
0000
0000
0000
0000
,
0000
0000
0000
0000
,
0000
0000
0000
0000
,
0000
0000
0000
0000
,
0000
0000
0000
0000
,
1001
0000
0010
0000
,
0100
0000
0001
0000
,
1000
0000
1000
0000
,
0010
0000
0100
0000
,
0110
0000
0010
0000
,
1000
0000
0001
0000
,
0010
0000
0001
0000
,
1000
0000
0100
0000
,
1000
0000
0010
0000
,
1000
0000
0001
0000
,
0100
0000
0001
0000
,
0100
0000
0010
0000
,
1000
0000
0010
0000
,
1000
0000
0100
0000
,
0110
0000
1001
0000
,
0010
0000
1000
0000
,
0010
0010
0010
0000
,
1000
1000
1000
0000
,
0001
0001
0001
0000
,
0100
0100
0100
0000
,
1000
1000
1000
0000
,
0001
0001
0001
0000
,
0010
0010
0010
0000
,
1000
1000
1000
0000
,
1001
0000
0100
0000
,
0010
0000
0100
0000
,
0010
0000
1000
0000
,
0001
0000
0100
0000
,
0001
0000
1000
0000
,
1000
0000
0010
0000
,
0100
0000
0001
0000
,
1000
0000
0010
0000
,
1000
0000
0001
0000
,
1000
0000
0001
0000
,
0100
0000
0010
0000
,
1000
0000
0001
0000
,
0100
0100
0100
0000
,
0001
0001
0001
0000
,
1001
0110
1001
0000
,
0010
0010
0010
0000
,
1001
0000
1000
0000
,
0001
0000
0010
0000
,
0100
0000
0100
0000
,
1000
0000
0001
0000
,
1001
0000
1000
0000
,
0100
0000
0010
0000
,
1000
0000
0010
0000
,
0100
0000
0001
0000
,
0100
0000
0001
0000
,
1000
0000
0010
0000
,
1000
0000
0001
0000
,
0100
0000
0001
0000
,
1000
0000
1000
0000
,
1000
0000
0010
0000
,
0100
0000
0010
0000
,
1001
0000
0110
0000
,
1001
0000
0010
0000
,
0001
0000
0100
0000
,
0010
0000
1000
0000
,
0100
0000
1000
1000
,
1000
0000
0001
0001
,
0001
0000
0100
0100
,
0100
0000
0010
0010
,
0010
0000
0110
1001
,
0110
0000
0010
0000
,
1000
0000
0001
0000
,
0010
0000
0001
0000
,
0100
0000
0010
0000
,
0001
0000
1000
0000
,
0100
0000
0010
0000
,
1000
0000
0010
0000
,
1000
0000
0001
0000
,
1001
0000
0100
0000
,
0010
0000
1000
0000
,
0010
0000
0100
0000
,
0001
0000
0010
0000
,
0001
0000
1000
0000
,
0010
0000
1000
0000
,
0010
0000
0100
0000
,
0001
0000
0110
1001
,
0220
0000
0000
0000
,
0330
0000
0000
0000
;

//---------------dance-single - ----------------
#NOTES:
     dance-single:
     :
     Easy:
     5:
     0.263,0.407,0.287,0.154,0.000:
0000
0000
0000
0000
,
0000
0000
0000
0000
,
0000
0000
0000
0000
,
0000
0000
0000
0000
,
0000
0000
0000
0000
,
0000
0000
0000
0000
,
0220
0000
0330
0000
,
0010
1000
0001
0000
,
2002
0000
3003
0000
,
1000
0010
0001
0000
,
0202
0000
0303
0000
,
0001
0100
0010
0000
,
2020
0000
3030
0000
,
0100
1000
0010
0000
,
0100
0010
1000
0000
,
0001
0100
0001
0000
,
0010
0100
0010
0000
,
1000
0100
0010
0000
,
0010
0100
0001
0000
,
0001
0010
0100
0000
,
0101
0000
1010
0000
,
1000
0100
1000
0000
,
0010
0100
0001
0000
,
1000
0010
1000
0000
,
0100
0010
0100
0000
,
0001
0010
0100
0000
,
0100
0010
1000
0000
,
1000
0100
0010
0000
,
1000
0010
0001
0000
,
0001
0010
0001
0000
,
0102
0000
0003
0000
,
1000
0000
0010
0000
,
1000
0000
0001
0000
,
0100
0000
0001
0000
,
2010
0000
3000
0000
,
1000
0000
0010
0000
,
0100
0000
0010
0000
,
1000
0000
0001
0000
,
0110
0000
0100
0000
,
1000
0000
0100
0000
,
0010
0000
0001
0000
,
0100
0000
0010
0000
,
0011
0000
0001
0000
,
1000
0000
0010
0000
,
2000
3002
2003
3000
,
0010
0100
1010
0011
,
0220
0000
0330
0000
,
0100
0001
1000
0000
,
2002
0000
3003
0000
,
0001
0100
1000
0000
,
2020
0000
3030
0000
,
1000
0010
0100
0000
,
0202
0000
0303
0000
,
0010
0001
0100
0000
,
0010
0000
0100
0000
,
0001
0000
1000
0000
,
0011
0000
0100
0000
,
1001
0000
0010
0000
,
0100
0000
0010
0000
,
1000
0000
0001
0000
,
1100
0000
0010
0000
,
1001
0000
0100
0000
,
0010
0100
0010
1000
,
0010
0100
0001
0100
,
1000
0100
0001
1000
,
0010
0100
0010
1000
,
0001
0100
0010
1000
,
0001
0100
1000
0100
,
0001
0010
1000
0010
,
0001
0000
0110
1001
,
0110
0000
0010
0000
,
1000
0000
0010
0000
,
1000
0010
0001
0010
,
1000
0100
0001
0100
,
1000
0000
0110
1001
,
0110
0000
0101
1010
,
0101
0000
0011
1100
,
0011
0100
0001
1000
,
0110
0000
0100
0000
,
0001
0000
0100
0000
,
0001
0100
1000
0100
,
0001
0010
1000
0010
,
0001
0000
0110
1001
,
0110
0000
1010
0101
,
1010
0000
1100
0011
,
1100
0010
1000
0001
,
2002
0000
0000
0000
,
3003
0000
0000
0000
;

//---------------dance-single - ----------------
#NOTES:
     dance-single:
     :
     Medium:
     7:
     0.374,0.436,0.300,0.113,0.000:
0000
0000
0000
0000
,
0000
0000
0000
0000
,
0000
0000
0000
0000
,
0000
0000
0000
0000
,
0000
0000
0000
0000
,
0000
0000
0000
0000
,
0010
0100
0010
0100
0010
0000
0000
0000
,
0010
1000
0010
0001
0010
0000
0000
0000
,
1000
0001
1000
0001
1000
0000
0000
0000
,
0001
0010
0100
1000
0010
0000
0000
0000
,
1000
0010
0001
0010
1000
0000
0000
0000
,
0001
1000
0010
0100
0001
0000
0000
0000
,
1000
0010
0100
0010
0001
0000
0000
0000
,
0100
0010
0100
0001
1000
0000
0000
0000
,
0010
0000
1000
0000
,
0010
1000
0001
0000
,
0100
0000
0001
0000
,
0010
0001
1000
0000
,
0010
0000
0010
0000
,
0010
1000
0001
0000
,
0100
0000
0100
0000
,
0100
0001
1000
0000
,
0010
0000
0100
0010
1000
0100
1000
0000
,
0001
0000
0100
0001
0100
0001
1000
0000
,
0010
0000
0001
0010
0100
1000
0010
0000
,
0100
0000
0010
1000
0010
0001
0010
0000
,
0100
0000
0010
0100
0001
0010
0001
0000
,
1000
0000
0010
1000
0010
1000
0001
0000
,
0100
0000
1000
0100
0010
0001
0100
0000
,
0010
0000
0100
0001
0100
1000
0100
0000
,
2002
0000
3003
0000
0001
0100
1000
0000
,
0010
0000
0100
0000
0010
1000
0001
0000
,
0100
0000
0010
0000
1000
0100
0010
0000
,
0100
0000
0010
0000
0010
0100
1000
0000
,
2020
0000
3030
0000
1000
0010
0001
0000
,
0100
0000
0010
0000
0100
0001
1000
0000
,
0010
0000
0100
0000
0001
0010
0100
0000
,
0010
0000
0100
0000
0100
0010
0001
0000
,
0101
0000
0110
0000
,
1010
0000
1001
0000
,
0110
0000
0011
0000
,
0101
0000
1100
0000
,
1001
0000
0000
0010
1000
0000
0000
1000
,
0010
0000
0000
0100
0001
0000
0000
0001
,
2000
3002
2003
3010
,
0010
0100
0010
0100
0001
0000
1000
0000
,
0100
0010
0100
0010
0100
0000
0000
0000
,
0100
0001
0100
1000
0100
0000
0000
0000
,
0001
1000
0001
1000
0001
0000
0000
0000
,
1000
0100
0010
0001
0100
0000
0000
0000
,
0001
0100
1000
0100
0001
0000
0000
0000
,
1000
0001
0100
0010
1000
0000
0000
0000
,
0001
0100
0010
0100
1000
0000
0000
0000
,
0010
0100
0010
1000
0001
0000
0000
0000
,
0100
0000
0000
0010
0000
0000
0100
0000
,
0100
0000
0000
0010
0000
0000
1000
0000
,
0001
0000
0000
1000
0000
0000
0010
0000
,
1000
0000
0000
0100
0000
0000
0010
0000
,
0001
0000
0000
0100
0000
0000
1000
0000
,
0100
0000
0000
0001
0000
0000
1000
0000
,
0010
0000
0000
1000
0000
0000
0001
0000
,
1000
0001
0100
0000
0010
1000
0001
0000
,
0101
0000
0000
2002
0000
3003
0000
0000
,
0110
0000
0000
2002
0000
3003
0000
0000
,
1000
0001
0100
0001
1000
0000
0000
0000
,
0001
1000
0010
0000
0100
0001
1000
0000
,
1010
0000
0000
2002
0000
3003
0000
0000
,
0110
0000
0000
2002
0000
3003
0000
0000
,
0001
1000
0010
1000
0001
0000
0000
0000
,
0001
0000
0001
0101
,
1010
0000
0000
0000
0010
0000
0000
1000
,
0010
1000
0001
0100
0001
0000
0101
0000
,
0010
0000
0000
0000
0100
0000
0000
0001
,
0010
0100
0010
0100
1000
0000
0010
0000
,
1010
0000
0000
0110
0000
0000
0011
0000
,
0101
0000
0000
0110
0000
0000
1001
0000
,
0110
0000
0000
1010
0000
0000
1100
0000
,
1000
0000
1000
1010
,
0101
0000
0000
0000
0100
0000
0000
0001
,
0100
0001
1000
0010
1000
0000
1010
0000
,
0100
0000
0000
0000
0010
0000
0000
1000
,
0100
0010
0100
0010
0001
0000
0100
0000
,
0101
0000
0000
0110
0000
0000
1100
0000
,
1010
0000
0000
0110
0000
0000
1001
0000
,
0110
0000
0000
0101
0000
0000
0011
0000
,
0001
1000
0010
1000
0001
0000
0101
0000
,
2002
0000
0000
0000
,
3003
0000
0000
0000
;

//---------------dance-single - ----------------
#NOTES:
     dance-single:
     :
     Hard:
     15:
     0.574,0.697,0.140,0.020,0.324: // measure 1
0000
0000
0000
0000
,  // measure 2
0000
0000
0000
0000
,  // measure 3
0000
0000
0000
0000
,  // measure 4
0000
0000
0000
0000
,  // measure 5
0000
0000
0000
0000
,  // measure 6
0000
0000
0000
0000
0000
0010
0100
0000
,  // measure 7
0001
0000
0100
0001
0100
0000
0010
0000
1000
0000
0000
0000
0000
0000
0010
1000
,  // measure 8
0001
0100
0010
1000
0001
0100
0010
0100
,  // measure 9
0001
0000
0001
0010
0100
0000
1000
0000
0010
0000
0000
0000
0000
0000
1000
0010
,  // measure 10
1000
0010
0100
0001
0010
0001
0100
0000
,  // measure 11
1000
0000
0010
0100
0001
0000
0100
0000
0010
0000
0000
0000
0000
0000
1000
0100
,  // measure 12
0010
0001
0010
1000
0010
0100
0010
1000
,  // measure 13
0010
0000
0100
0010
1000
0000
0100
0000
0010
0000
0000
0000
0000
0000
0100
0010
,  // measure 14
0001
0010
0100
0010
0001
0000
1001
0000
,  // measure 15
0010
0000
0100
0001
0100
1000
0100
0001
,  // measure 16
1000
0010
0100
0001
1000
0010
0000
0000
,  // measure 17
1000
0100
0010
0100
1000
0001
0010
0100
,  // measure 18
0010
0001
1000
0010
0100
0010
0000
0000
,  // measure 19
0010
1000
0010
0001
0100
0010
1000
0010
,  // measure 20
0100
0001
1000
0100
1000
0010
0000
0000
,  // measure 21
1001
0000
1000
0110
0001
0000
0001
0100
,  // measure 22
1000
0010
0001
0100
0010
1000
1001
0000
,  // measure 23
0001
0000
0000
0100
0010
1000
0010
0100
0001
0100
0000
0000
,  // measure 24
0001
0000
0000
0001
0010
0100
1000
0100
0010
0001
0000
0000
,  // measure 25
1000
0000
0000
1000
0010
0001
0010
1000
0100
0010
0000
0000
,  // measure 26
0100
0000
0000
0010
0100
0010
0100
0001
1000
0001
0000
0000
,  // measure 27
0100
0000
0010
0100
0000
0010
0000
0000
1000
0001
0000
1000
,  // measure 28
0000
0000
0001
0010
0000
0100
0000
0000
1000
0100
0000
0010
,  // measure 29
0000
0000
0001
1000
0000
0100
0000
0000
1000
0010
0000
0100
,  // measure 30
0000
0000
0010
0100
0000
0010
0000
0000
0100
0001
0000
0000
,  // measure 31
1001
0000
0000
0000
0100
0010
1000
0010
,  // measure 32
0001
0000
0000
0000
0000
0000
1000
0100
,  // measure 33
1000
0000
0000
0010
0000
0000
1000
0000
0000
0000
0010
0000
0100
0000
0001
0000
,  // measure 34
0100
0000
0000
0001
0000
0000
0010
0000
0001
0000
0000
0000
0100
0000
0001
0000
,  // measure 35
0000
0000
0000
0000
0010
0100
0001
0100
,  // measure 36
1000
0000
0000
0000
0000
0000
0001
0010
,  // measure 37
0001
0000
0000
0100
0000
0000
0001
0000
0000
0000
0100
0000
0010
0000
1000
0000
,  // measure 38
0010
0000
0000
1000
0000
0000
0010
0000
0000
0000
0000
0000
0010
0000
0000
0000
,  // measure 39
1001
0000
0000
0000
0100
0000
0000
0000
0010
0000
0000
0100
0000
0000
0010
0000
,  // measure 40
1000
0000
0000
1000
0000
0000
0100
0000
0010
0000
0000
0001
0000
0000
0100
0010
,  // measure 41
1000
0000
0000
0010
0000
0000
0100
0000
0010
0000
0000
0100
0000
0000
0001
0000
,  // measure 42
0100
0010
0001
0010
0100
0000
1000
0000
,  // measure 43
1010
0000
0000
0000
0010
0000
0000
0000
1000
0000
0000
0010
0000
0000
1000
0000
,  // measure 44
0001
0000
0000
0001
0000
0000
0001
0000
0010
0000
0000
0010
0000
0000
0010
0000
,  // measure 45
0100
0001
1000
0010
,  // measure 46
0100
0000
0010
0000
0001
0000
0100
0000
0001
0100
0000
0000
0010
1000
0000
0000
,  // measure 47
1000
0000
0010
1000
0010
0000
0100
0000
0001
0000
0000
0000
0000
0000
0100
0001
,  // measure 48
1000
0010
0100
0001
1000
0010
0100
0010
,  // measure 49
1000
0000
1000
0100
0010
0000
0001
0000
0100
0000
0000
0000
0000
0000
0001
0100
,  // measure 50
0001
0000
0100
0000
0010
0000
1000
0000
0100
1000
0000
0000
0010
1000
0000
0000
,  // measure 51
0001
0000
0100
0010
1000
0000
0010
0000
0100
0000
0000
0000
0000
0000
0001
0010
,  // measure 52
0100
1000
0100
0001
0100
0010
0100
0001
,  // measure 53
0100
0000
0010
0100
0001
0000
0010
0000
0100
0000
0000
0000
0000
0000
0010
0100
,  // measure 54
1000
0100
0010
0100
1000
0000
1001
0000
,  // measure 55
0100
0001
0100
0001
1000
0010
1000
0010
,  // measure 56
0100
0000
0000
0100
0000
0000
0100
0000
0010
0000
0000
0010
0000
0000
0010
0000
,  // measure 57
1000
0000
0001
0000
1000
0000
0001
1000
,  // measure 58
0001
0000
0100
0010
0100
0000
0010
0000
,  // measure 59
0010
1000
0010
1000
0001
0100
0001
0100
,  // measure 60
0010
0000
0000
0010
0000
0000
0010
0000
0100
0000
0000
0100
0000
0000
0100
0000
,  // measure 61
0001
0000
1000
0000
0001
0000
1000
0001
,  // measure 62
1000
0000
0010
1000
0010
0000
0100
0001
0100
0000
0010
1000
0010
0000
0100
0000
,  // measure 63
0001
0000
0000
0000
0100
0000
0000
0000
0010
0000
0000
0000
1000
0000
0010
1000
,  // measure 64
0010
0000
0100
0000
0010
0000
1000
0000
0001
0000
0000
0000
0000
0000
0001
0010
,  // measure 65
0100
1000
0001
1000
0010
0000
0100
0000
,  // measure 66
0001
0000
0100
0001
0100
0000
0010
1000
0010
0000
0100
0001
0100
0000
0010
0000
,  // measure 67
1000
0000
0100
0000
0010
0000
0001
0000
0100
0000
0010
0000
0001
0000
0100
0001
,  // measure 68
0100
0000
0010
0000
0100
0000
0001
0000
1000
0000
0010
0000
1000
0000
1000
0100
,  // measure 69
0010
0001
1000
0001
0100
0010
1000
0010
,  // measure 70
2000
0000
0000
3000
1001
0000
0101
0000
,  // measure 71
1100
0001
1000
0010
0100
0010
0001
0100
,  // measure 72
0010
1000
0010
0100
1000
0010
0101
0010
,  // measure 73
1000
0000
0001
0000
0100
0000
0001
0000
1000
0000
0010
0000
0001
0000
0010
1000
,  // measure 74
0001
0001
0100
1000
0100
0001
0100
0010
,  // measure 75
1000
0010
1000
0000
0010
0000
0001
0100
0001
0000
0010
0000
1001
0000
0100
0000
,  // measure 76
0010
0100
0001
0000
0010
0000
0100
0010
1000
0000
0010
0000
1001
0000
0010
0000
,  // measure 77
1000
0100
0010
0000
0001
0000
0001
0010
0100
0000
1000
0000
1010
0000
0100
0000
,  // measure 78
0001
0000
0001
1000
0001
0000
1000
0001
1000
0000
0001
1000
0001
0000
0010
0000
,  // measure 79
0011
1000
0001
0100
0010
0100
1000
0010
,  // measure 80
0100
0001
0100
0010
0001
0100
1010
0100
,  // measure 81
0001
0000
1000
0000
0010
0000
1000
0000
0001
0000
0100
0000
1000
0000
0100
0001
,  // measure 82
1000
1000
0010
0001
0010
1000
0010
0100
,  // measure 83
0001
0100
0001
0000
0100
0000
1000
0010
1000
0000
0100
0000
1001
0000
0010
0000
,  // measure 84
0100
0010
1000
0000
0100
0000
0010
0100
0001
0000
0100
0000
1001
0000
0100
0000
,  // measure 85
0001
0010
0100
0000
1000
0000
1000
0100
0010
0000
0001
0000
0101
0000
0010
0000
,  // measure 86
0001
0000
0010
0000
1000
0000
0010
0000
0001
1000
0000
0000
1000
0001
0000
0000
,  // measure 87
2002
0000
0000
0000
,  // measure 88
3003
0000
0000
0000
;
