#TITLE:Cure For Me;
#SUBTITLE:;
#ARTIST:AURORA;
#TITLETRANSLIT:;
#SUBTITLETRANSLIT:;
#ARTISTTRANSLIT:;
#CREDIT:;
#BANNER:Cure For Me.png;
#BACKGROUND:Cure For Me-bg.png;
#LYRICSPATH:;
#CDTITLE:;
#MUSIC:Cure For Me.mp3;
#OFFSET:-0.360;
#SAMPLESTART:39.420;
#SAMPLELENGTH:15.000;
#SELECTABLE:YES;
#BPMS:0.000=116.000;
#STOPS:;
#BGCHANGES:;

//---------------dance-single - ----------------
#NOTES:
     dance-single:
     :
     Easy:
     3:
     0.201,0.260,0.083,0.075,0.000:
0000
0000
0000
0000
,
0000
0000
0000
0000
,
0000
0000
0000
0000
,
0000
0000
0000
0000
,
1000
0000
0010
0000
,
1000
0000
0001
0000
,
0100
0000
0010
0000
,
0100
0000
0001
0000
,
0010
0000
0001
0000
,
1000
0000
0010
0000
,
1000
0000
0001
0000
,
0100
0000
0010
0000
,
1000
0001
1001
0000
,
0001
0100
0010
0000
,
0100
0010
0110
0000
,
1000
0001
0100
0000
,
2000
0000
3001
0000
,
0002
0203
0320
0030
,
1001
0110
1001
0000
,
1000
0001
0100
0010
,
0100
0010
0000
1000
,
0000
0001
0000
0100
,
0000
0001
0000
1000
,
0000
0010
0000
1000
,
0000
0001
0000
0100
,
0000
0010
0000
0100
,
0000
0001
0000
1000
,
0000
0001
0000
0100
,
0000
0001
0000
1000
,
0000
0010
0000
0100
,
0001
0000
0100
0000
,
0001
0000
1000
0000
,
0010
0000
0100
0000
,
0010
0000
1000
0000
,
0100
0000
1000
0000
,
0001
0000
0100
0000
,
0001
0000
1000
0000
,
0010
0000
0100
0000
,
0001
1000
1001
0000
,
1000
0010
0100
0000
,
0010
0100
0110
0000
,
0001
1000
0010
0000
,
0002
0000
1003
0000
,
2000
3020
0230
0300
,
1001
0110
1001
0000
,
0001
1000
0010
0100
,
0010
0100
0001
0001
,
1000
1000
0010
0010
,
0001
1000
0010
0001
,
1000
0100
0010
0001
,
0010
0100
1000
0010
,
1000
0100
0001
0010
,
1000
1000
0010
0001
,
0100
1000
0001
0010
,
0100
1000
0100
0010
,
0001
1000
0010
1000
,
0001
1000
0010
1000
,
0001
0100
0001
1000
,
0010
1000
0100
1000
,
0010
1000
0001
0100
,
0001
1000
0010
0100
,
0010
1000
0001
1000
,
2002
0000
0000
0000
,
3003
0000
0000
0000
;

//---------------dance-single - ----------------
#NOTES:
     dance-single:
     :
     Beginner:
     1:
     0.151,0.166,0.000,0.008,0.000:
0000
0000
0000
0000
,
0000
0000
0000
0000
,
0000
0000
0000
0000
,
0000
0000
0000
0000
,
0010
0000
0000
0000
,
0100
0000
0000
0000
,
0010
0000
0000
0000
,
1000
0000
0000
0000
,
0001
0000
0000
0000
,
0001
0000
0000
0000
,
0100
0000
0000
0000
,
0010
0000
0000
0000
,
1000
0010
1000
0000
,
0010
0000
0100
0000
,
0010
0100
0010
0000
,
0100
0000
0001
0000
,
0001
1000
0001
0000
,
0100
0100
0100
0000
,
0010
0000
1000
0000
,
0001
0000
1000
0000
,
0001
1000
0001
0000
,
1000
0010
1000
0000
,
0010
0100
0010
0000
,
0100
0010
0100
0000
,
0001
1000
0001
0000
,
1000
0010
1000
0000
,
0001
0100
0001
0000
,
0010
0010
0010
0000
,
1000
0000
0001
0000
,
0100
0000
0001
0000
,
0000
1000
0000
0010
,
0000
0100
0000
0001
,
0000
1000
0000
0010
,
0000
1000
0000
1000
,
0000
0010
0000
0100
,
0000
0001
0000
0100
,
0000
0001
0000
1000
,
0000
0010
0000
0000
,
1000
1000
1000
0000
,
0001
0000
1000
0000
,
0001
0100
0001
0000
,
0100
0000
0010
0000
,
1000
0010
1000
0000
,
1000
0000
0001
0000
,
0001
0100
0100
0000
,
0010
0000
0100
0000
,
1000
0001
1000
0000
,
0001
0100
0001
0000
,
0100
0010
0100
0000
,
0010
0100
0010
0000
,
1000
0001
1000
0000
,
0001
0100
0001
0000
,
1000
0010
1000
0000
,
0100
0100
0100
0000
,
1000
0100
1000
0000
,
0100
0010
0100
0000
,
0010
0001
0010
0000
,
0001
0010
0001
0000
,
1000
0100
1000
0000
,
0100
0010
0100
0000
,
1000
0001
1000
0000
,
0010
0010
0010
0000
,
0200
0000
0000
0000
,
0300
0000
0000
0000
;

//---------------dance-single - ----------------
#NOTES:
     dance-single:
     :
     Medium:
     8:
     0.292,0.306,0.180,0.030,0.011:
0000
0000
0000
0000
,
0000
0000
0000
0000
0000
0000
0000
0100
,
0100
0000
0000
0000
0000
0000
0000
0010
,
0010
0000
0000
0000
0000
0000
0000
1000
,
1000
0000
0010
0000
0000
0000
0000
0010
,
0100
0000
0001
0000
0000
0000
0000
1000
,
0001
0000
0100
0000
0000
0000
0000
0010
,
0010
0000
1000
0000
0000
0000
0000
1000
,
0100
0000
0001
0000
0000
0000
0000
0001
,
0001
0000
1000
0000
0000
0000
0000
0100
,
0010
0000
0100
0000
0000
0000
0000
0010
,
1000
0010
0000
0000
,
1000
0010
1010
0000
,
0001
0000
1000
0010
0100
0010
1000
0000
,
0001
0100
0101
0000
,
0001
0000
0001
0010
0100
1000
1000
0000
,
0010
0100
0010
0100
,
0010
1000
0001
0100
,
0101
0010
1010
0000
,
1000
0001
1000
0002
,
1003
0001
0100
0000
0000
0000
0010
0000
,
0100
0010
0100
0000
0000
0000
0010
0000
,
1000
0001
1000
0000
0000
0000
0001
0000
,
0001
0010
0100
0000
0000
0000
1000
0000
,
1000
0010
1000
0000
0000
0000
0001
0000
,
0100
0001
0100
0000
0000
0000
0001
0000
,
0001
0010
0100
0000
0000
0000
1000
0000
,
1000
0100
0010
0001
,
0002
0000
0003
0000
,
0020
0000
0030
0000
,
0100
0110
0010
1010
,
1000
1010
0010
1001
,
0001
0101
0100
0110
,
0010
1010
1000
0011
,
0010
0110
0100
0101
,
0001
0101
0100
1001
,
1000
1010
0010
0110
,
0100
0101
0001
1100
,
0001
0100
0101
0000
,
1000
0000
0001
0100
0010
0100
0001
0000
,
1000
0010
1010
0000
,
1000
0000
1000
0100
0010
0001
0001
0000
,
0100
0010
0100
0010
,
0100
0001
1000
0010
,
1010
0100
0101
0000
,
0001
1000
0001
2000
,
3001
1000
0010
0000
1000
0000
0100
0000
,
0010
0100
0010
0000
0010
0000
0100
0000
,
0001
1000
0001
0000
1000
0000
1000
0000
,
1000
0100
0010
0000
1000
0000
0001
0000
,
0001
0100
0001
0000
0001
0000
1000
0000
,
0010
1000
0010
0000
0001
0000
1000
0000
,
1000
0100
0010
0000
1000
0000
0001
0000
,
0001
0010
0100
1000
,
1000
0001
0100
0000
0001
0000
0010
0000
,
0100
0010
0100
0000
0100
0000
0010
0000
,
1000
0001
1000
0000
0001
0000
0001
0000
,
0001
0010
0100
0000
0001
0000
1000
0000
,
1000
0010
1000
0000
1000
0000
0001
0000
,
0100
0001
0100
0000
1000
0000
0001
0000
,
0001
0010
0100
0000
0001
0000
1000
0000
,
1000
0100
0010
0001
,
0001
0000
1000
0000
0001
0000
0000
0100
0000
0010
0000
0100
0000
0000
0000
0000
;

//---------------dance-single - ----------------
#NOTES:
     dance-single:
     :
     Hard:
     13:
     0.431,0.424,0.075,0.090,0.582:
0000
0000
0000
0000
0000
0000
0000
0001
,
0001
0000
0000
0000
0000
0000
0000
0010
,
0010
0000
0000
0000
0000
0000
0000
0100
,
0100
0000
0000
0000
0000
0000
0000
1000
,
1000
0000
0000
0010
0000
0000
0100
0000
0010
0000
0000
0100
0000
0000
0001
0000
,
0010
0000
0000
0001
0000
0000
0100
0000
0010
0000
0000
1000
0000
0000
0010
0000
,
1000
0000
0000
0000
0010
0000
0100
0000
0010
0000
0000
1000
0000
0000
0010
0000
,
0000
0100
0000
0000
0100
0001
0100
0001
,
0001
0000
0000
0100
0000
0000
0010
0000
0100
0000
0000
0010
0000
0000
1000
0000
,
0100
0000
0000
1000
0000
0000
0010
0000
0100
0000
0000
0001
0000
0000
0100
0000
,
0001
0000
0000
0000
0100
0000
0010
0000
0100
0000
0000
0001
0000
0000
0100
0000
,
0000
0010
0000
0000
0010
0000
0000
0000
,
1000
1000
1020
0000
,
1030
0000
0000
0000
0010
0000
1000
0000
0010
0000
1000
0100
0000
0000
0000
0000
,
0001
0100
0102
0000
,
0103
0000
0000
0000
0010
0000
1000
0000
0010
0000
1000
0100
0000
0000
0000
0000
,
1000
0010
0100
0010
,
0002
0023
0230
2300
,
3001
0110
1001
1000
,
1000
0010
0000
0000
1000
0010
0000
0000
0100
0001
0000
0000
0010
0001
0000
0000
,
1001
0000
0001
0000
0100
0000
0000
0100
0000
0010
0000
1000
0000
0001
0000
0100
,
0001
0000
1000
0000
0010
0000
0000
0100
0000
0010
0000
1000
0000
0001
0000
1000
,
0010
0000
1000
0000
0100
0000
0000
0010
0000
0001
0000
1000
0000
0001
0000
0100
,
0001
0000
0010
0000
0100
0000
0000
1000
0000
0010
0000
1000
0000
0001
0000
0100
,
0010
0000
0100
0000
0010
0000
0000
1000
0000
0100
0000
1000
0000
0001
0000
0100
,
0001
0000
0010
0000
0001
0000
0000
0100
0000
0001
0000
1000
0000
0010
0000
1000
,
0010
0000
0100
0000
0010
0000
0000
0001
0000
0010
0000
0100
0000
1000
0000
0001
,
1000
0000
0010
0000
0100
0000
0000
0001
0000
1000
0000
0010
0000
1000
0000
0001
,
0100
0010
0100
0000
0001
1000
0010
0000
,
1000
0100
0010
0000
0100
0010
0100
0001
,
0001
0000
0000
0100
0000
0000
0010
0000
0100
0000
0000
0010
0000
0000
1000
0000
,
0100
0000
0000
1000
0000
0000
0010
0000
0100
0000
0000
0001
0000
0000
0100
0000
,
0001
0000
0000
0000
0100
0000
0010
0000
0100
0000
0000
0001
0000
0000
0100
0000
,
0000
0010
0000
0000
0010
1000
0010
1000
,
1000
0000
0000
0010
0000
0000
0100
0000
0010
0000
0000
0100
0000
0000
0001
0000
,
0010
0000
0000
0001
0000
0000
0100
0000
0010
0000
0000
1000
0000
0000
0010
0000
,
1000
0000
0000
0000
0010
0000
0100
0000
0010
0000
0000
1000
0000
0000
0010
0000
,
0000
0100
0000
0000
0100
0000
0000
0000
,
0001
0001
0201
0000
,
0301
0000
0000
0000
0100
0000
0001
0000
0100
0000
0001
0010
0000
0000
0000
0000
,
1000
0010
2010
0000
,
3010
0000
0000
0000
0100
0000
0001
0000
0100
0000
0001
0010
0000
0000
0000
0000
,
0001
0100
0010
0100
,
2000
3200
0320
0032
,
1003
0110
1001
0001
,
0001
0100
0000
0000
0001
0100
0000
0000
0010
1000
0000
0000
0100
1000
0000
0000
,
1001
0000
1000
0000
0010
0000
0000
0010
0000
0100
0000
0001
0000
1000
0000
0010
,
1000
0000
0001
0000
0100
0000
0000
0010
0000
0100
0000
0001
0000
1000
0000
0001
,
0100
0000
0001
0000
0010
0000
0000
0100
0000
1000
0000
0001
0000
1000
0000
0010
,
1000
0000
0100
0000
0010
0000
0000
0001
0000
0100
0000
0001
0000
1000
0000
0010
,
0100
0000
0010
0000
0100
0000
0000
0001
0000
0010
0000
0001
0000
1000
0000
0010
,
1000
0000
0100
0000
1000
0000
0000
0010
0000
1000
0000
0001
0000
0100
0000
0001
,
0100
0000
0010
0000
0100
0000
0000
1000
0000
0100
0000
0010
0000
0001
0000
1000
,
0001
0000
0100
0000
0010
0000
0000
1000
0000
0001
0000
0100
0000
0001
0000
1000
,
0010
0000
0001
0000
1000
0000
0000
0001
0000
1000
0000
0010
0000
0001
0000
0010
,
0001
0000
1000
0000
0100
0000
0000
0100
0000
0100
0000
1000
0000
0010
0000
1000
,
0010
0000
1000
0000
0100
0000
0000
0001
0000
0001
0000
0001
0000
0010
0000
1000
,
0010
0000
0010
0000
1000
0000
0000
1000
0000
1000
0000
0001
0000
1000
0000
0001
,
0100
0000
0001
0000
0100
0000
0000
0001
0000
0001
0000
1000
0000
0001
0000
0001
,
0010
0000
0001
0000
0010
0000
0000
0001
0000
0100
0000
0010
0000
1000
0000
1000
,
0001
0000
0001
0000
0001
0000
0000
1000
0000
0010
0000
1000
0000
1000
0000
0001
,
0100
0000
1000
0000
0100
0000
0000
0001
0000
0001
0000
1000
0000
1000
0000
0001
,
1000
0000
0010
0000
0100
0000
0000
0010
0000
1000
0000
0001
0000
0000
0000
0000
;
