#TITLE:Crossing Field;
#SUBTITLE:;
#ARTIST:LiSA;
#TITLETRANSLIT:;
#SUBTITLETRANSLIT:;
#ARTISTTRANSLIT:;
#CREDIT:;
#BANNER:Crossing Field.png;
#BACKGROUND:Crossing Field-bg.png;
#LYRICSPATH:;
#CDTITLE:;
#MUSIC:Crossing Field.mp3;
#OFFSET:0.420;
#SAMPLESTART:45.800;
#SAMPLELENGTH:15.000;
#SELECTABLE:YES;
#BPMS:0.000=179.000;
#STOPS:;
#BGCHANGES:;

//---------------dance-single - ----------------
#NOTES:
     dance-single:
     :
     Easy:
     5:
     0.309,0.355,0.115,0.125,0.000:
0000
0000
0000
0000
,
0002
0000
0000
0010
,
0023
0000
1000
0000
,
2030
0000
0000
0000
,
0000
0000
3000
0000
,
2000
0010
0010
0010
,
3020
0100
0100
0100
,
0230
0001
0001
0301
,
0000
0000
0000
0000
,
0001
0100
0010
0100
,
0001
0000
1000
0100
,
0010
0100
1000
0001
,
1000
0000
0000
0100
,
0001
0100
0000
0010
,
1000
0010
0000
0100
,
0010
0100
0000
0010
,
1000
0001
0000
0100
,
0001
0100
0010
0100
,
0001
0000
0100
0001
,
1000
0010
1000
0001
,
0100
1000
0100
0001
,
0100
0000
0000
0001
,
0100
0001
0000
0010
,
0100
1000
2000
3000
,
0020
0030
0200
0300
,
2002
3003
0000
0010
,
0100
0010
0000
0100
,
0010
0100
0000
0001
,
0001
0100
0000
0000
,
1000
0100
0010
0001
,
0100
0000
0001
0010
,
0100
1000
0010
1000
,
0001
0000
0100
0000
,
0101
0000
0000
0001
,
0001
0000
0000
0000
0001
1000
0001
0000
,
0100
0001
0100
0010
,
1000
0010
0100
0010
,
0100
0001
0010
0001
,
0100
0010
1000
0100
,
1000
0000
1010
0000
,
0101
0000
0011
0000
,
0000
1000
0100
1000
,
0000
0000
0000
0000
0010
1000
0010
0000
,
0010
1000
0010
0100
,
0001
0100
0010
0100
,
0010
1000
0100
1000
,
0010
0100
0001
0010
,
0001
0000
0101
0000
,
1010
0000
1100
0000
,
0000
0001
0010
0001
,
0000
0000
0100
0000
,
0010
0100
0010
1000
,
0001
0010
0100
1000
,
0000
1010
0000
0101
,
0000
0110
0000
0000
,
0010
0100
0010
1000
,
0001
0100
0001
1000
,
0010
0000
0000
0100
0000
0000
0010
0000
,
0000
0000
0000
0000
,
1000
0010
0100
0010
,
0100
0001
0100
0010
,
1000
0001
0100
0001
,
1000
0000
0010
0000
0100
0000
0000
2000
,
0000
0000
0000
0000
,
0000
0000
0000
0000
,
0000
0000
0000
0000
,
0000
0000
0000
0000
,
0000
0000
0000
0000
,
3000
0000
0000
0000
;

//---------------dance-single - ----------------
#NOTES:
     dance-single:
     :
     Beginner:
     3:
     0.221,0.284,0.094,0.125,0.000:
0000
0000
0000
0000
,
0200
0000
0300
0000
,
0010
0000
0100
0000
,
0020
0000
0030
0000
,
1000
0000
0001
0000
,
2000
0000
3000
0000
,
0002
0000
0003
0000
,
2002
0000
3003
0000
,
0110
0000
0000
0000
,
0010
0000
1000
0000
,
0010
0000
0100
0000
,
0001
0000
0100
0000
,
0001
0000
1000
0000
,
2000
0000
0000
0000
,
0000
0000
0000
0000
,
3000
0000
0010
0000
,
1000
0000
0001
0000
,
0000
0001
0001
0001
,
0000
1000
1000
1000
,
0000
0100
0100
0100
,
0000
0001
0001
0001
,
0200
0000
0000
0000
,
0000
0000
0000
0000
,
0300
0000
0100
0000
,
0010
0000
0100
0000
,
1001
0000
0000
0000
,
1010
0000
0000
0000
,
0101
0000
0000
0000
,
0110
0000
0000
0000
,
0000
0010
0010
0010
,
0000
0100
0100
0100
,
0000
0001
0001
0001
,
0000
0000
0110
0000
,
2002
0000
0000
0000
,
0000
3003
0000
0000
,
0000
0001
0100
0001
,
0000
1000
0010
1000
,
0000
0010
0100
0010
,
0000
0100
0010
0100
,
0000
0001
0010
0001
,
0000
1000
0100
1000
,
0000
0001
1000
0001
,
0000
0100
0001
0100
,
0000
1000
0010
1000
,
0000
0001
0100
0001
,
0000
0100
0010
0100
,
0000
0010
0100
0010
,
0000
1000
0100
1000
,
0000
0001
0010
0001
,
0000
1000
0001
1000
,
0000
0010
1000
0010
,
0000
0100
0000
0100
,
0000
0010
0000
0010
,
0000
1000
0000
0010
,
0000
0100
0000
0001
,
0000
0100
0000
0001
,
0000
1000
0000
1000
,
0000
0010
0000
0010
,
0000
0000
0000
0000
,
0000
0010
0010
0010
,
0000
0100
0100
0100
,
0000
0001
0001
0001
,
0000
0000
0000
0100
0000
0010
0000
0220
,
0000
0000
0000
0000
,
0000
0000
0000
0000
,
0000
0000
0000
0000
,
0000
0000
0000
0000
,
0000
0000
0000
0000
,
0330
0000
0000
0000
;

//---------------dance-single - ----------------
#NOTES:
     dance-single:
     :
     Medium:
     10:
     0.442,0.604,0.125,0.282,0.005:
0000
0000
0000
0000
1000
0010
1000
0000
,
0020
0000
0000
0100
,
0230
0000
0001
0000
,
0302
0000
0000
0000
0003
0000
1000
0001
,
0000
0100
0000
0010
0000
0100
0000
0000
,
0001
0100
0001
1000
,
0010
1000
0010
0100
,
0010
0000
1000
0000
0001
0000
0100
0001
,
0000
0001
0100
0001
0000
0000
0000
0000
,
0010
1000
0000
0010
0000
0100
0000
0010
,
0000
0000
0010
0100
,
0010
0100
0000
0010
0000
0100
0000
0001
,
0000
0000
0001
0100
,
0020
0000
0000
0230
0000
0000
0300
0000
,
0100
0010
0100
0000
0001
0100
0001
0000
,
0100
1000
0010
0000
0100
0010
1000
0000
,
0010
0100
0001
0000
0100
0001
1000
0000
,
0100
0001
0000
0100
0000
0010
0000
0100
,
0000
0000
0100
0010
,
0100
0010
0000
0100
0000
0010
0000
1000
,
0000
0010
1000
0010
,
0200
0000
0000
0320
0000
0000
0030
0000
,
0010
0100
0010
0000
1000
0010
1000
0000
,
0010
0001
0100
0000
0010
0100
0001
0000
,
0100
0010
1000
0000
0010
1000
0001
0000
,
0002
0000
0000
0000
0000
1000
1003
0000
,
2000
0000
0000
3010
0000
0000
0200
0000
,
0020
0000
0000
0330
0000
0000
0000
0000
,
0010
0000
0000
1001
0000
0000
0000
0000
,
0001
0100
0000
0010
0000
0100
0000
1000
,
0000
0000
1000
0010
,
1000
0010
0000
0100
0000
0010
0000
0001
,
0000
0000
0001
0000
1000
0000
0000
0000
0010
0000
0000
1000
0000
0000
1000
0000
,
0010
0000
0000
0100
0000
0000
0010
0000
,
0101
0000
0000
0000
0001
0100
0001
0000
,
0001
1000
0002
0000
0103
0010
0200
0000
,
0310
1000
0020
0000
0130
0001
2000
0000
,
3010
0100
0002
0000
0103
0010
2000
0000
,
3010
0100
0020
0000
0130
0010
0100
0000
,
0110
0000
0000
0010
0100
0000
0000
0100
,
0010
0000
0000
0010
1000
0000
0000
1000
,
0001
0000
0001
1000
0000
0110
0000
1001
,
0000
1000
0001
0000
1000
0010
1000
0000
,
1000
0001
2000
0000
3010
0100
0020
0000
,
0130
0001
0200
0000
0310
1000
0002
0000
,
0103
0010
2000
0000
3010
0100
0002
0000
,
0103
0010
0200
0000
0310
0100
0010
0000
,
0110
0000
0000
0100
0010
0000
0000
0010
,
0100
0000
0000
0100
0001
0000
0000
0001
,
1000
0000
1000
0001
0000
0110
0000
1001
,
0000
0001
1000
0000
0001
0010
0100
2000
,
0000
0000
3000
1000
,
0010
0000
1000
0000
0010
0100
0000
0001
,
0000
0000
0000
0101
0000
0000
0000
0110
,
0000
0000
0000
0010
0100
0000
0010
0000
,
0100
0001
0100
0001
,
0100
0010
1000
0100
,
1000
0000
0000
1010
0000
0000
0011
0000
,
0000
0001
0001
0001
,
0000
0000
0100
0000
0010
0100
0000
0100
,
0000
0010
0000
1000
0000
0001
0000
0100
,
0000
0000
0010
0000
0100
0010
0000
0010
,
0000
0100
0000
0001
0000
1000
0000
0020
,
0000
0000
0000
0000
,
0000
0000
0000
0000
,
0000
0000
0000
0000
,
0000
0000
0000
0000
,
0000
0000
0000
0000
,
0030
0000
0000
0000
;

//---------------dance-single - ----------------
#NOTES:
     dance-single:
     :
     Hard:
     14:
     0.574,0.746,0.188,0.365,0.099: // measure 1
0000
0000
0000
0000
1000
0010
0100
0000
,  // measure 2
0020
0000
0000
0100
,  // measure 3
0230
0000
0000
0000
0000
0000
0000
0000
0310
0000
0000
0000
0010
0100
0010
0100
,  // measure 4
0020
0000
0000
0000
0000
0000
0130
0010
,  // measure 5
0000
0100
0000
0001
0000
1000
0000
0010
,  // measure 6
1000
1010
0010
0110
,  // measure 7
0100
0101
0001
0011
,  // measure 8
0001
0000
1001
0000
1000
0000
1000
0010
,  // measure 9
0000
0010
1000
0100
0010
0001
0010
0100
,  // measure 10
1000
0010
0000
0100
0000
0010
0000
0100
,  // measure 11
0000
0000
0001
0100
,  // measure 12
0001
0100
0000
0010
0000
0100
0000
0001
,  // measure 13
0000
0000
0010
0100
,  // measure 14
0010
0100
0020
0000
0130
0001
2000
0000
,  // measure 15
3010
0100
0002
0000
1003
0100
0020
0000
,  // measure 16
0031
0100
0002
0000
1003
0010
2000
0000
,  // measure 17
3010
0100
0020
0000
0130
0010
0200
0000
,  // measure 18
0301
0100
0001
0100
0010
1000
0010
1000
,  // measure 19
0000
1000
1000
0010
,  // measure 20
1000
0010
0100
0001
0100
0010
1000
0010
,  // measure 21
0000
0001
0100
0010
,  // measure 22
0100
0010
0200
0000
0310
1000
0002
0000
,  // measure 23
0103
0010
2000
0000
3001
0010
0200
0000
,  // measure 24
1300
0010
2000
0000
3001
0100
0002
0000
,  // measure 25
0103
0010
0200
0000
0310
0100
0020
0000
,  // measure 26
0130
0000
0000
0110
0000
0100
0001
0000
,  // measure 27
0001
0000
0000
1001
0000
1000
0010
0000
,  // measure 28
1000
0000
0000
1010
0000
0010
0100
0000
,  // measure 29
0010
0000
0000
0110
0000
0100
0010
0000
,  // measure 30
1000
0100
0010
0001
0100
0010
1000
0001
,  // measure 31
0000
0100
0100
0010
,  // measure 32
0001
0010
0100
1000
0010
0100
0001
1000
,  // measure 33
0000
0000
1000
0000
0001
0000
0000
0000
0110
0000
0000
0110
0000
0000
1001
0000
,  // measure 34
0000
0000
0000
0100
0000
0000
0010
0000
,  // measure 35
0100
0000
0000
0000
0010
0100
0010
0000
,  // measure 36
0100
0000
0010
0100
0020
0000
0000
0000
0130
0000
0001
0100
0002
0000
0000
0000
,  // measure 37
1003
0000
0010
1000
0002
0000
0000
0000
0103
0000
0010
1000
0200
0000
0000
0000
,  // measure 38
0310
0000
0100
0001
2000
0000
0000
0000
3010
0000
0100
0001
0020
0000
0000
0000
,  // measure 39
0130
0000
0010
0100
0002
0000
0000
0000
1003
0000
0010
0100
0001
0000
0000
0000
,  // measure 40
0001
0000
0001
0100
0010
0000
1000
0010
,  // measure 41
0100
0000
0010
0100
0001
0000
1000
0010
,  // measure 42
0100
0000
0010
0100
0000
0100
0000
1001
,  // measure 43
0000
1000
0001
0000
0100
0001
0100
0000
,  // measure 44
0010
0000
0100
0010
0200
0000
0000
0000
0310
0000
1000
0010
2000
0000
0000
0000
,  // measure 45
3001
0000
0100
0001
2000
0000
0000
0000
3010
0000
0100
0001
0020
0000
0000
0000
,  // measure 46
0130
0000
0010
1000
0002
0000
0000
0000
0103
0000
0010
1000
0200
0000
0000
0000
,  // measure 47
0310
0000
0100
0010
2000
0000
0000
0000
3001
0000
0100
0010
1000
0000
0000
0000
,  // measure 48
1000
0000
1000
0010
0100
0000
0001
0100
,  // measure 49
0010
0000
0100
0010
1000
0000
0001
0100
,  // measure 50
0010
0000
0100
0010
0000
0010
0000
1001
,  // measure 51
0000
0001
1000
0000
0010
1000
0010
0000
,  // measure 52
0100
0010
0100
0000
0001
0100
0010
0000
,  // measure 53
1000
0001
1000
0000
0010
0100
0000
0110
,  // measure 54
0000
0100
0010
0100
0000
0001
1000
0010
,  // measure 55
0000
1000
0100
1000
0010
0000
0100
0000
,  // measure 56
0010
0000
0100
0010
0000
0010
0000
0010
,  // measure 57
1000
0000
0001
0100
0000
0001
0000
0000
,  // measure 58
0001
0010
0000
0010
0001
0000
1000
0100
,  // measure 59
0000
0000
0110
0000
,  // measure 60
1001
0000
0001
0000
0001
0100
0000
0010
,  // measure 61
0000
1000
0000
0010
0000
0100
0000
0001
,  // measure 62
0000
0000
1000
0000
1000
0010
0000
0001
,  // measure 63
0000
0010
0000
1000
0000
0010
0000
2002
,  // measure 64
0000
0000
0000
0000
,  // measure 65
0000
0000
0000
0000
,  // measure 66
0000
0000
0000
0000
,  // measure 67
0000
0000
0000
0000
,  // measure 68
0000
0000
0000
0000
,  // measure 69
3003
0000
0000
0000
;
