#TITLE:Cold Heart (PNAU Remix);
#SUBTITLE:;
#ARTIST:Elton John & Dua Lipa;
#TITLETRANSLIT:;
#SUBTITLETRANSLIT:;
#ARTISTTRANSLIT:;
#CREDIT:;
#BANNER:Cold Heart (PNAU Remix).png;
#BACKGROUND:Cold Heart (PNAU Remix)-bg.png;
#LYRICSPATH:;
#CDTITLE:;
#MUSIC:Cold Heart (PNAU Remix).mp3;
#OFFSET:-0.020;
#SAMPLESTART:41.860;
#SAMPLELENGTH:15.000;
#SELECTABLE:YES;
#BPMS:0.000=116.000;
#STOPS:76.000=2.060
,168.000=2.060
;
#BGCHANGES:;

//---------------dance-single - ----------------
#NOTES:
     dance-single:
     :
     Easy:
     4:
     0.208,0.250,0.028,0.124,0.000:
0000
0000
0000
0000
,
0000
0000
0000
0000
,
0000
0000
0000
0000
,
0000
0000
0000
0000
,
0010
0100
0010
0100
,
0000
0010
0000
0100
,
0000
0010
0100
0010
,
0000
0100
0000
0000
,
0001
1000
0001
1000
,
0000
0010
0000
0100
,
0000
0100
0010
0001
,
0000
0010
0000
0000
,
0001
0100
1000
0100
,
0000
0010
0000
0100
,
0000
0001
0010
0100
,
0000
1000
0000
0000
,
1000
0100
0010
0001
,
0000
0100
0000
0010
,
0000
1000
0001
1000
,
2002
3003
0010
0100
,
0020
0130
0010
1000
,
0010
1000
0001
0100
,
0001
0001
0010
0100
,
1000
0010
1000
0001
,
0002
0103
1000
0010
,
0100
0010
1000
0010
,
1010
1000
0000
0001
,
0001
0100
0010
0100
,
0002
1003
0010
0001
,
0010
1000
0000
0001
,
0000
0010
0000
0100
,
0010
1000
0010
0100
,
0020
0130
0010
1000
,
0100
0010
0000
0100
,
0000
0010
0000
1000
,
2000
0001
0000
0100
,
3000
0001
0000
0010
,
0020
0100
0000
0100
,
0030
0100
0000
0001
,
0002
0100
0000
1000
,
0003
0100
0000
0010
,
0200
0001
0000
0010
,
0300
0010
0100
0010
,
0200
0310
0100
0001
,
0100
0001
1000
0010
,
1000
1000
0100
0010
,
0001
0100
0001
1000
,
2000
3010
0001
0100
,
0010
0100
0001
0100
,
0101
0001
0000
1000
,
1000
0010
0100
0010
,
2000
3001
0100
1000
,
0100
0001
0000
1000
,
0000
0100
0000
0010
,
0100
0001
0100
0010
,
0200
0310
0100
0001
,
0010
0100
0000
0010
,
0000
0100
0000
0001
,
0002
1000
0000
0010
,
0003
1000
0000
0100
,
0200
0010
0000
0010
,
0300
0010
0000
1000
,
2000
0010
0000
0001
,
3000
0010
0000
0100
,
0020
1000
0000
0100
,
0030
0100
0000
0110
;

//---------------dance-single - ----------------
#NOTES:
     dance-single:
     :
     Beginner:
     1:
     0.148,0.182,0.048,0.069,0.000:
0000
0000
0000
0000
,
0000
0000
0000
0000
,
0000
0000
0000
0000
,
0000
0000
0000
0000
,
0000
1000
0000
1000
,
0000
0001
0000
0001
,
0000
1000
0000
1000
,
0000
0001
0000
0001
,
0000
0100
0000
0010
,
0000
0100
0000
0010
,
0000
1000
0000
0010
,
0000
1000
0000
0001
,
0000
0100
0000
0001
,
0000
1000
0000
0010
,
0000
1000
0000
0100
,
0000
1000
0000
0010
,
0000
0100
0000
0001
,
0000
0100
0000
0001
,
0000
0001
0000
1000
,
1001
0001
0001
0001
,
0000
0100
0100
0100
,
0000
0001
0001
0001
,
0000
1000
1000
1000
,
0000
0010
0010
0010
,
0000
1000
1000
1000
,
0000
0001
0001
0001
,
0000
0100
0100
0100
,
0000
0010
0000
0110
,
0000
1000
0000
0001
,
0000
1000
0000
0001
,
0000
0100
0000
0010
,
0000
0010
0000
1001
,
0000
1000
0000
1000
,
0000
0001
0000
0100
,
0000
0000
0010
0010
,
0020
0000
0000
0030
,
0000
0000
0100
0100
,
0200
0000
0000
0300
,
0000
0000
0001
0001
,
0002
0000
0000
0003
,
0000
0000
1000
1000
,
2000
0000
0000
3000
,
1001
1000
1000
1000
,
0000
0010
0010
0010
,
0000
1000
1000
1000
,
0000
0001
0001
0001
,
0000
0100
0100
0100
,
0000
0001
0001
0001
,
0000
1000
1000
1000
,
0000
0010
0010
0010
,
0000
0100
0000
0110
,
0000
0001
0000
1000
,
0000
0001
0000
1000
,
0000
0010
0000
0100
,
0000
0100
0000
1001
,
0000
0001
0000
0001
,
0000
1000
0000
0010
,
0000
0000
0100
0100
,
0200
0000
0000
0300
,
0000
0000
0010
0010
,
0020
0000
0000
0030
,
0000
0000
1000
1000
,
2000
0000
0000
3000
,
0000
0000
0001
0001
,
0002
0000
0000
0003
,
2002
0000
0000
0000
,
3003
0000
0000
0000
;

//---------------dance-single - ----------------
#NOTES:
     dance-single:
     :
     Medium:
     7:
     0.262,0.342,0.180,0.159,0.000:
0000
0000
0000
0000
,
0000
0000
0000
0000
,
0000
0000
0000
0000
,
0000
0100
0001
1000
,
1001
0001
0000
0100
,
0000
0100
0010
0100
,
0110
1000
0000
0001
,
0000
1000
0100
0010
,
0101
0001
0000
0100
,
0000
0010
1000
0001
,
1001
1000
0000
0010
,
0000
0010
0100
0010
,
0110
0001
0000
1000
,
0000
0001
0010
0100
,
1010
1000
0000
0010
,
0000
0100
0010
1000
,
1001
0001
0000
0100
,
0000
0001
0100
1000
,
0101
0001
0000
1000
,
1001
0000
0001
0010
0100
1000
0010
1000
,
0010
0100
0010
0100
,
0001
1000
0010
1000
,
0001
0100
0001
0100
,
1010
1000
0010
1000
,
0100
0010
0001
0100
,
0102
0103
2010
3010
,
0100
0010
0000
0010
0100
0000
0010
0000
,
0120
0130
0210
0310
,
0010
0001
0100
1000
,
1000
0100
0000
0010
,
0000
0100
0000
0001
,
1002
1003
2001
3001
,
1000
0010
0100
0001
,
1000
0010
0000
0100
,
0000
0000
0000
1000
0000
1000
0000
2000
,
0000
0000
0000
0000
0000
0000
0100
3000
,
0200
0000
0010
0010
0000
0010
0000
0020
,
0300
0000
0000
0000
0000
0000
0001
0030
,
0002
0000
1000
1000
0000
1000
1000
1000
,
0003
0010
0000
0100
0000
0110
0000
0000
,
1001
0000
0001
0100
0000
0010
0000
0002
,
0000
0000
0000
0000
0000
0000
0000
1003
,
1001
0000
1000
0100
0010
0001
0100
0001
,
0100
0010
0100
0010
,
1000
0001
0100
0001
,
1000
0010
1000
0010
,
0101
0001
0100
0001
,
0010
0100
1000
0010
,
2010
3010
0102
0103
,
0010
0100
0000
0100
0010
0000
0100
0000
,
0210
0310
0120
0130
,
0100
1000
0010
0001
,
0001
0010
0000
0100
,
0000
0010
0000
1000
,
2001
3001
1002
1003
,
0001
0100
0010
1000
,
0001
0100
0000
0010
,
0000
0100
0000
0001
,
0002
0000
0000
0010
,
0023
0000
0000
0100
,
0230
0000
0000
1000
,
2300
0000
0000
0001
,
3002
0000
0000
0000
,
1003
1000
0010
1000
,
0001
0000
0100
0000
0000
0000
0001
1000
,
0001
1000
0000
1000
0002
0000
0000
0000
,
0003
0000
0000
0000
;

//---------------dance-single - ----------------
#NOTES:
     dance-single:
     :
     Hard:
     12:
     0.347,0.433,0.180,0.311,0.073: // measure 1
0000
0000
0000
0000
,  // measure 2
0000
0000
0000
0000
,  // measure 3
0000
0000
0000
0000
,  // measure 4
0000
0000
1000
0100
0010
0001
1000
0020
,  // measure 5
0000
1030
0000
0100
,  // measure 6
0000
0000
0001
0100
0000
0100
0000
0020
,  // measure 7
0000
0130
0000
0010
,  // measure 8
0000
0000
0001
0100
1000
0100
0001
0002
,  // measure 9
0000
1003
0000
0000
0000
0000
0010
0000
,  // measure 10
0000
0100
0010
0000
0100
0010
0000
2000
,  // measure 11
0000
3001
0000
0100
,  // measure 12
0000
0000
0000
1000
0000
1000
0000
0200
,  // measure 13
0000
1300
0100
0010
0000
0000
0100
0000
,  // measure 14
0000
0000
0100
0100
0000
0010
0000
0200
,  // measure 15
0000
0310
0000
0110
,  // measure 16
0000
0000
1000
0010
0000
0100
0010
2000
,  // measure 17
0000
3010
0000
0110
0000
0101
0000
0000
,  // measure 18
0000
0000
0100
0010
0000
0100
0000
2000
,  // measure 19
0000
0000
0000
0000
3001
0000
0001
0100
0001
0000
1000
0010
1000
0000
0010
0100
,  // measure 20
0010
0000
1000
0100
0001
0100
1000
0100
,  // measure 21
0002
0000
1003
0010
0000
0100
0000
0010
,  // measure 22
0000
0000
0010
0100
0000
0010
0000
1000
,  // measure 23
0000
0001
0100
1000
0001
2000
0000
3001
,  // measure 24
0000
0000
0000
1000
0010
1000
0000
0001
,  // measure 25
0000
1000
0100
0010
0001
0100
0000
0002
,  // measure 26
0000
0103
0000
0020
0000
0130
0000
0100
,  // measure 27
0010
1000
0000
1000
1000
0000
0010
0001
,  // measure 28
0000
0200
0000
0301
0000
0002
0000
0103
,  // measure 29
0000
0000
0100
0010
0000
0000
0010
2000
,  // measure 30
0000
0000
0000
0000
3010
0000
0010
1000
0010
0000
0100
0001
0100
0000
0001
0100
,  // measure 31
0001
0000
0000
0000
0000
0000
0100
0010
0100
0000
0010
1000
0010
0000
0100
0001
,  // measure 32
0100
0020
0000
0130
0000
2000
0000
3100
,  // measure 33
0000
0000
0000
0010
0000
0000
0000
0101
,  // measure 34
0000
0000
0000
0000
0000
0000
1000
0010
0100
0000
0001
0100
0010
0000
0010
0100
,  // measure 35
0010
0000
0000
0010
0000
0101
0000
0102
,  // measure 36
0000
0013
0100
1000
0000
0000
0000
0000
,  // measure 37
2020
0000
3030
1000
0000
0100
0000
0020
,  // measure 38
0000
0000
0030
0000
,  // measure 39
0001
0000
0001
0100
0000
0100
0001
0010
,  // measure 40
0000
0100
0000
1000
0000
1010
0000
0000
,  // measure 41
1010
0000
0010
1000
0000
0100
0000
2000
,  // measure 42
0000
0000
3000
0000
,  // measure 43
0110
0000
0001
0010
1000
0010
0001
0010
,  // measure 44
2000
0000
3001
0100
0000
0010
0000
0100
,  // measure 45
0000
0000
0100
0010
0000
0100
0000
0001
,  // measure 46
0000
1000
0010
0001
1000
0002
0000
1003
,  // measure 47
0000
0000
0000
0001
0100
0001
0000
1000
,  // measure 48
0000
0001
0010
0100
1000
0010
0000
2000
,  // measure 49
0000
3010
0000
0200
0000
0310
0000
0010
,  // measure 50
0100
0001
0000
0001
0001
0000
0100
1000
,  // measure 51
0000
0020
0000
1030
0000
2000
0000
3010
,  // measure 52
0000
0000
0010
0100
0000
0000
0100
0002
,  // measure 53
0000
0000
0000
0000
0103
0000
0100
0001
0100
0000
0010
1000
0010
0000
1000
0010
,  // measure 54
1000
0000
0000
0000
0000
0000
0010
0100
0010
0000
0100
0001
0100
0000
0010
1000
,  // measure 55
0010
0200
0000
0310
0000
0002
0000
0013
,  // measure 56
0000
0000
0000
0100
0000
0000
0000
1010
,  // measure 57
0000
0000
0000
0000
0000
0000
0001
0100
0010
0000
1000
0010
0100
0000
0100
0010
,  // measure 58
0100
0100
0000
0010
0010
0000
0110
0000
,  // measure 59
0220
0000
0330
1010
,  // measure 60
2020
0000
3030
0101
,  // measure 61
0202
0000
0303
0011
,  // measure 62
0022
0000
0033
1001
,  // measure 63
2002
0000
3003
0110
,  // measure 64
0220
0000
0330
0100
,  // measure 65
0000
1000
0010
1000
0000
0001
0100
0001
,  // measure 66
0000
1001
0000
0110
2002
0000
0000
0000
,  // measure 67
3003
0000
0000
0000
;
