#TITLE:Coconuts;
#SUBTITLE:;
#ARTIST:Kim Petras;
#TITLETRANSLIT:;
#SUBTITLETRANSLIT:;
#ARTISTTRANSLIT:;
#CREDIT:;
#BANNER:Coconuts.png;
#BACKGROUND:Coconuts-bg.png;
#LYRICSPATH:;
#CDTITLE:;
#MUSIC:Coconuts.mp3;
#OFFSET:-0.400;
#SAMPLESTART:4.120;
#SAMPLELENGTH:15.000;
#SELECTABLE:YES;
#BPMS:0.000=112.000;
#STOPS:68.000=2.140
;
#BGCHANGES:;

//---------------dance-single - ----------------
#NOTES:
     dance-single:
     :
     Easy:
     3:
     0.220,0.225,0.050,0.130,0.000:
0000
0000
0000
0000
,
0000
0000
0000
0000
,
0001
0100
0001
0100
,
0010
1000
0010
1000
,
0000
1000
0010
0010
,
0000
0100
0001
0001
,
1000
0010
0100
0010
,
1000
0001
0100
0001
,
0000
0100
0010
0010
,
0000
0010
1000
1000
,
0000
1000
1000
0001
,
0000
0001
0100
0010
,
0000
0100
0010
1000
,
0000
0001
1000
0001
,
0000
0100
0010
1000
,
0000
0010
0100
0010
,
0000
1000
0010
1000
,
1001
0100
0010
2010
,
3000
0010
1000
0010
,
0000
0100
0001
0102
,
0003
0100
0010
1000
,
0000
0001
0100
2001
,
3000
1000
0010
0000
,
0100
0010
0100
0120
,
0030
0100
0010
1000
,
1000
0010
1000
0010
,
0100
0001
0100
0001
,
0000
0001
0100
0100
,
0000
0010
1000
1000
,
0001
0100
0010
0100
,
0001
1000
0010
1000
,
0000
0010
0100
0100
,
0000
0100
0001
0001
,
0002
0000
0103
0000
,
0010
1000
0010
0100
,
0020
0000
0130
0100
,
0001
1000
0010
1000
,
0001
1000
0001
0010
,
0001
0010
1000
0001
,
0000
0001
0010
0001
,
0000
0100
0100
1000
,
2000
0000
0000
0000
,
3020
0000
0230
0000
,
0302
0000
0000
0000
,
2003
0000
3020
0200
,
0330
0000
0000
0000
;

//---------------dance-single - ----------------
#NOTES:
     dance-single:
     :
     Beginner:
     1:
     0.156,0.157,0.040,0.080,0.000:
0000
0000
0000
0000
,
0000
0000
0000
0000
,
0000
0010
0000
0010
,
0000
0100
0000
0100
,
0000
0001
0001
0001
,
0000
1000
1000
1000
,
0000
1000
0000
0001
,
0000
0100
0000
0010
,
0000
0010
0100
0010
,
0000
0100
0010
0100
,
0000
0010
0000
1000
,
0000
0001
0000
0100
,
0000
0001
0000
1000
,
0000
0010
0000
0100
,
0000
0001
0000
1000
,
0000
0010
0000
1000
,
0000
0100
0000
1000
,
1000
0001
0000
0001
,
0000
0100
0000
0010
,
0000
1000
0000
0100
,
0000
1000
0000
0001
,
0000
0100
0000
0001
,
0000
0100
0000
0010
,
0020
0000
0030
0000
,
0200
0000
0300
0000
,
0000
0100
0001
0100
,
0000
0010
1000
0010
,
0000
0100
0100
0100
,
0000
0010
0010
0010
,
0000
1000
0010
1000
,
0000
0001
1000
0001
,
0000
0001
0001
0001
,
0000
1000
1000
1000
,
0000
1000
0000
1000
,
0000
0010
0000
1000
,
0000
0001
0000
0100
,
0000
0010
0000
0100
,
0000
0001
0100
0001
,
0000
1000
0010
1000
,
0000
1000
1000
1000
,
0000
0001
0001
0001
,
2002
0000
0000
0000
,
3003
0000
0110
0000
,
0220
0000
0000
0000
,
0330
0000
2002
0000
,
3003
0000
0000
0000
;

//---------------dance-single - ----------------
#NOTES:
     dance-single:
     :
     Medium:
     6:
     0.251,0.270,0.020,0.100,0.005:
0000
0000
0000
0000
,
0000
0000
0000
0000
,
1000
0000
0010
0010
0000
0000
0100
0000
,
0001
0000
1000
0000
0010
0000
1000
1000
,
0000
1000
0001
0100
,
0000
0100
0001
1000
,
0010
0000
0100
0100
0000
0000
0010
0000
,
1000
0000
0001
0000
0100
0000
0001
0001
,
0000
0010
0100
0010
,
0000
0100
0010
0100
,
1001
0000
0000
0000
1000
0100
0001
0100
,
1000
0000
1000
0001
,
0100
0000
0000
0000
0001
1000
0010
1000
,
0001
0000
0010
0100
,
0001
0000
0000
0000
1000
0010
0100
0010
,
0100
0000
0010
0100
,
0010
0000
0000
0000
0100
0010
0001
1000
,
0100
1000
0010
1000
,
0001
0100
0010
0100
,
0001
0100
0010
0100
,
1000
0010
1000
0000
0001
0100
0010
0000
,
1000
0001
0100
0001
,
0100
0010
1000
0001
,
0100
0001
0100
0010
1000
0010
0100
0000
,
1000
0000
0001
1000
0000
0000
0010
0000
0100
0000
0000
0000
0010
0000
0000
0000
,
0001
0000
0100
0100
0000
0000
0010
0000
,
1000
0000
0001
0000
0100
0000
0001
0001
,
0000
0001
1000
0010
,
0000
0010
1000
0001
,
0100
0000
0010
0010
0000
0000
0100
0000
,
0001
0000
1000
0000
0010
0000
1000
1000
,
0000
0100
0010
0100
,
0000
0010
0100
0010
,
2000
0000
0000
3010
0000
0000
0100
0000
,
0001
0100
0010
1000
,
0020
0000
0000
0130
0000
0000
1000
0000
,
0010
0100
0001
0100
,
1000
0000
0010
0100
0000
0000
0010
0000
,
1000
0000
0001
0000
0100
0000
0001
1000
,
0000
0010
0010
0100
,
0000
0100
0100
0001
,
2002
0000
0000
3003
,
2000
0000
3200
0000
,
0302
0000
0000
0003
,
0002
0000
2003
0020
,
3030
0000
0000
0000
;

//---------------dance-single - ----------------
#NOTES:
     dance-single:
     :
     Hard:
     9:
     0.360,0.337,0.080,0.130,0.070: // measure 1
0000
0000
0000
0000
,  // measure 2
0000
0000
0000
1002
,  // measure 3
1003
0000
0010
1000
0010
0000
0100
0000
,  // measure 4
0001
1000
0100
1000
0001
0000
0100
0001
,  // measure 5
1000
0000
0000
0010
1000
0010
1000
0000
,  // measure 6
0000
0100
0001
0100
0001
0000
2010
0000
,  // measure 7
3010
0000
0100
0010
0100
0000
0010
0000
,  // measure 8
0001
0100
1000
0100
0001
0000
0010
0100
,  // measure 9
0001
0000
0000
1000
0100
0010
0001
0000
,  // measure 10
0000
0001
0010
0100
1000
0000
0000
0000
,  // measure 11
0010
0000
0000
0010
0000
0000
0010
0000
0100
0000
0010
0000
1000
0000
0010
0000
,  // measure 12
0100
0000
0000
0100
0000
0000
0100
0000
0001
0000
0100
0000
1000
0000
0010
0000
,  // measure 13
0001
0000
0000
0001
0000
0000
0001
0000
1000
0000
0001
0000
0100
0000
0000
0000
,  // measure 14
1000
0000
0000
1000
0000
0000
1000
0000
0010
0000
0100
0000
0010
0000
0000
0000
,  // measure 15
0001
0000
0000
0100
0000
0000
0010
0000
1000
0000
0010
0000
0100
0000
0000
0000
,  // measure 16
1000
0000
0000
0010
0000
0000
0100
0000
0001
0000
1000
0000
0010
0000
0000
0000
,  // measure 17
0100
0000
0010
0100
0000
0000
0100
0000
0010
0000
0001
0000
0100
0000
0000
0000
,  // measure 18
1001
0000
1000
0010
0100
0010
1000
0000
,  // measure 19
0010
0100
0001
0100
,  // measure 20
0001
0000
0001
0100
1000
0100
0001
0000
,  // measure 21
0001
0000
0010
0100
0000
0000
1000
0000
0010
0000
0100
0000
0001
0000
0000
0000
,  // measure 22
0000
0010
0100
0001
1000
0010
0100
0000
,  // measure 23
0100
0000
0010
1000
0000
1000
0010
0000
1010
0000
0000
0000
0010
0000
0000
0000
,  // measure 24
0000
0100
0010
1000
0001
0100
0010
0000
,  // measure 25
0010
0000
0100
0001
0000
0000
0010
0000
0101
0000
0000
0000
2001
0000
0000
0000
,  // measure 26
3001
0000
0100
0001
0100
0000
0010
0000
,  // measure 27
1000
0001
0010
0001
1000
0000
0010
1000
,  // measure 28
0001
0000
0000
0100
0001
0100
0001
0000
,  // measure 29
0000
0010
1000
0010
1000
0000
0102
0000
,  // measure 30
0103
0000
0010
0100
0010
0000
0100
0000
,  // measure 31
1000
0010
0001
0010
1000
0000
0100
0010
,  // measure 32
1000
0000
0000
0001
0010
0100
1000
0000
,  // measure 33
0000
1000
0100
0010
0001
0100
0100
0020
,  // measure 34
0000
0000
0000
0130
0000
0000
0100
0010
,  // measure 35
0100
0000
0000
0010
0000
0000
1000
0000
0000
0000
0010
0000
0010
0000
0200
0000
,  // measure 36
0000
0000
0000
0310
0000
0000
0010
0100
,  // measure 37
0010
0000
0000
0100
0000
0000
0001
0000
0000
0000
0000
0000
0102
0000
0000
0000
,  // measure 38
0103
0000
0000
0010
0000
0000
0100
0000
0001
0000
1000
0000
0010
0000
1000
0000
,  // measure 39
0001
0010
1000
0010
0001
0000
1000
0010
,  // measure 40
1000
0000
0000
1000
0100
0010
0001
0000
,  // measure 41
0000
0100
0010
1000
0001
0000
0100
0000
,  // measure 42
0002
0000
0000
0000
,  // measure 43
0203
0000
0320
0000
,  // measure 44
2030
0000
0000
0000
,  // measure 45
3020
0000
0000
0000
0100
0100
0200
0000
,  // measure 46
0330
0000
0000
0000
;
