#TITLE:Church of Hell;
#SUBTITLE:;
#ARTIST:Dimatik;
#TITLETRANSLIT:;
#SUBTITLETRANSLIT:;
#ARTISTTRANSLIT:;
#CREDIT:;
#BANNER:Church of Hell.png;
#BACKGROUND:Church of Hell-bg.png;
#LYRICSPATH:;
#CDTITLE:;
#MUSIC:Church of Hell.mp3;
#OFFSET:-0.060;
#SAMPLESTART:62.400;
#SAMPLELENGTH:15.000;
#SELECTABLE:YES;
#BPMS:0.000=150.000;
#STOPS:144.000=4.820
;
#BGCHANGES:;

//---------------dance-single - ----------------
#NOTES:
     dance-single:
     :
     Easy:
     6:
     0.244,0.383,0.055,0.111,0.000:
0000
0000
0000
0000
,
0000
0000
0000
0000
,
0000
0000
0000
0000
,
0000
0000
0000
0000
,
0000
0000
0000
0000
,
0000
0000
0000
0000
,
0000
0000
0000
0000
,
0000
0000
0000
0000
,
1000
0010
1000
0000
,
1000
0010
1000
0000
,
0001
0100
0001
0000
,
0001
0100
0001
0000
,
0100
0010
0100
0000
,
0010
0100
0010
0000
,
1000
0100
0010
0000
,
0100
0010
0001
0000
,
0002
0000
0203
0000
,
0302
0000
2003
0000
,
3020
0000
0000
0000
,
0230
0000
0000
0000
,
0320
0000
2030
0000
,
3020
0000
0230
0000
,
0302
0000
0000
0000
,
2003
0000
0010
0000
,
3010
1000
1000
0000
,
0001
0001
0010
0000
,
0001
0100
1000
0000
,
1000
0010
0001
0000
,
0100
0010
0100
0000
,
0010
1000
0010
0000
,
1000
0100
0001
0000
,
0001
0010
1000
0000
,
0010
0001
1000
0001
,
0010
1000
0001
1000
,
0010
1000
0001
0100
,
0001
0010
0100
1000
,
2020
3030
0000
0000
0000
0000
0000
0000
0000
0000
0000
0000
0000
0000
0000
0000
1000
0000
0000
0000
0000
0000
0000
0000
0000
0000
0000
0000
0000
0000
0000
0000
1000
0000
0000
0000
0000
0000
0000
0000
0000
0000
0000
0000
0000
0000
0000
0000
1000
0000
0000
0000
0000
0000
0000
0000
0000
0000
0000
0000
0000
0000
0000
0000
,
1000
1000
1000
1000
,
1001
0001
0001
0001
,
0001
0001
0001
0001
,
0101
0100
0100
0100
,
0100
0100
0100
0100
,
0110
0010
0010
0010
,
0010
0010
0010
0010
,
1010
0010
1000
0001
,
0100
0010
0100
0010
,
1000
0001
0100
0001
,
0010
0001
0001
1000
,
1010
1000
0010
0100
,
0001
0100
0010
1000
,
0010
0001
0010
0100
,
0010
0001
0010
0100
,
0101
0001
0000
0010
,
0000
0001
0000
1000
,
1000
0100
0000
1000
,
0000
0010
0000
0100
,
0010
0100
0000
0010
,
0000
0100
0000
0001
,
0010
1000
0000
0001
,
0000
0100
0000
0001
,
1000
1000
0000
0001
,
0000
0100
0000
0100
,
0001
1000
0000
0010
,
0000
0100
0000
0010
,
0100
0001
0000
0100
,
0000
0001
0000
1000
,
0001
0001
0000
1000
,
0000
0100
0000
1000
,
1000
0100
0000
1000
,
0000
0001
0000
1000
,
0001
0010
0000
0001
,
0000
0100
0000
0010
,
0100
0010
0000
0100
,
0000
0010
0000
1000
,
0100
0001
0000
1000
,
0000
0010
0000
1000
,
0001
0001
0000
1000
,
0000
0010
0000
0010
,
1000
0001
0000
0100
,
0000
0010
0000
0100
,
0010
1000
0000
0010
,
0000
1000
0000
0001
,
1000
1000
0000
0001
,
0000
0010
0000
0001
,
2002
0000
0000
0000
,
3003
0000
0000
0000
;

//---------------dance-single - ----------------
#NOTES:
     dance-single:
     :
     Beginner:
     3:
     0.186,0.295,0.021,0.118,0.000:
0000
0000
0000
0000
,
0000
0000
0000
0000
,
0000
0000
0000
0000
,
0000
0000
0000
0000
,
0000
0000
0000
0000
,
0000
0000
0000
0000
,
0000
0000
0000
0000
,
0000
0000
0000
0000
,
0000
0010
0000
0010
,
0000
0010
0000
0010
,
0000
0100
0000
0100
,
0000
0100
0000
0100
,
0000
0001
0000
1000
,
0000
0001
0000
1000
,
0000
1000
0000
0001
,
0000
0100
0000
0010
,
0020
0000
0000
0030
,
0000
0000
0000
0000
,
2000
0000
0000
3000
,
0000
0000
0000
0000
,
0002
0000
0000
0003
,
0000
0000
0000
0000
,
2000
0000
0000
3000
,
0000
0000
0000
0000
,
0001
0001
0001
0000
,
0100
0100
0100
0000
,
0001
0001
0001
0000
,
1000
1000
1000
0000
,
0010
0010
0010
0000
,
1000
1000
1000
0000
,
0100
0100
0100
0000
,
0010
0010
0010
0000
,
0100
0100
0100
0100
,
0100
0100
0100
0000
,
0010
0010
0010
0010
,
0010
0010
0010
0000
,
2002
3003
0000
0000
0000
0000
0000
0000
0000
0000
0000
0000
0000
0000
0000
0000
1000
0000
0000
0000
0000
0000
0000
0000
0000
0000
0000
0000
0000
0000
0000
0000
1000
0000
0000
0000
0000
0000
0000
0000
0000
0000
0000
0000
0000
0000
0000
0000
1000
0000
0000
0000
0000
0000
0000
0000
0000
0000
0000
0000
0000
0000
0000
0000
,
0000
0010
0010
0010
,
0000
0100
0100
0100
,
0000
0001
0001
0001
,
0000
0010
0000
0010
,
0000
1000
0000
0001
,
0000
1000
0000
0010
,
0000
0100
0000
0110
,
0000
1000
0001
1000
,
0000
0001
1000
0001
,
0000
0100
0010
0100
,
0000
0010
0100
0010
,
0000
0001
0010
0001
,
0000
1000
0100
1000
,
0000
1000
0001
1000
,
0000
0001
1000
0001
,
2002
3003
0000
0010
,
0000
1000
0000
0100
,
0200
0300
0000
0010
,
0000
0100
0000
0010
,
0020
0030
0000
1000
,
0000
0001
0000
0001
,
0002
0003
0000
1000
,
0000
0010
0000
1000
,
2000
3000
0000
0100
,
0000
0001
0000
0010
,
0020
0030
0000
0100
,
0000
0010
0000
0100
,
0200
0300
0000
0001
,
0000
1000
0000
1000
,
2000
3000
0000
0001
,
0000
0100
0000
0001
,
0002
0003
0000
0100
,
0000
0010
0000
1000
,
0000
0001
0000
0100
,
0000
0010
0000
0100
,
0000
0001
0000
1000
,
0000
1000
0000
0001
,
0000
0001
0000
0100
,
0000
0010
0000
1000
,
0000
0100
0000
1000
,
0000
0001
0000
0001
,
0000
0100
0000
0001
,
0000
1000
0000
1000
,
0000
0010
0000
1000
,
0000
0001
0000
0100
,
0000
0001
0000
1000
,
0000
0010
0000
0100
,
0200
0000
0000
0000
,
0300
0000
0000
0000
;

//---------------dance-single - ----------------
#NOTES:
     dance-single:
     :
     Medium:
     9:
     0.346,0.472,0.118,0.111,0.000:
0000
0000
0000
0000
,
0000
0000
0000
0000
,
0000
0000
0000
0000
,
0000
0000
0000
0000
,
0000
0000
0000
0000
,
0000
0000
0000
0000
,
0000
0000
0000
0000
,
0000
0000
0000
0000
,
0001
0000
0001
0000
0001
0000
0001
1000
,
0010
0000
0010
0000
0010
0000
0010
0001
,
0100
0000
0100
0000
0100
0000
0100
0010
,
1000
0000
1000
0000
1000
0000
1000
0001
,
1000
0000
0010
0000
1000
0000
0001
0010
,
0001
0000
0100
0000
0010
0000
1000
0100
,
1000
0000
0010
0000
0100
0000
0010
1000
,
0010
0000
0100
0000
0010
0000
0001
0010
,
2000
0000
3002
0000
,
0203
0000
0302
0000
,
0023
0000
0000
0000
,
0032
0000
0000
0000
,
0023
0000
0230
0000
,
2300
0000
3200
0000
,
0320
0000
0000
0000
,
0032
0000
1000
0000
,
1003
0000
0010
1000
0010
0000
1000
0000
,
0001
0000
0001
0100
0001
0000
0001
0000
,
0100
0000
0010
0100
0010
0000
0100
0000
,
0010
0000
0010
1000
0001
0000
0100
0000
,
0100
0000
0100
0001
1000
0000
1000
0000
,
0001
0000
0100
0010
1000
0000
0010
0000
,
1000
0000
0001
1000
0010
0000
1000
0000
,
0100
0000
1000
0100
0001
0000
0100
0000
,
0001
0010
0001
0000
0100
0010
0100
0000
,
1000
0100
1000
0000
1000
0010
1000
0000
,
0001
0100
0001
0000
1000
0010
1000
0000
,
0001
1000
0001
1000
0001
1000
0001
1000
,
2002
3003
0000
0000
0000
0000
0000
0000
0000
0000
0000
0000
0000
0000
0000
0000
0010
0000
0000
0000
0000
0000
0000
0000
0100
0000
0000
0000
0000
0000
0000
0000
0010
0000
0000
0000
0000
0000
0000
0000
0000
0000
0000
0000
0000
0000
0000
0000
0100
0000
0000
0000
0000
0000
0000
0000
0000
0000
0000
0000
0000
0000
0000
0000
,
0001
0000
1000
0010
1000
0000
0001
0000
,
0001
0000
0100
0010
0100
0000
0001
0000
,
1000
0100
0010
0001
0100
0010
1000
0001
,
1000
0000
0100
0010
0100
0000
0010
0000
,
1000
0000
0001
0100
0001
0000
1000
0000
,
1000
0000
0010
0100
0010
0000
1000
0000
,
0001
0010
0100
1000
0010
0100
0001
1000
,
0001
0000
1000
0001
1000
0000
0001
0000
,
0010
0000
0100
1000
0100
0000
0010
0000
,
0010
0000
0001
1000
0001
0000
0010
0000
,
0100
0001
1000
0010
0001
1000
0100
0010
,
0100
0000
0001
1000
0001
0000
1000
0000
,
0100
0000
0010
0001
0010
0000
0100
0000
,
0100
0000
1000
0001
1000
0000
0100
0000
,
0010
1000
0001
0100
1000
0001
0010
0100
,
0010
0100
0001
1000
,
0100
1000
0010
0100
,
1001
0100
0010
1000
,
0010
0100
0001
0100
,
1010
1000
0001
0100
,
0001
1000
0010
0100
,
1001
0010
1000
0010
,
0001
0010
1000
0010
,
0101
0001
0100
1000
,
0100
0001
1000
0010
,
0110
1000
0100
0010
,
0001
0010
0100
1000
,
1100
1000
0100
0010
,
1000
0001
0100
0001
,
1001
0100
0001
0100
,
1000
0001
0100
0010
,
0110
0010
0000
1000
,
0000
0001
0000
0100
,
0110
0010
0000
1000
,
0000
0001
0000
0010
,
1001
0100
0000
0001
,
0000
1000
0000
0001
,
0101
0100
0000
0001
,
0000
0100
0000
0010
,
1010
1000
0000
1000
,
0000
0010
0000
0100
,
0110
0010
0000
0100
,
0000
0001
0000
1000
,
1001
0001
0000
0001
,
0000
1000
0000
0001
,
0011
0001
0000
1000
,
0000
0001
0000
1000
,
2200
0000
0000
0000
,
3300
0000
0000
0000
;

//---------------dance-single - ----------------
#NOTES:
     dance-single:
     :
     Hard:
     15:
     0.513,0.737,0.125,0.153,0.166: // measure 1
0000
0000
0000
0000
,  // measure 2
0000
0000
0000
0000
,  // measure 3
0000
0000
0000
0000
,  // measure 4
0000
0000
0000
0000
,  // measure 5
0000
0000
0000
0000
,  // measure 6
0000
0000
0000
0000
,  // measure 7
0000
0000
0000
0000
,  // measure 8
0000
0000
0000
0000
,  // measure 9
1000
0000
0010
0000
1000
0000
0010
1000
,  // measure 10
0001
0000
0100
0000
0001
0000
0100
0001
,  // measure 11
0010
0000
0100
0000
0001
0000
0010
1000
,  // measure 12
0100
0000
0010
0000
0001
0000
0100
0010
,  // measure 13
2000
0000
0010
0000
3010
0000
1000
0001
,  // measure 14
1000
0000
0001
0000
0100
0000
0001
0100
,  // measure 15
0001
0000
0100
0000
0010
0000
1000
0001
,  // measure 16
0100
0000
0010
0000
1000
0000
0010
0100
,  // measure 17
0002
0000
0203
0000
,  // measure 18
0302
0000
2003
0000
,  // measure 19
3002
0000
0000
0000
,  // measure 20
2003
0000
0000
3000
,  // measure 21
2010
0000
3020
0000
,  // measure 22
0230
0000
0320
0000
,  // measure 23
2030
0000
0000
0000
,  // measure 24
3002
0000
1000
0000
,  // measure 25
1003
0000
0000
1000
0010
0000
1000
0000
0010
0000
0000
0010
0100
0000
0010
0000
,  // measure 26
0100
0000
0000
0001
0010
0000
0001
0000
0010
0000
0000
0100
1000
0000
0100
0000
,  // measure 27
1000
0000
0000
1000
0010
0000
1000
0000
0010
0000
0000
0001
0100
0000
0001
0000
,  // measure 28
0100
0000
0000
0100
0010
0000
0100
0000
0010
0000
0000
0010
0100
0000
0010
0000
,  // measure 29
0100
0000
0000
0001
0100
0000
0001
0000
0100
0000
0000
0100
0010
0000
0100
0000
,  // measure 30
0010
0000
0000
1000
0100
0000
1000
0000
0100
0000
0000
0010
0001
0000
0010
0000
,  // measure 31
0001
0000
0000
0001
0100
0000
0001
0000
0100
0000
0000
1000
0010
0000
1000
0000
,  // measure 32
0010
0000
0000
0010
0100
0000
0010
0000
0100
0000
0000
0100
0010
0000
0100
0000
,  // measure 33
0010
0001
0010
0100
1000
0010
0100
0001
,  // measure 34
1000
1000
0100
0010
0001
0100
0010
1000
,  // measure 35
0001
0100
0001
0100
0010
1000
0010
1000
,  // measure 36
0001
1000
0001
1000
0001
1000
0001
1000
0001
0100
0010
0100
0010
0100
0010
0100
,  // measure 37
0020
0030
0000
0000
0000
0000
0000
0000
0000
0000
0000
0000
0000
0000
0000
0000
0010
0000
0000
0000
0000
0000
0000
0000
1000
0000
0000
0000
0000
0000
0000
0000
0010
0000
0000
0000
0000
0000
0000
0000
0100
0000
0000
0000
0000
0000
0000
0000
0020
0000
0000
0000
0000
0000
0000
0000
0000
0000
0000
0000
0000
0000
0000
0000
,  // measure 38
1030
0100
1000
0100
0001
1000
0020
0000
,  // measure 39
1030
0000
0010
0001
0010
1000
0020
0000
,  // measure 40
1030
0000
0100
0000
0010
0000
0001
0000
0100
0000
0000
0010
0000
0000
1000
0000
,  // measure 41
0001
0000
0100
0001
0100
0010
0200
0000
,  // measure 42
0301
0010
0001
0010
1000
0001
0200
0000
,  // measure 43
0301
0000
0100
1000
0100
0001
0200
0000
,  // measure 44
0301
0010
0100
1000
0010
0100
0010
0000
,  // measure 45
1000
0000
0010
1000
0010
0000
1000
0000
0100
0000
0010
0100
0010
0000
0100
0000
,  // measure 46
1000
0000
1000
0001
0100
0000
0010
0000
0100
0000
0010
0100
0010
0000
0100
0000
,  // measure 47
0001
0000
0010
0100
0001
0000
0100
0000
0010
0000
1000
0010
0100
0000
0010
0000
,  // measure 48
1000
0000
0001
1000
0001
0000
0100
0000
0001
0000
0000
1000
0000
0000
1000
0000
,  // measure 49
0001
0000
0100
0001
0100
0000
0001
0000
0010
0000
0100
0010
0100
0000
0010
0000
,  // measure 50
0001
0000
0001
1000
0010
0000
0100
0000
0010
0000
0100
0010
0100
0000
0010
0000
,  // measure 51
1000
0000
0100
0010
1000
0000
0010
0000
0100
0000
0001
0100
0010
0000
0100
0000
,  // measure 52
0001
0000
1000
0001
1000
0000
0010
0000
1000
0000
0001
0000
1000
0000
0000
0000
,  // measure 53
1001
0000
0001
1000
0100
1000
0010
0100
,  // measure 54
0001
0010
0100
0010
0001
0100
0001
0000
,  // measure 55
0101
0000
0010
0001
0010
1000
0010
0001
,  // measure 56
0010
1000
0010
0001
0010
1000
0010
0000
,  // measure 57
1010
0000
1000
0100
0001
0100
1000
0100
,  // measure 58
0001
0100
1000
0100
0001
0100
1000
0000
,  // measure 59
1100
0100
0001
0010
1000
0100
0001
0010
,  // measure 60
1000
0100
0001
0010
1000
0100
0001
0000
,  // measure 61
1001
0000
1000
0001
0010
0001
0100
0010
,  // measure 62
1000
0100
0010
0100
1000
0010
1000
0000
,  // measure 63
1010
0000
0100
1000
0100
0001
0100
1000
,  // measure 64
0100
0001
0100
1000
0100
0001
0100
0000
,  // measure 65
0101
0000
0001
0010
1000
0010
0001
0010
,  // measure 66
1000
0010
0001
0010
1000
0010
0001
0000
,  // measure 67
0011
0010
1000
0100
0001
0010
1000
0100
,  // measure 68
0001
0010
1000
0100
0001
0010
1000
0000
,  // measure 69
1010
1000
0010
1000
,  // measure 70
0001
0100
0001
0100
,  // measure 71
0101
0001
1000
0010
,  // measure 72
0100
0010
1000
0001
,  // measure 73
1001
0001
1000
0001
,  // measure 74
0100
0001
1000
0010
,  // measure 75
0110
0100
0010
1000
,  // measure 76
0100
0000
0010
0100
0010
0100
0010
0000
0000
0000
0100
0010
0100
0010
0100
0000
,  // measure 77
0101
0001
0100
0001
,  // measure 78
1000
0001
0100
0001
,  // measure 79
1100
1000
1000
0010
,  // measure 80
0100
0010
1000
0001
,  // measure 81
0101
0001
1000
0100
,  // measure 82
0010
0001
0010
0100
,  // measure 83
1001
0010
0100
0010
,  // measure 84
0100
0000
0001
0100
0001
0100
0001
0000
0000
0000
1000
0010
1000
0010
1000
0000
,  // measure 85
2002
0000
0000
0000
,  // measure 86
3003
0000
0000
0000
;
