#TITLE:Ching Ching;
#SUBTITLE:;
#ARTIST:Wolfgang Gartner;
#TITLETRANSLIT:;
#SUBTITLETRANSLIT:;
#ARTISTTRANSLIT:;
#CREDIT:;
#BANNER:Ching Ching.png;
#BACKGROUND:Ching Ching-bg.png;
#LYRICSPATH:;
#CDTITLE:;
#MUSIC:Ching Ching.mp3;
#OFFSET:-0.060;
#SAMPLESTART:96.140;
#SAMPLELENGTH:15.000;
#SELECTABLE:YES;
#BPMS:0.000=125.000;
#STOPS:;
#BGCHANGES:;

//---------------dance-single - ----------------
#NOTES:
     dance-single:
     :
     Easy:
     4:
     0.205,0.252,0.061,0.000,0.000:
0000
0000
0000
0000
,
0000
0000
0000
0000
,
1001
0000
0010
0000
,
0100
0000
0010
0000
,
0100
0000
1000
0000
,
0100
0000
0010
0000
,
1001
0000
0001
0000
,
0100
0000
0010
0000
,
0100
0000
0010
0000
,
1000
0000
0010
0000
,
1010
0000
0010
0000
,
1000
0000
0001
0000
,
0100
0000
0001
0000
,
0100
0000
0010
0000
,
0110
0000
0000
0100
0010
0000
0000
0000
,
1000
0000
1000
0000
,
0001
0000
0100
0000
,
0001
0000
0100
0000
,
0010
0100
0010
0000
,
1000
0001
1000
0000
,
0001
0100
0010
0000
,
1000
0010
0100
0000
,
1000
0100
0010
0000
,
0100
0010
0001
0000
,
1000
0001
1000
0010
,
1000
0100
0010
0001
,
1001
0000
0010
0000
,
1000
0010
1000
0000
,
0100
0001
0010
0000
,
0001
0010
0100
0000
,
0010
0000
0000
0100
0010
0000
0000
0000
,
1000
0010
0100
0000
,
0010
0100
0001
0010
,
0100
1000
0010
1000
,
1010
0000
0010
0000
,
0100
0010
0100
0000
,
0010
0000
1000
0001
,
1000
0000
0010
0000
,
0010
1000
0010
0000
,
0100
0000
0001
0010
,
0100
0000
0010
0000
,
1000
0100
0010
0000
,
1000
0000
0001
1000
,
0001
0000
0100
0000
,
0010
0100
0010
0000
,
0100
0000
0010
0100
,
0010
0000
0000
0100
0100
0000
0000
0000
,
0010
1000
0001
0000
,
0100
0000
0001
0010
,
0100
0000
0010
0000
,
0100
0010
0100
0000
,
0001
1000
0001
0000
,
1000
0010
0100
0000
,
0001
0100
0010
0000
,
0001
0010
0100
0000
,
0010
0100
1000
0000
,
0001
1000
0001
0100
,
0001
0010
0100
1000
,
1001
0000
0100
0000
,
0001
0100
0001
0000
,
0010
1000
0100
0000
,
1000
0100
0010
0000
,
0100
0010
0100
0010
,
0001
0100
0010
0100
,
0100
0010
1000
0100
,
0010
0001
0100
1001
;

//---------------dance-single - ----------------
#NOTES:
     dance-single:
     :
     Beginner:
     1:
     0.148,0.176,0.046,0.000,0.000:
0000
0000
0000
0000
,
0000
0000
0000
0000
,
0110
0000
0000
0000
,
1000
0000
0000
0000
,
0001
0000
0000
0000
,
1000
0000
0000
0000
,
1001
0000
0000
0000
,
0010
0000
0000
0000
,
0001
0000
0000
0000
,
1000
0000
0000
0000
,
1001
0000
0000
0000
,
0010
0000
0000
0000
,
0100
0000
0000
0000
,
0001
0000
0000
0000
,
0110
0000
0000
0000
,
0001
0000
0000
0000
,
0100
0000
0000
0000
,
0001
0000
0000
0000
,
0100
0100
0100
0000
,
0010
0000
0010
0000
,
1000
1000
1000
0000
,
0001
0000
0001
0000
,
0010
0010
0010
0000
,
1000
0000
0001
0000
,
0001
0001
0001
0000
,
1000
0000
0010
0000
,
0100
0100
0100
0000
,
0010
0000
0100
0000
,
1000
1000
1000
0000
,
0010
0000
0100
0000
,
1000
1000
1000
0000
,
0001
0000
0100
0000
,
0001
0001
0001
0000
,
0100
0000
0010
0000
,
0110
0000
0100
0000
,
0010
0000
1000
0000
,
0001
0000
1000
0000
,
0001
0000
0010
0000
,
0100
0000
1000
0000
,
0100
0000
0010
0000
,
0001
0000
1000
0000
,
0010
0000
1000
0000
,
1010
0000
1000
0000
,
0010
0000
0100
0000
,
0010
0000
0100
0000
,
0010
0000
0100
0000
,
0001
0000
1000
0000
,
0010
0000
1000
0000
,
0001
0000
0100
0000
,
0001
0000
1000
0000
,
0010
0010
0010
0000
,
0100
0000
0100
0000
,
0001
0001
0001
0000
,
1000
0000
1000
0000
,
0100
0100
0100
0000
,
0001
0000
1000
0000
,
1000
1000
1000
0000
,
0001
0000
0100
0000
,
0010
0010
0010
0000
,
0100
0000
0010
0000
,
0001
0001
0001
0000
,
0100
0000
0010
0000
,
0001
0001
0001
0000
,
1000
0000
0010
0000
,
1000
1000
1000
0000
,
0010
0000
0100
0100
;

//---------------dance-single - ----------------
#NOTES:
     dance-single:
     :
     Medium:
     7:
     0.254,0.277,0.038,0.031,0.000:
0000
0000
0000
0000
,
0000
0000
0000
0000
0000
0000
0000
0010
,
0100
0000
0000
1000
,
0001
1000
0100
0010
,
0001
1000
0001
0000
0000
0000
0000
0000
,
0100
0000
0000
0000
0000
0000
0010
0100
,
0010
0100
0010
1000
,
0010
0100
0001
0100
,
0010
1000
0010
1000
,
0001
0000
0100
0000
0010
0000
0100
0010
,
0100
0010
1000
0100
,
0010
0001
1000
0010
,
1000
0001
0100
0010
,
0100
0000
0001
0000
1000
0000
0001
1000
,
0001
0000
0000
1000
0001
0000
0000
0000
,
1000
1000
0001
0100
,
0010
0100
0001
0100
,
0010
1000
0010
0100
,
0120
0000
0000
0000
1030
0010
1000
0000
,
1000
0001
0100
0000
,
0010
0100
0010
1000
,
0100
0010
0001
0100
,
0020
0000
0000
0000
1030
0010
1000
0000
,
0001
1000
0001
0100
,
0001
0010
0001
0100
,
0010
0000
1000
0000
0100
0000
0010
0001
,
1001
0000
0001
1000
,
0010
1000
0001
0100
,
0001
1000
0010
0100
,
0010
1000
0100
0010
,
0001
0000
1000
0001
1000
0000
0100
0000
,
0010
0001
1000
0010
,
1000
0001
0100
0010
,
1000
0000
0010
0000
0100
0000
0010
0100
,
0100
0000
0010
0000
,
1000
0000
0001
0000
,
0100
0000
0001
0000
,
0001
0000
1000
0000
,
0100
0000
0010
0000
,
1000
0000
0001
0000
,
0100
0000
0010
0000
,
0100
0000
0001
0000
,
1001
0000
0001
0000
,
0100
0000
0010
0000
,
0100
0000
0010
0000
,
1000
0000
0001
0000
,
1000
0000
0000
1000
0001
0000
0000
0000
,
1000
0000
0010
0000
,
0100
0000
0010
0000
,
0100
0000
0001
0000
,
0210
0000
0000
0000
0301
0100
0001
0000
,
0001
1000
0010
0000
,
0100
0010
0100
0001
,
0010
0100
1000
0010
,
0200
0000
0000
0000
0301
0100
0001
0000
,
1000
0001
1000
0010
,
1000
0100
1000
0010
,
0100
0000
0001
0000
0010
0000
0100
1000
,
1001
0000
1000
0001
,
0100
0001
1000
0010
,
1000
0001
0100
0010
,
0100
0001
0010
0100
,
1000
0001
0001
0010
,
0100
1000
0001
0100
,
0001
1000
0010
0100
,
0001
0100
0010
0100
;

//---------------dance-single - ----------------
#NOTES:
     dance-single:
     :
     Hard:
     10:
     0.388,0.377,0.092,0.107,0.145: // measure 1
0000
0000
0000
0000
,  // measure 2
0000
0000
0000
0000
0000
0000
0000
1000
,  // measure 3
0010
0000
0000
1000
,  // measure 4
0100
0000
0010
0000
0001
0000
0001
1000
,  // measure 5
0000
1000
0001
0000
0000
0100
0010
0100
,  // measure 6
0000
0000
0010
0000
0100
0000
0010
0000
0000
0000
1000
0000
0010
0000
1000
0100
,  // measure 7
0000
0001
0010
0100
,  // measure 8
1000
0000
0001
0000
1000
0000
0000
0000
0010
0000
0000
0010
0100
0000
0000
0000
,  // measure 9
0001
0000
0000
0001
0100
0000
0000
0000
1000
0000
0000
0000
1000
0000
0000
0000
,  // measure 10
0010
0000
1000
0000
0001
0000
0100
0010
,  // measure 11
0001
0000
0000
0000
0001
0000
0000
0000
0001
0000
0000
0000
0100
0000
0000
0010
,  // measure 12
0100
0000
0000
0010
0100
0000
0000
0000
0010
0000
0100
0000
1000
0000
0001
0000
,  // measure 13
1000
0001
0100
0000
0010
0100
0010
0100
,  // measure 14
0000
0000
0000
0000
0010
0000
0000
0000
1000
0000
0010
0000
0010
1000
0001
0000
,  // measure 15
1000
0001
1000
0001
0100
0000
0010
0000
,  // measure 16
1000
0000
0000
1000
0010
0000
0000
0100
0001
0000
0000
0000
0001
0000
0000
0000
,  // measure 17
0010
0000
0100
1000
0000
0000
0100
0010
,  // measure 18
0000
0000
0000
0000
1000
0000
0001
0100
0000
0100
0001
0000
0001
1000
0010
0000
,  // measure 19
0200
0000
0010
0000
0310
0100
0010
0000
,  // measure 20
1000
0000
0000
0010
0000
0000
0100
0000
0000
0000
0000
0000
0010
0000
0000
0000
,  // measure 21
2000
0000
0001
0000
3001
1000
0001
0000
,  // measure 22
0001
0000
0000
0001
0000
0000
0001
0000
0000
0000
0001
0000
0010
0000
0100
0000
,  // measure 23
2000
0000
0010
0000
3010
1000
0001
0000
,  // measure 24
0100
0000
0000
0010
0000
0000
0100
0000
0000
0000
0000
0000
0010
0000
0000
0000
,  // measure 25
1000
0000
0000
1000
0010
0000
0000
0100
0001
0000
0000
0000
1000
0000
0000
0000
,  // measure 26
0110
0000
0000
1001
0000
0000
0110
0000
0000
0000
0000
0000
0010
0000
0100
0000
,  // measure 27
0010
0000
0100
0000
0001
1000
0001
0000
,  // measure 28
0100
0010
1000
0001
,  // measure 29
0100
0000
0001
0000
0100
0001
0010
0000
,  // measure 30
0020
0000
0000
0230
0000
0000
2300
0000
0000
3000
0000
0000
1000
0000
0000
0000
,  // measure 31
1020
0000
0000
1000
0130
0000
1000
0000
,  // measure 32
0001
0000
0000
0100
0001
0000
0000
0100
0001
0000
0000
0000
0010
0000
0000
0000
,  // measure 33
1000
0000
1000
1001
0000
0000
0010
1010
,  // measure 34
0000
0000
0100
0101
0000
0000
0010
0100
,  // measure 35
0010
0100
0001
0001
,  // measure 36
0010
0000
0100
0000
1000
0000
1000
0001
,  // measure 37
0000
0000
1000
0000
0000
0010
0100
0010
,  // measure 38
0000
0000
0100
0000
0010
0000
0100
0000
0000
0000
0001
0000
0100
0000
0001
0010
,  // measure 39
0000
1000
0100
0010
,  // measure 40
0001
0000
1000
0000
0001
0000
0000
0000
0100
0000
0000
0100
0010
0000
0000
0000
,  // measure 41
1000
0000
0000
1000
0010
0000
0000
0000
0001
0000
0000
0000
0001
0000
0000
0000
,  // measure 42
0100
0000
0001
0000
1000
0000
0010
0100
,  // measure 43
1000
0000
0000
0000
1000
0000
0000
0000
1000
0000
0000
0000
0010
0000
0000
0100
,  // measure 44
0010
0000
0000
0100
0010
0000
0000
0000
0100
0000
0010
0000
0001
0000
1000
0000
,  // measure 45
0001
1000
0010
0000
0100
0010
0100
0010
,  // measure 46
0000
0000
0000
0000
0100
0000
0000
0000
0001
0000
0100
0000
0100
0001
1000
0000
,  // measure 47
0001
1000
0001
1000
0010
0000
0100
0000
,  // measure 48
0001
0000
0000
0001
0100
0000
0000
0010
1000
0000
0000
0000
1000
0000
0000
0000
,  // measure 49
0100
0000
0010
0001
0000
0000
0010
0100
,  // measure 50
0000
0000
0000
0000
0001
0000
1000
0010
0000
0010
1000
0000
1000
0001
0100
0000
,  // measure 51
0020
0000
0100
0000
0130
0010
0100
0000
,  // measure 52
0001
0000
0000
0100
0000
0000
0010
0000
0000
0000
0000
0000
0100
0000
0000
0000
,  // measure 53
0002
0000
1000
0000
1003
0001
1000
0000
,  // measure 54
1000
0000
0000
1000
0000
0000
1000
0000
0000
0000
1000
0000
0100
0000
0010
0000
,  // measure 55
0002
0000
0100
0000
0103
0001
1000
0000
,  // measure 56
0010
0000
0000
0100
0000
0000
0010
0000
0000
0000
0000
0000
0100
0000
0000
0000
,  // measure 57
0001
0000
0000
0001
0100
0000
0000
0010
1000
0000
0000
0000
0001
0000
0000
0000
,  // measure 58
0110
0000
0000
1001
0000
0000
0110
0000
0000
0000
0000
0000
0100
0000
0010
0000
,  // measure 59
0100
0000
0010
0000
1000
0001
1000
0000
,  // measure 60
0010
0100
0001
1000
,  // measure 61
0010
0000
1000
0000
0010
1000
0100
0000
,  // measure 62
0200
0000
0000
0320
0000
0000
0032
0000
0000
0003
0000
0000
0001
0000
0000
0000
,  // measure 63
0201
0000
0310
0001
,  // measure 64
1000
0100
0010
0001
,  // measure 65
1000
0001
1000
0010
,  // measure 66
0100
0000
0010
0000
0100
0010
1001
0000
;
