#TITLE:Cherry;
#SUBTITLE:;
#ARTIST:Rina Sawayama;
#TITLETRANSLIT:;
#SUBTITLETRANSLIT:;
#ARTISTTRANSLIT:;
#GENRE:;
#CREDIT:;
#BANNER:Cherry.png;
#BACKGROUND:Cherry-bg.png;
#LYRICSPATH:;
#CDTITLE:;
#MUSIC:Cherry.mp3;
#OFFSET:0.640000;
#SAMPLESTART:57.220001;
#SAMPLELENGTH:15.000000;
#SELECTABLE:YES;
#BPMS:0.000000=102.000000
;
#STOPS:
;
#BGCHANGES:1.040=Cherry.avi=1.000=0=0=0,
99999=-nosongbg-=1.000=0=0=0 // don't automatically add -songbackground-
;
#KEYSOUNDS:;
#ATTACKS:;

//---------------dance-single - ----------------
#NOTES:
     dance-single:
     :
     Easy:
     5:
     0.211557,0.332123,0.150965,0.100643,0.000000,206.000000,185.000000,21.000000,14.000000,0.000000,0.000000,0.211557,0.332123,0.150965,0.100643,0.000000,206.000000,185.000000,21.000000,14.000000,0.000000,0.000000:
0000
0000
0000
0000
,
0000
0000
0000
0000
,
0000
0000
0000
0000
,
0000
0000
0000
0000
,
0000
0000
0000
0000
,
0001
0001
0010
0001
,
0001
0010
1000
0010
,
1000
1000
0010
0100
,
0100
0110
1001
0010
,
0010
0010
1000
0000
,
0001
0001
0100
0000
,
1000
0010
1000
0000
,
0001
0010
0010
0000
,
1000
1001
0001
0000
,
0001
0010
0001
0000
,
1000
0010
1000
0000
,
0010
0100
0010
0000
,
1001
1000
0010
0100
,
0010
0100
0001
1000
,
2000
0000
3000
0001
,
0010
0100
1000
0000
,
0110
0010
0200
0300
,
0010
0001
2000
3000
,
0001
0100
0001
1000
,
0010
0000
0100
0000
,
0101
0001
0200
0002
,
0303
1000
0010
1000
,
0001
0100
0001
1000
,
0010
1000
0000
0000
,
0110
0010
2000
0200
,
3300
1000
0010
0100
,
0001
0100
0010
1000
,
0001
0000
0000
0011
,
0001
1000
0001
0100
,
0001
0100
0010
1000
,
0010
1000
0100
0010
,
1001
0001
1001
0000
0110
0100
0110
0000
,
1000
0001
1000
0010
,
1000
0010
0100
0001
,
0100
0001
0010
0100
,
1001
1000
1001
0000
0110
0010
0110
0000
,
1000
0010
0100
0010
,
1001
0001
0100
0010
,
0100
0010
1000
0001
,
0002
0000
0003
1000
,
0100
0010
0001
0000
,
0110
0100
0020
0030
,
0100
1000
0002
0003
,
1000
0010
1000
0001
,
0100
0000
0010
0000
,
1010
1000
0020
2000
,
3030
0001
0100
0001
,
1000
0010
1000
0001
,
0100
0001
0000
0000
,
0110
0100
0002
0020
,
0033
0001
0100
0010
,
1000
0010
0100
0001
,
1000
0000
1000
0010
1000
0000
1100
0000
;

//---------------dance-single - ----------------
#NOTES:
     dance-single:
     :
     Beginner:
     2:
     0.132480,0.145933,0.021566,0.000000,0.000000,129.000000,126.000000,3.000000,0.000000,0.000000,0.000000,0.132480,0.145933,0.021566,0.000000,0.000000,129.000000,126.000000,3.000000,0.000000,0.000000,0.000000:
// measure 0
0000
0000
0000
0000
,  // measure 1
0000
0000
0000
0000
,  // measure 2
0000
0000
0000
0000
,  // measure 3
0000
0000
0000
0000
,  // measure 4
0000
0000
0000
0000
,  // measure 5
0000
0001
0000
0001
,  // measure 6
0000
1000
0000
1000
,  // measure 7
0000
0001
0000
0001
,  // measure 8
0000
1000
0000
1000
,  // measure 9
0000
0010
0000
0010
,  // measure 10
0000
0100
0000
0100
,  // measure 11
0000
0001
0000
0001
,  // measure 12
0000
0010
0000
0100
,  // measure 13
0000
1000
1000
1000
,  // measure 14
0000
0001
0001
0001
,  // measure 15
0000
0100
0100
0100
,  // measure 16
0000
0001
0000
1000
,  // measure 17
0000
0010
0100
0010
,  // measure 18
0000
0100
0010
0100
,  // measure 19
0000
0001
0010
0001
,  // measure 20
0000
1000
0010
1000
,  // measure 21
0000
0010
0000
0100
,  // measure 22
0000
0001
0000
0100
,  // measure 23
0000
0010
0000
1000
,  // measure 24
0000
0001
1000
1001
,  // measure 25
0000
0010
0000
0100
,  // measure 26
0000
0001
0000
0010
,  // measure 27
0000
1000
0000
0100
,  // measure 28
0000
0010
0000
0001
,  // measure 29
0000
0001
0000
0010
,  // measure 30
0000
0100
0000
1000
,  // measure 31
0000
0010
0000
0100
,  // measure 32
0010
0100
0010
0000
,  // measure 33
0100
0000
0001
0000
,  // measure 34
0001
0000
1000
0000
,  // measure 35
0010
0000
1000
0000
,  // measure 36
0100
0000
1000
0000
,  // measure 37
0001
0001
0001
0000
,  // measure 38
0010
1000
0010
0000
,  // measure 39
0100
0010
0100
0000
,  // measure 40
0010
0100
0010
0000
,  // measure 41
0010
0000
0100
0000
,  // measure 42
0000
0100
0010
0100
,  // measure 43
0000
0010
0100
0010
,  // measure 44
0000
1000
0100
1000
,  // measure 45
0000
0001
0100
0001
,  // measure 46
0000
0100
0000
0010
,  // measure 47
0000
1000
0000
0010
,  // measure 48
0000
0100
0000
0001
,  // measure 49
0000
1000
0001
1001
,  // measure 50
0000
0100
0000
0010
,  // measure 51
0000
1000
0000
0100
,  // measure 52
0000
0001
0000
0010
,  // measure 53
0000
0100
0000
1000
,  // measure 54
0000
1000
0000
0100
,  // measure 55
0000
0010
0000
0001
,  // measure 56
0000
0100
0000
0010
,  // measure 57
0100
0010
0100
0000
,  // measure 58
0110
0000
0000
0000
;

//---------------dance-single - ----------------
#NOTES:
     dance-single:
     :
     Medium:
     7:
     0.239285,0.290608,0.129399,0.172532,0.000000,233.000000,215.000000,18.000000,24.000000,0.000000,0.000000,0.239285,0.290608,0.129399,0.172532,0.000000,233.000000,215.000000,18.000000,24.000000,0.000000,0.000000:
0000
0000
0000
0000
,
0000
0000
0000
0000
,
0000
0000
0000
0000
,
0000
0000
0000
0000
,
0000
0000
0000
0000
,
1000
0010
0100
0010
,
1000
0001
0100
0001
,
0002
0103
0200
0310
,
0001
0010
0100
1000
,
1000
0010
1000
1010
,
0001
0100
0001
0101
,
0010
0100
0010
1001
,
1000
0100
0010
0101
,
0010
1001
0100
1001
,
0010
0101
0100
1100
,
0010
0011
0100
1010
,
1000
0010
0100
0010
,
1000
0100
0010
0000
0100
0000
0010
0000
,
0100
0010
1000
1001
,
2000
3200
0320
0031
,
0001
0100
1000
0001
,
0100
0010
0001
0000
1000
0000
0010
0000
,
0100
0010
0100
0110
,
2000
3002
0203
0320
,
0130
0000
0000
0100
,
1001
0001
0100
0001
,
0100
0010
1000
0000
0010
0100
0001
0000
,
0020
0130
0200
0310
,
0100
0010
0000
1000
,
1010
1000
0001
0100
,
0001
0010
0001
0000
1000
0100
1000
0000
,
2000
3010
0200
0301
,
0001
0000
0100
0000
0010
0100
0010
0000
,
0000
1000
0000
0010
,
0000
0100
0000
0010
,
0000
0001
0000
0100
,
0010
0100
0010
0000
0100
0010
0100
0000
,
0000
0001
0000
0100
,
0000
0010
0000
0100
,
0000
1000
0000
0010
,
0100
0010
0100
0000
0010
0100
0010
0000
,
1000
0010
0100
0000
0010
0100
0001
0000
,
0001
0010
0100
0000
0010
0000
0100
0000
,
0010
0100
0001
1001
,
0002
0023
0230
1300
,
1000
0010
0001
1000
,
0010
0100
1000
0000
0001
0000
0100
0000
,
0010
0100
0010
0110
,
0002
2003
3020
0230
,
0310
0000
0000
0010
,
1001
1000
0010
1000
,
0010
0100
0001
0000
0100
0010
1000
0000
,
0200
0310
0020
0130
,
0010
0100
0010
0001
,
0101
0001
1000
0010
,
1000
0100
1000
0000
0001
0010
0001
0000
,
0002
0103
0020
1030
,
1000
0000
0010
0000
0100
0010
0100
0000
;

//---------------dance-single - ----------------
#NOTES:
     dance-single:
     :
     Hard:
     13:
     0.337874,0.374043,0.086266,0.201287,0.327091,329.000000,317.000000,12.000000,28.000000,0.000000,0.000000,0.337874,0.374043,0.086266,0.201287,0.327091,329.000000,317.000000,12.000000,28.000000,0.000000,0.000000:
0000
0000
0000
0000
,
0000
0000
0000
0000
,
0000
0000
0000
0000
,
0000
0000
0000
0000
,
0000
0000
0000
0000
,
0000
0000
0000
0000
0000
0000
0000
0001
,
0010
0000
0001
1000
0000
0000
0100
0000
1000
0010
0000
0000
0100
0000
0010
0000
,
0000
0000
0010
0100
0000
0000
1000
1000
,
1001
0010
0010
0010
,
0100
0010
0000
0100
0000
0010
0000
0000
1000
0001
0000
1000
0000
0001
0000
0000
,
0100
0001
0000
0100
0000
0010
0000
0000
0010
0100
0000
0010
0000
1000
0000
0000
,
0001
0100
0000
0010
0000
1000
0000
0000
1000
0100
0000
0010
0000
0001
0000
0000
,
0001
1000
0000
0010
0000
0100
0000
0010
0000
0000
0100
0010
0000
0100
0010
0000
,
0010
0100
0000
0010
0000
0100
0000
0000
0001
1000
0000
0001
0000
1000
0000
0000
,
0010
1000
0000
0010
0000
0100
0000
0000
0100
0010
0000
0100
0000
0001
0000
0000
,
1000
0010
0000
0100
0000
0001
0000
0000
0001
0010
0000
0100
0000
1000
0000
0000
,
1000
0001
0000
0100
0000
0010
0000
0100
0000
0000
0000
0000
0010
0000
0000
0000
,
1000
0000
0100
0000
0010
0000
0100
0000
1000
0000
0000
0010
0000
0000
2000
0000
,
0000
0000
0000
0000
3000
0000
0010
0000
0100
0000
0000
0010
0000
0000
0200
0000
,
0000
0320
2030
3010
,
0102
0203
0310
0000
,
0001
0100
0010
1000
0010
0200
0000
0310
,
0000
0000
0110
0000
0001
0000
1000
0000
0100
0000
0000
1000
0000
0000
0000
0000
,
1000
0100
0010
0001
0100
0001
0101
0000
,
0001
0010
0001
0100
,
0001
0100
0000
0001
0000
0100
0000
0010
0000
0000
0002
0000
0000
0000
0000
0000
,
0103
0000
0100
0001
0000
0000
0001
0000
0001
0100
0000
0000
0010
0000
2000
0000
,
0000
0000
3010
0200
0000
0000
0301
0020
,
0000
0000
0000
0000
0031
0000
1000
0001
1000
0000
1000
0000
0010
0100
0000
0000
,
1000
0010
0000
0100
0000
0010
0000
1000
0000
0000
0020
0000
0000
0000
0000
0000
,
0130
0000
0010
0100
0000
0000
0100
0000
0010
0100
0000
0000
0100
0000
0002
0000
,
0000
0000
0013
0020
0000
0000
0130
0100
,
0100
0010
0000
0010
0000
1000
0000
0001
0000
0000
0010
0000
0101
0000
0000
0000
,
0001
0010
0001
0000
0100
0010
1000
0000
,
1000
0010
0100
0000
1000
0010
0001
0000
,
0001
0001
0100
0000
1000
1000
0010
0000
,
1000
0001
1001
0000
0010
1000
1010
0000
,
1000
0100
1000
0000
0010
0100
0001
0000
,
0001
0100
0010
0000
0001
0100
1000
0000
,
1000
1000
0010
0000
0001
0001
0100
0000
,
0001
1000
1001
0000
0100
0001
0101
0000
,
0010
0000
0000
0100
0001
0000
1000
0000
0010
0000
0000
0100
0000
0000
0010
0000
,
0001
0000
0010
0000
0100
0000
0010
0000
0001
0000
0000
0100
0000
0000
0002
0000
,
0000
0000
0000
0000
0003
0000
0100
0000
0010
0000
0000
0100
0000
0000
0020
0000
,
0000
0230
0302
0103
,
2010
3020
0130
0000
,
1000
0010
0100
0001
0100
0020
0000
0130
,
0000
0000
0110
0000
1000
0000
0001
0000
0010
0000
0000
0001
0000
0000
0000
0000
,
0001
0010
0100
1000
0010
1000
1010
0000
,
1000
0100
1000
0010
,
1000
0010
0000
1000
0000
0010
0000
0100
0000
0000
2000
0000
0000
0000
0000
0000
,
3010
0000
0010
1000
0000
0000
1000
0000
1000
0010
0000
0000
0100
0000
0002
0000
,
0000
0000
0103
0020
0000
0000
1030
0200
,
0000
0000
0000
0000
1300
0000
0001
1000
0001
0000
0001
0000
0100
0010
0000
0000
,
0001
0100
0000
0010
0000
0100
0000
0001
0000
0000
0200
0000
0000
0000
0000
0000
,
0310
0000
0100
0010
0000
0000
0010
0000
0100
0010
0000
0000
0010
0000
2000
0000
,
0000
0000
3100
0200
0000
0000
0310
0010
,
0010
0000
0100
0010
0000
0000
0100
0000
0010
1000
0100
0000
1000
0001
0000
0000
;
