#TITLE:Carbonara;
#SUBTITLE:;
#ARTIST:Pixel Terror & Spag Heddy;
#TITLETRANSLIT:;
#SUBTITLETRANSLIT:;
#ARTISTTRANSLIT:;
#CREDIT:;
#BANNER:Carbonara.png;
#BACKGROUND:Carbonara-bg.png;
#LYRICSPATH:;
#CDTITLE:;
#MUSIC:Carbonara.mp3;
#OFFSET:-0.080;
#SAMPLESTART:38.460;
#SAMPLELENGTH:15.000;
#SELECTABLE:YES;
#BPMS:0.000=150.000;
#STOPS:;
#BGCHANGES:;

//---------------dance-single - ----------------
#NOTES:
     dance-single:
     :
     Easy:
     5:
     0.324,0.499,0.110,0.220,0.000:
0002
0000
0103
0000
,
1000
0000
1000
0000
,
0010
0000
0100
0000
,
0001
0000
1000
0000
,
0001
0000
1000
0000
,
0010
0000
0100
0000
,
0010
0000
1000
0000
,
0001
0000
0100
0000
,
1000
0010
0100
0000
,
0001
0100
0010
0000
,
1000
0100
1000
0000
,
0010
0001
0010
0000
,
0100
0010
1001
0000
,
0001
1000
0010
0000
,
0100
0001
1000
0000
,
0020
0000
0000
0000
,
0130
0010
0100
0001
,
1000
0001
1000
0010
,
1000
0010
0001
0010
,
1000
0001
0100
1000
,
0010
0100
0001
0001
,
0010
0100
1000
0100
,
1000
0010
0100
0001
,
1000
0010
0100
0010
,
0101
0000
0001
0100
0001
0000
0100
0000
,
0010
1000
0100
1000
,
2000
3000
0100
0001
,
1000
0100
0010
0001
,
0011
0001
0100
0010
,
0100
0010
1000
0001
,
0200
0320
0230
0320
,
0230
0320
0230
0310
,
1010
0000
1000
0010
1000
0000
0010
0000
,
0100
0001
0010
0001
,
0002
0003
0010
1000
,
0001
0010
0100
1000
,
1100
1000
0010
0100
,
0010
0100
0001
1000
,
0020
0230
0320
0230
,
0320
0230
0320
0230
,
0310
1000
0010
1000
,
0001
0100
0001
0100
,
0001
0010
1000
0010
,
0001
1000
0010
1000
,
0100
1000
0001
0100
,
2000
0000
0002
3003
,
0110
0000
1001
0000
,
1000
0010
1000
0000
,
0101
0000
0001
0100
,
0010
1000
0010
1000
,
0010
0100
0001
0100
,
0010
1000
0001
0100
,
0010
1000
0001
0101
,
0001
1001
0100
1100
,
1000
0100
1000
0100
,
0010
0001
0010
0001
,
0002
0100
0103
0000
,
0100
0100
0100
0000
,
0010
1000
0001
0000
,
0100
0010
1000
0000
,
1000
0100
1000
0000
,
0001
0010
0100
0000
,
2002
0000
0000
0000
,
0000
0000
0000
0000
,
3003
0000
0000
0000
;

//---------------dance-single - ----------------
#NOTES:
     dance-single:
     :
     Beginner:
     3:
     0.240,0.353,0.119,0.110,0.000:
2002
0000
0000
0000
,
3003
0000
0100
0000
,
1000
0000
0001
0000
,
0010
0000
1000
0000
,
0110
0000
0001
0000
,
1000
0000
0010
0000
,
1000
0000
0001
0000
,
0100
0000
0001
0000
,
1001
0000
1000
0000
,
0010
0010
0010
0000
,
0010
0000
1000
0000
,
0001
0001
0001
0000
,
1000
0000
0010
0000
,
1000
1000
1000
0000
,
0010
0000
1000
0000
,
2002
0000
3003
0000
,
0001
0001
0001
0000
,
0100
0100
0100
0000
,
0001
0001
0001
0000
,
1000
1000
1000
0000
,
0010
0010
0010
0000
,
0100
0100
0100
0000
,
0010
0010
0010
0000
,
0220
0000
0330
0000
,
0010
0000
0010
0010
,
0010
0010
0010
0000
,
0100
0000
0100
0100
,
0100
0100
0100
0000
,
1000
0000
1000
1000
,
1000
1000
1000
0000
,
0001
0000
1000
0000
,
0001
0000
1001
0000
,
1000
0000
1000
1000
,
1000
1000
1000
0000
,
0001
0000
0001
0001
,
0001
0001
0001
0000
,
0100
0000
0100
0100
,
0100
0100
0100
0000
,
0010
0000
0100
0000
,
0010
0000
0100
0000
,
1000
0001
1000
0000
,
0001
1000
0001
0000
,
0010
0100
0010
0000
,
0100
0010
0100
0000
,
0001
0001
0001
0000
,
1000
1000
1000
0000
,
2020
3030
0202
0303
,
0000
0000
0110
0000
,
1001
0000
1000
0001
,
1000
0001
1000
0001
,
0000
0100
0010
0100
,
0010
0100
0010
0000
,
1001
0000
1000
0100
,
1000
0100
1000
0100
,
0000
0001
0010
0001
,
0010
0001
0010
0000
,
1001
0000
0010
0000
,
0100
0000
0001
0000
,
0100
0000
0001
0000
,
1000
0000
0010
0000
,
1000
0000
0001
0000
,
0100
0000
0001
0000
,
2002
0000
0000
0000
,
0000
0000
0000
0000
,
3003
0000
0000
0000
;

//---------------dance-single - ----------------
#NOTES:
     dance-single:
     :
     Medium:
     7:
     0.382,0.499,0.129,0.046,0.005:
2000
0000
3100
0000
,
1000
0100
1000
0000
,
0001
0000
0100
0000
,
0001
0010
0001
0000
,
0200
0000
0310
0000
,
0010
0100
0010
0000
,
1000
0000
0100
0000
,
1000
0000
0100
1000
0100
0000
1000
0000
,
1001
0000
0010
0100
0010
0000
0100
0000
,
0010
0000
1000
0100
1000
0000
0010
0000
,
0100
0000
0010
0100
0001
0000
1000
0000
,
0001
0000
0001
0010
0100
0000
0010
0000
,
1000
0000
1000
0100
0010
0000
1000
0000
,
0100
0000
1000
0100
1000
0000
0010
0000
,
0100
0000
0001
0010
0001
0000
0100
0000
,
2002
0000
0000
3003
,
0000
0001
0100
0010
0000
0001
0010
0100
,
0000
0010
1000
0010
0000
1000
0100
0010
,
0000
0010
0100
1000
0000
0001
0010
0100
,
0000
0100
0010
0001
0000
0001
1000
0001
,
1000
0001
1000
0001
1000
0010
0100
0010
,
0100
0001
0010
0100
1000
0100
0010
1000
,
0001
0100
0101
0000
1000
0010
1010
0000
,
1001
0000
0010
1000
0001
0000
0100
0000
,
1001
0000
1000
0001
1000
0000
0010
0000
,
1000
0010
0100
0001
,
0010
0001
0100
0010
,
1000
0100
0010
0100
,
1010
0000
1000
0100
0010
0000
1000
0000
,
0001
0010
0001
0100
,
0010
0001
1000
0100
,
0010
0001
0100
0001
,
1001
0000
0001
1000
0001
0000
0100
0000
,
0001
0100
0010
1000
,
0100
1000
0010
0100
,
0001
0010
0100
0010
,
0101
0000
0001
0010
0100
0000
0001
0000
,
1000
0100
1000
0010
,
0100
1000
0001
0010
,
0100
1000
0010
1000
,
1010
1000
1000
0100
,
0100
0010
0010
0001
,
0001
0100
0010
1000
,
1000
0010
0100
0001
,
1000
0100
0001
0100
,
1000
0001
1000
0001
,
0101
0000
0001
0110
1000
0000
1000
0110
,
0001
0000
1000
0100
0010
0000
1000
0000
,
1010
0000
1000
1000
0010
0000
1000
0000
,
0010
0100
0001
0010
,
0001
0100
0001
0010
,
0001
0100
0010
0100
,
0001
0100
1000
0100
,
0010
0100
0001
0100
,
1000
0100
0010
0001
,
0100
0000
0000
0000
0001
0000
0000
0000
0010
0000
0000
0010
0000
0000
0010
0000
,
0100
0000
0010
0100
0010
0000
1000
0000
,
0010
0100
0001
0100
,
0010
1000
0010
0001
,
0010
1000
0010
0001
,
1000
0001
1000
0001
,
0001
0010
0100
1000
,
2000
0000
0000
0000
,
0000
0000
0000
0000
,
3000
0000
0000
0000
;

//---------------dance-single - ----------------
#NOTES:
     dance-single:
     :
     Hard:
     15:
     0.643,0.734,0.358,0.239,0.202: // measure 1
0020
0000
0130
0000
,  // measure 2
0010
1000
1000
0000
,  // measure 3
0001
0000
0100
0000
,  // measure 4
0001
0100
0001
0000
,  // measure 5
0002
0000
0013
0000
,  // measure 6
0001
0010
0100
0000
,  // measure 7
0010
0000
1000
0000
,  // measure 8
0010
0000
0000
0000
1000
0000
0010
1000
0010
0000
1000
0000
0001
0000
0000
0000
,  // measure 9
0001
0000
0100
0000
0001
0000
0001
0010
0100
0000
0010
0000
1000
0000
0010
0000
,  // measure 10
0001
0000
1000
0000
0010
0000
1000
0010
1000
0000
0010
0000
0100
0000
0001
0000
,  // measure 11
0010
0000
0001
0000
0100
0000
0001
0100
0010
0000
1000
0000
0100
0000
1000
0000
,  // measure 12
0010
0000
0100
0000
0010
0000
0100
0010
0100
0000
0010
0000
1000
0000
0010
0000
,  // measure 13
0001
0000
0010
0001
0010
0000
0100
0000
0010
0000
1000
0000
0100
0000
1000
0000
,  // measure 14
0010
0000
1000
0000
0010
0000
1000
0010
0100
0000
0001
0000
0010
0000
0100
0000
,  // measure 15
1000
0000
0010
0000
1000
0000
1000
0100
0010
0000
0100
0000
0001
0000
0100
0000
,  // measure 16
1000
0000
0001
0000
0100
0000
0001
0100
0001
0000
0100
0000
0010
0000
1000
0000
,  // measure 17
1000
0010
0001
0010
1000
0010
0001
0010
,  // measure 18
1000
0010
0100
0010
1000
0010
0100
0010
,  // measure 19
1000
0001
0100
0001
0010
0001
0100
0001
,  // measure 20
0010
0001
0100
0010
1000
0010
0100
0001
,  // measure 21
0010
0001
0010
0001
0100
0010
0100
0010
,  // measure 22
1000
0100
1000
0100
1000
0001
1000
0001
,  // measure 23
1000
0001
1000
0000
0001
1000
0001
0000
0100
0010
0100
0000
0010
0100
0010
0000
,  // measure 24
0110
0010
1001
0100
1001
0000
0110
0000
,  // measure 25
0202
0303
0010
0001
0011
0000
1001
0000
,  // measure 26
1010
1100
0110
0011
,  // measure 27
2000
3020
1030
0010
,  // measure 28
1000
0000
0000
1000
0010
0000
0100
0000
0001
0000
0010
0000
0001
0000
0100
0000
,  // measure 29
0020
0030
0010
0000
0101
0000
0110
0000
,  // measure 30
1010
0101
0011
0110
,  // measure 31
0001
0100
1000
0100
0001
0100
1000
0100
,  // measure 32
0001
0010
0001
1000
0100
1000
0010
0100
,  // measure 33
2020
3030
0100
1000
1100
0000
1001
0000
,  // measure 34
0101
0011
0110
1100
,  // measure 35
0002
0203
0301
0100
,  // measure 36
0001
0000
0000
0001
0100
0000
0010
0000
1000
0000
0100
0000
1000
0000
0010
0000
,  // measure 37
0200
0300
0100
0000
1010
0000
0110
0000
,  // measure 38
0101
1010
1100
0110
,  // measure 39
1000
0010
0001
0010
1000
0010
0001
0010
,  // measure 40
1000
0100
1000
0001
0010
0001
0100
0010
,  // measure 41
0100
0000
0000
0000
0100
0000
0010
0100
0010
0000
0000
0000
0100
0000
0000
0000
,  // measure 42
0010
0000
0000
0000
0010
0000
0100
0010
0100
0000
0000
0000
0010
0000
0000
0000
,  // measure 43
1000
0000
0000
0000
1000
0000
0001
1000
0001
0000
0000
0000
1000
0000
0000
0000
,  // measure 44
0001
0000
0000
0000
0001
0000
1000
0001
1000
0000
0000
0000
0001
0000
0000
0000
,  // measure 45
1000
0100
1000
0100
0010
0100
0010
0100
,  // measure 46
0001
0010
0001
0010
0001
1000
0001
1000
,  // measure 47
2002
3003
0010
0100
0101
0000
0100
0010
,  // measure 48
1010
0000
1000
0010
1000
0000
0001
0000
,  // measure 49
2002
0000
3003
0000
1000
0000
0010
0000
1000
0010
1000
0000
0010
1000
0010
0000
,  // measure 50
1000
0010
1000
0000
0010
1000
0010
0000
1000
0010
1000
0000
0010
1000
0010
0000
,  // measure 51
1000
0000
0001
0000
0100
0001
0100
0000
0001
0100
0001
0000
0100
0001
0100
0000
,  // measure 52
0001
0100
0001
0000
0100
0001
0100
0000
0001
0100
0001
0000
0100
0001
0100
0000
,  // measure 53
0022
0000
0033
0000
0010
0000
0001
0000
0010
0001
0010
0000
0001
0010
0001
0000
,  // measure 54
0010
0001
0010
0000
0001
0010
0001
0000
0010
0001
0010
0000
0001
0010
0001
0000
,  // measure 55
0010
0000
0100
0000
1000
0100
1000
0000
0100
1000
0100
0000
1000
0100
1000
0000
,  // measure 56
0100
1000
0100
0000
1000
0100
1000
0000
0100
0000
0000
1000
0000
0000
0010
0000
,  // measure 57
2002
3003
0100
0000
0010
0100
0001
0000
,  // measure 58
0001
0010
0100
0010
0001
0010
0100
0000
,  // measure 59
0220
0330
0010
0000
1000
0010
0001
0000
,  // measure 60
1000
0010
0100
0010
0100
0010
1000
0000
,  // measure 61
2002
3003
0010
0000
0100
0010
1000
0000
,  // measure 62
1000
0100
0010
0100
1000
0100
0010
0000
,  // measure 63
0220
0000
0000
0000
,  // measure 64
0000
0000
0000
0000
,  // measure 65
0330
0000
0000
0000
;
