#TITLE:C.H.R.I.S.Y.E.;
#SUBTITLE:;
#ARTIST:Diskoria, Laleilmanino & Eva Celia;
#TITLETRANSLIT:;
#SUBTITLETRANSLIT:;
#ARTISTTRANSLIT:;
#CREDIT:;
#BANNER:C.H.R.I.S.Y.E..png;
#BACKGROUND:C.H.R.I.S.Y.E.-bg.png;
#LYRICSPATH:;
#CDTITLE:;
#MUSIC:C.H.R.I.S.Y.E..mp3;
#OFFSET:0.940;
#SAMPLESTART:64.600;
#SAMPLELENGTH:15.000;
#SELECTABLE:YES;
#BPMS:0.000=118.000;
#STOPS:;
#BGCHANGES:;

//---------------dance-single - ----------------
#NOTES:
     dance-single:
     :
     Easy:
     3:
     0.215,0.317,0.150,0.164,0.000: // measure 1
0000
0000
0000
0000
,  // measure 2
0000
0000
0000
0000
,  // measure 3
0000
0000
0000
0000
,  // measure 4
0000
0000
0000
0000
,  // measure 5
0020
0000
0000
0000
,  // measure 6
0230
0000
0000
0000
,  // measure 7
0302
0000
0000
0000
,  // measure 8
2003
0000
0000
0000
,  // measure 9
3000
0000
0000
0000
,  // measure 10
0001
0100
0000
0010
,  // measure 11
0100
0010
0000
1000
,  // measure 12
0010
1000
0000
0100
,  // measure 13
0010
1000
0000
0100
,  // measure 14
0010
0010
0000
1000
,  // measure 15
0001
1000
0000
0001
,  // measure 16
0001
0100
0010
1000
,  // measure 17
0100
1000
1000
0010
,  // measure 18
1010
1000
0000
0010
,  // measure 19
0000
0100
0000
0001
,  // measure 20
0000
0100
0000
0010
,  // measure 21
0100
0010
0000
1000
,  // measure 22
0000
0001
0000
0100
,  // measure 23
0000
0010
0000
0100
,  // measure 24
1001
0010
0000
0100
,  // measure 25
0000
0001
0000
1000
,  // measure 26
0000
0010
0000
0100
,  // measure 27
0000
0001
0000
1000
,  // measure 28
0001
0100
0001
1000
,  // measure 29
2020
0000
3030
1000
,  // measure 30
1000
0002
0023
0230
,  // measure 31
2300
3000
0000
1000
,  // measure 32
0000
0010
0000
1000
,  // measure 33
0002
0000
0003
0001
,  // measure 34
0001
0101
0000
1000
,  // measure 35
0010
0100
0010
1000
,  // measure 36
0001
0100
0010
0100
,  // measure 37
0001
0000
0000
1000
,  // measure 38
1001
0010
0000
1000
,  // measure 39
1000
0100
0010
0001
,  // measure 40
0100
0001
1000
0001
,  // measure 41
1000
0000
1001
0110
,  // measure 42
1001
0000
0110
1001
,  // measure 43
0110
0000
0000
1000
,  // measure 44
0000
0001
1000
0010
,  // measure 45
1000
2000
3200
0320
,  // measure 46
0032
0003
0000
1000
,  // measure 47
0000
0001
0000
0100
,  // measure 48
0220
0000
0000
0000
,  // measure 49
0000
0330
0000
1000
,  // measure 50
1000
1010
0000
0001
,  // measure 51
0100
0010
0100
0001
,  // measure 52
1000
0010
0100
0010
,  // measure 53
1000
0000
0000
0001
,  // measure 54
1001
0100
0000
0001
,  // measure 55
0001
0010
0100
1000
,  // measure 56
0010
1000
0001
1000
,  // measure 57
0001
0000
1001
0110
,  // measure 58
1001
0000
0110
1001
,  // measure 59
0110
0000
0000
0001
,  // measure 60
0000
1000
0001
0100
,  // measure 61
0001
0002
0023
0230
,  // measure 62
2300
3000
0000
0001
,  // measure 63
0000
1000
0000
0010
,  // measure 64
0220
0000
0000
0000
,  // measure 65
0000
0000
0000
0000
,  // measure 66
0330
0010
0000
1000
,  // measure 67
0000
0000
0001
0000
0000
0000
1000
0001
,  // measure 68
1000
0001
0000
0100
,  // measure 69
0000
0010
0000
0000
;

//---------------dance-single - ----------------
#NOTES:
     dance-single:
     :
     Medium:
     6:
     0.278,0.390,0.193,0.250,0.014:
0000
0000
0000
0000
,
0000
0000
0000
0000
,
0000
0000
0000
0000
,
0000
0000
0000
0000
,
2000
0000
0000
0000
,
3200
0000
0000
0000
,
0320
0000
0000
0000
,
0032
0000
0000
0000
,
2003
0000
0000
0000
,
3001
0100
0000
0100
,
0001
1000
0000
0010
,
1000
0010
0000
0100
,
0010
0001
0000
1000
,
0100
0010
0000
0001
,
1000
0001
0000
0100
,
0001
0010
0001
1000
,
0100
1000
0010
1000
,
0010
0000
0100
0000
0001
1000
1000
0000
,
0010
0000
0001
0000
0100
0010
0100
0000
,
0001
0000
1000
0000
0010
0100
1000
0000
,
1000
0000
0001
0000
0100
0001
0100
0000
,
0010
0000
0100
0000
0001
0100
0001
0000
,
1000
0000
0001
0000
1000
0001
1000
0000
,
0100
0000
0010
0000
0001
0100
0001
0000
,
0001
0000
1000
0000
0010
1000
1000
0000
,
0002
0023
0230
2300
,
3002
0023
0230
2300
,
3001
1000
0001
0000
1000
0001
1000
0000
,
2002
0000
3003
0010
,
0020
0000
0200
0000
,
0330
0000
1000
0001
,
2002
0000
0000
0000
,
3003
1000
0100
0010
,
1000
0000
0000
0001
0000
0000
0100
0000
0000
0000
0010
0000
0100
0000
0010
0000
,
0000
1000
0001
1000
0000
0000
0001
0000
,
0010
0100
1000
1000
,
1001
1000
1010
0010
,
0110
0000
0000
0010
0000
0000
0010
0000
0000
0000
1000
0000
0100
0000
0100
0000
,
0000
0100
0010
1000
,
0010
1000
0001
0100
,
0001
0101
1000
1010
,
2002
0000
0003
3001
,
1000
0100
0010
0100
,
1000
0001
1000
0100
,
1000
0011
1100
0011
,
2200
0000
3300
0000
,
0022
0000
0033
0000
,
2002
0000
0000
0000
,
3003
0001
0010
0100
,
0001
0000
0000
1000
0000
0000
0010
0000
0000
0000
0100
0000
0010
0000
0100
0000
,
0000
0001
1000
0001
0000
0000
1000
0000
,
0100
0010
0001
0001
,
1001
0001
0101
0100
,
0110
0000
0000
0100
0000
0000
0100
0000
0000
0000
0001
0000
0010
0000
0010
0000
,
0000
0010
0100
0001
,
0100
0001
1000
0010
,
1000
1010
0001
0101
,
2002
0000
3000
1003
,
0001
0010
0100
0010
,
0001
1000
0001
0010
,
0001
1100
0011
1100
,
0022
0000
0033
0000
,
2200
0000
3300
0000
,
2002
0000
0000
0000
,
0000
0000
0000
0000
,
3003
0001
0000
0100
,
0000
0000
0010
0000
0000
0000
1000
0001
,
1001
0001
0000
0100
,
0000
0010
0000
0000
;

//---------------dance-single - ----------------
#NOTES:
     dance-single:
     :
     Hard:
     9:
     0.352,0.417,0.214,0.321,0.189:
0000
0000
0000
0000
,
0000
0000
0000
0000
,
0000
0000
0000
0000
,
0000
0000
0000
0000
,
0002
0000
0000
0000
0000
0000
0000
0000
0023
0000
0000
0230
0000
0000
2300
0000
,
3020
0000
0000
0000
0000
0000
0000
0000
0100
0000
0000
0100
0000
0000
0100
0000
,
0230
0320
2030
3002
,
2003
0000
0000
0000
,
3000
0000
0000
0000
0000
0000
0000
0000
0010
0000
0000
1000
0000
0000
0010
0000
,
0100
0000
0000
0010
0000
0000
2002
0000
0000
0000
3003
0000
1000
0000
0000
0000
,
0000
0000
0000
0000
0010
0000
0000
0000
0100
0000
0000
0010
0000
0000
1000
0000
,
0001
0000
0000
0100
0000
0000
0100
0000
0001
0000
0000
1000
0000
0000
0010
0000
,
1000
0000
0000
0000
0000
0000
0000
0000
1000
0000
0000
0100
0000
0000
0010
0000
,
0001
0000
0000
1000
0000
0000
1010
0000
2000
0000
0000
3200
0000
0000
0310
0000
,
2000
0000
0000
0000
0000
0000
0000
0000
3001
0000
0000
0100
0000
0000
0010
0000
,
0100
0000
0000
0001
0000
0000
1000
0000
1000
0000
0000
0000
0000
0000
1000
0010
,
0000
1000
0010
0000
0100
0001
0000
0100
0001
0000
0001
1000
0001
1000
0010
0000
,
0100
0000
0000
0010
0000
0000
0100
0000
0010
0000
0000
1000
0000
0000
0001
0000
,
0000
0000
0100
0000
0000
0010
0000
0000
1000
0000
0000
0001
0000
0000
1000
0000
,
0001
0000
0000
0100
0000
0000
0001
0000
1000
0000
0000
0010
0000
0000
0010
0000
,
2000
0000
0000
0000
3010
0000
0000
0000
0100
0000
0000
0001
0000
0000
0100
0000
,
0001
0000
0000
0001
0000
0000
0200
0000
0000
0000
0000
0000
0310
0000
0000
0000
,
0100
0000
0000
0000
0100
0000
0000
0000
1000
0000
0000
0100
0000
0000
0010
0000
,
0001
0000
0000
0010
0000
0000
0100
0000
1000
0000
0000
0001
0000
0000
1000
0000
,
0010
1000
0001
1000
,
0010
2010
3000
0120
,
0030
0102
0003
2001
,
3001
0000
0000
0001
0000
0100
0000
0000
0010
0000
0000
1000
0000
0010
0000
0000
,
0100
0010
1000
0010
,
1010
2000
3200
0320
,
0032
1003
0010
1000
,
2002
0000
0000
0000
,
3003
1010
0101
0110
,
1000
0000
0000
0010
0000
0000
0100
0000
0000
0000
0001
0000
0010
0000
0100
0000
,
1000
0000
0000
0010
0000
0000
1001
0000
0000
0000
0000
0000
0000
0000
1000
0000
,
1000
0000
0000
1000
0000
0000
0010
0000
0010
0000
0000
0010
0000
0000
0100
0000
,
0010
1001
0110
1001
,
0001
0000
0000
0100
0000
0000
0010
0000
0000
0000
0100
0000
0010
0000
1000
0000
,
0001
0000
0000
0100
0000
0000
0010
0000
0000
0000
0000
0000
0000
0000
0001
0000
,
0100
0000
0000
0001
0000
0000
1000
0000
0010
0000
0000
1000
0000
0000
0010
0000
,
0100
0000
0010
0000
0100
0000
0010
0000
0100
0000
0000
0010
0000
0000
1000
0000
,
0002
0000
0000
0000
0000
0000
0000
0000
0013
0000
0000
0100
0000
0000
1000
0000
,
2000
0000
3001
0010
,
1001
0100
1001
0010
,
1010
0020
2030
3020
,
2030
0000
3001
0001
,
0002
0000
1003
0000
,
2002
0000
0000
0000
,
3003
0101
1010
0110
,
0001
0000
0000
0100
0000
0000
0010
0000
0000
0000
1000
0000
0100
0000
0010
0000
,
0001
0000
0000
0100
0000
0000
1001
0000
0000
0000
0000
0000
0000
0000
0001
0000
,
0001
0000
0000
0001
0000
0000
0100
0000
0100
0000
0000
0100
0000
0000
0010
0000
,
0100
1001
0110
1001
,
1000
0000
0000
0010
0000
0000
0100
0000
0000
0000
0010
0000
0100
0000
0001
0000
,
1000
0000
0000
0010
0000
0000
0100
0000
0000
0000
0000
0000
0000
0000
1000
0000
,
0010
0000
0000
1000
0000
0000
0001
0000
0100
0000
0000
0001
0000
0000
0100
0000
,
0010
0000
0100
0000
0010
0000
0100
0000
0010
0000
0000
0100
0000
0000
0001
0000
,
2000
0000
0000
0000
0000
0000
0000
0000
3100
0000
0000
0010
0000
0000
0001
0000
,
0002
0000
1003
0100
,
1001
0010
1001
0100
,
0101
0200
0302
0203
,
0302
0000
1003
1000
,
2000
0000
3001
0000
,
2002
0000
0000
0000
,
0000
0000
0000
0000
,
3003
1000
0000
1000
,
0000
0000
0100
0000
0000
0000
0010
0100
,
0010
0100
0000
0001
,
0000
1000
0000
0001
;

//---------------dance-single - ----------------
#NOTES:
     dance-single:
     :
     Beginner:
     2:
     0.153,0.195,0.071,0.057,0.000:
0000
0000
0000
0000
,
0000
0000
0000
0000
,
0000
0000
0000
0000
,
0000
0000
0000
0000
,
0000
0000
0000
0000
,
0000
0000
0000
0000
,
0000
0000
0000
0000
,
0000
0000
0000
0000
,
0000
0000
0000
0000
,
0000
0001
0000
0010
,
0000
0100
0000
0100
,
0000
0010
0000
1000
,
0000
0010
0000
1000
,
0000
1000
0000
0001
,
0000
0100
0000
0001
,
0000
1000
0000
0010
,
0000
0100
0000
0010
,
0000
1000
0000
0001
,
0000
0100
0000
0001
,
0000
1000
0000
0100
,
0000
0100
0000
0010
,
0000
1000
1000
1000
,
0000
0010
0010
0010
,
0000
0100
0000
0001
,
0000
0100
0100
0100
,
0000
0010
0000
0100
,
0000
0001
0000
0010
,
0000
0001
0001
0001
,
0000
1000
0000
0001
,
0000
1000
0000
0100
,
0000
0010
0000
0001
,
0000
0100
0100
0100
,
0000
0010
0010
0010
,
0110
0100
0000
0100
,
0000
0001
0000
1000
,
0000
0001
0000
0100
,
0000
1001
0110
1001
,
0000
0010
0000
0100
,
0000
0010
0000
1000
,
0000
0001
0001
0001
,
0000
0100
0010
0100
,
0020
0000
0030
0000
,
2000
0000
3000
0000
,
0001
1000
0001
1000
,
0000
0100
0000
0010
,
0000
1000
0000
0001
,
0000
0001
1000
0001
,
2002
0000
3003
0000
,
0000
0100
0100
0100
,
0110
0010
0000
0010
,
0000
1000
0000
0001
,
0000
1000
0000
0010
,
0000
1001
0110
1001
,
0000
0100
0000
0010
,
0000
0100
0000
0001
,
0000
1000
1000
1000
,
0000
0010
0100
0010
,
0200
0000
0300
0000
,
0002
0000
0003
0000
,
1000
0001
1000
0001
,
0000
0010
0000
0100
,
0000
0001
0000
1000
,
0000
1000
0001
1000
,
2002
0000
0000
0000
,
0000
0000
0000
0000
,
3003
0001
0000
1000
,
0000
0001
0000
0100
,
0000
0010
0000
0100
,
0000
0010
0000
0000
;
