#TITLE:Butterfly;
#SUBTITLE:;
#ARTIST:LOONA;
#TITLETRANSLIT:;
#SUBTITLETRANSLIT:;
#ARTISTTRANSLIT:;
#CREDIT:;
#BANNER:Butterfly.png;
#BACKGROUND:Butterfly-bg.png;
#LYRICSPATH:;
#CDTITLE:;
#MUSIC:Butterfly.mp3;
#OFFSET:-0.940;
#SAMPLESTART:63.800;
#SAMPLELENGTH:15.000;
#SELECTABLE:YES;
#BPMS:0.000=107.000,112.000=214.000,176.000=107.000,208.000=214.000,334.000=107.000;
#STOPS:;
#BGCHANGES:-2.040=Butterfly.avi=1.000=0=0=0,
99999=-nosongbg-=1.000=0=0=0 // don't automatically add -songbackground-
;

//---------------dance-single - ----------------
#NOTES:
     dance-single:
     :
     Easy:
     4:
     0.243,0.299,0.057,0.114,0.000:
0000
0000
0000
0000
,
0000
0001
0000
0001
,
1000
0001
0000
2000
,
0000
0000
3010
1000
,
1001
0010
0000
0100
,
0010
0010
0000
0001
,
0010
0100
0000
1000
,
0001
1000
0000
1000
,
0100
0010
0000
0100
,
0010
0001
0000
0001
,
1000
0010
0000
0100
,
0001
1000
0000
0010
,
0100
0010
0000
0001
,
0100
0001
0000
0100
,
0010
1000
0000
1000
,
0100
0010
0000
0100
,
1000
0001
0000
0010
,
0001
1000
0000
1000
,
2000
3010
0020
0130
,
0002
0013
0000
0001
,
0000
0100
0000
0010
,
0000
0010
0000
0100
,
0000
0001
0000
1000
,
0000
0010
0000
1000
,
0000
0001
0000
0010
,
0000
0100
0000
1000
,
0000
0010
0000
0001
,
2002
0000
3003
0110
,
0010
0100
0000
0010
,
0000
1000
0001
0100
,
0001
1000
0000
0010
,
0000
0100
0010
0100
,
0000
0010
0000
0001
,
0000
1000
0000
0010
,
0020
0000
0130
0000
,
0100
0000
1001
0000
,
1000
0001
0000
1000
,
0000
0100
0010
0001
,
0010
0100
0000
1000
,
0000
0001
1000
0001
,
0000
1000
0000
0010
,
0000
0100
0000
1000
,
2000
0000
3001
0000
,
0001
0000
0110
0000
,
0020
0000
0130
0000
,
2000
0000
3001
0000
,
0020
0000
1030
0000
,
0020
0000
0031
0000
,
0200
0000
0310
0000
,
0002
0000
1003
0000
,
0200
0000
0301
0000
,
0200
0000
1300
0010
,
0010
1000
0000
0001
,
1000
0000
0000
1000
,
0100
0010
0000
0001
,
1000
0000
0001
1000
,
0000
0001
0000
0100
,
0000
0010
0000
0001
,
0100
0010
0000
1000
,
0001
1000
0110
0000
,
1000
0100
0000
0010
,
0100
0000
0000
0100
,
0001
1000
0000
0010
,
0100
0000
0010
0100
,
0000
0010
0000
0001
,
0000
1000
0000
0010
,
0001
1000
0000
0100
,
0010
0100
1001
0000
,
0100
0001
0000
1000
,
0001
0000
0000
0001
,
0010
0100
0000
1000
,
0001
0000
1000
0001
,
0000
1000
0000
0010
,
0000
0100
0000
1000
,
0010
0100
0000
0001
,
1000
0001
0110
0000
,
0001
0010
0000
0100
,
0010
0000
0000
0010
,
1000
0001
0000
0100
,
0010
0000
0100
0010
,
0000
0100
0000
1000
,
0000
0001
0000
0100
,
1000
0001
0000
0010
,
0100
0000
0010
0000
0100
0010
0000
0000
;

//---------------dance-single - ----------------
#NOTES:
     dance-single:
     :
     Beginner:
     2:
     0.142,0.180,0.007,0.050,0.000:
0000
0000
0000
0000
,
0000
0000
0000
0000
,
0000
0000
0000
0000
,
0000
0000
0000
0000
,
0000
0010
0000
0010
,
0000
1000
0000
1000
,
0000
0001
0000
0001
,
0000
0100
0000
0100
,
0000
0010
0000
0001
,
0000
1000
0000
0010
,
0000
1000
0000
0001
,
0000
0100
0000
0001
,
0000
1000
0000
0010
,
0000
1000
0000
0100
,
0000
1000
0000
0010
,
0000
0001
0000
0100
,
0000
0001
0000
0100
,
0000
0001
0000
1000
,
0000
0010
0000
0100
,
0000
0001
0000
1000
,
1000
1000
0000
0010
,
0010
0010
0000
0100
,
0000
0010
0000
0001
,
0000
0100
0000
0010
,
0010
0010
0000
0100
,
0100
0100
0000
0001
,
0000
1000
0000
1000
,
2000
0000
0000
3000
,
0000
0000
0010
0000
,
0100
0000
0010
0000
,
0000
0000
0001
0000
,
1000
0000
0001
0000
,
0000
0000
1000
0000
,
0001
0000
1000
0000
,
0000
0000
0010
0000
,
0100
0000
0010
0000
,
0000
0000
1000
0000
,
0010
0000
1000
0000
,
0000
0000
0100
0000
,
0010
0000
0100
0000
,
0000
0000
0010
0000
,
0001
0000
0010
0000
,
0000
0000
0100
0000
,
0001
0000
0100
0000
,
0020
0000
0030
0000
,
2000
0000
3000
0000
,
0002
0000
0003
0000
,
0200
0000
0300
0000
,
1000
0000
0010
0000
,
0100
0000
1000
0000
,
0100
0000
0001
0000
,
1000
0000
0010
0000
,
0000
0000
0001
0000
,
0100
0000
0001
0000
,
0000
0000
1000
0000
,
0010
0000
1000
0000
,
0000
0000
0010
0000
,
0000
0000
0100
0000
,
0000
0000
1000
0000
,
0010
0000
1000
0000
,
0000
0000
0100
0000
,
0001
0000
0100
0000
,
0000
0000
0010
0000
,
1000
0000
0010
0000
,
0000
0000
0001
0000
,
0000
0000
0001
0000
,
0000
0000
1000
0000
,
0100
0000
1000
0000
,
0000
0000
0001
0000
,
0010
0000
0001
0000
,
0000
0000
0100
0000
,
0010
0000
0100
0000
,
0000
0000
0001
0000
,
0000
0000
1000
0000
,
0000
0000
0010
0000
,
0100
0000
0010
0000
,
0000
0000
0001
0000
,
1000
0000
0001
0000
,
0000
0000
0010
0000
,
0001
0000
0010
0000
,
0000
0000
1000
0000
,
0000
0000
0001
0000
,
0000
0000
1000
0000
,
0001
0000
2002
0000
,
3003
0000
0000
0000
;

//---------------dance-single - ----------------
#NOTES:
     dance-single:
     :
     Medium:
     7:
     0.331,0.358,0.071,0.107,0.004:
0000
0000
0000
0000
,
0000
0100
0000
0100
,
1000
0100
0000
0002
,
0000
0000
0000
0000
1003
0000
0001
1000
,
0001
0000
0100
0000
0010
0100
0010
0000
,
1000
0000
0001
0000
0100
0010
1000
0000
,
0001
0000
0100
0000
0001
0000
0010
0100
,
0001
1000
0010
0100
,
1000
0000
0010
0000
0100
0010
0100
0000
,
0001
0000
1000
0000
0010
0100
0001
0000
,
1000
0000
0010
0000
1000
0000
0100
0010
,
1000
0001
0100
0010
,
0100
0000
1000
0000
0001
1000
0001
0000
,
0010
0000
0100
0000
1000
0001
0010
0000
,
0100
0000
1000
0000
0100
0000
0001
1000
,
0100
0010
0001
1000
,
0010
0000
0001
0000
1000
0001
1000
0000
,
0100
0000
0010
0000
0001
1000
0100
0000
,
0010
0000
0001
0000
0010
0000
1000
0001
,
0010
0100
1000
0001
,
0020
0001
0000
0031
,
2000
0010
0000
3010
,
0110
0000
0000
1001
0000
0000
0010
0000
,
0000
0100
0000
0001
,
0200
1000
0000
1300
,
0002
0100
0000
0103
,
0110
0000
0000
1001
0000
0000
0100
0000
,
0101
0000
0000
1010
,
1000
0010
0100
1000
,
0010
0000
0100
0010
,
0100
0001
0010
0100
,
1000
0000
0001
0000
,
1000
0001
0100
0001
,
1000
0010
0100
0001
,
0020
0000
2030
0000
,
3001
1000
0001
0100
,
0100
1000
0001
0100
,
1000
0000
0001
1000
,
0001
0010
1000
0001
,
0100
0000
0010
0000
,
0100
0010
0001
0010
,
0100
1000
0001
0010
,
1000
0000
0001
0000
,
0010
0100
0010
0001
,
2000
0000
3010
0100
,
0002
0000
0103
0001
,
0100
0000
0000
0010
0000
0000
0100
0000
0000
0000
0001
0000
1000
0000
0001
0000
,
0000
1001
0000
0000
1000
0000
0001
1000
,
0010
1000
0000
0001
0100
0000
1000
0010
,
0100
0001
0000
1000
0001
0000
0000
0000
,
1001
0010
0100
0010
,
2002
0000
3003
0110
,
0001
0100
0010
0001
,
0100
0000
0010
0100
,
0010
1000
0100
0010
,
0001
0000
1000
0000
,
0001
1000
0010
1000
,
0001
0100
0010
1000
,
0200
0000
0302
0000
,
1003
0001
1000
0010
,
0010
0001
1000
0010
,
0001
0000
1000
0001
,
1000
0100
0001
1000
,
0010
0000
0100
0000
,
0010
0100
1000
0100
,
0010
0001
1000
0100
,
0001
0000
1000
0000
,
0100
0010
0100
1000
,
0010
0001
1000
0010
,
0001
0000
1000
0001
,
1000
0100
0001
1000
,
0010
0000
0100
0000
,
0010
0100
1000
0100
,
0010
0001
1000
0100
,
0002
0000
0023
0000
,
0130
0010
0100
1000
,
1000
0010
0100
1000
,
0010
0000
0100
0010
,
0100
0001
0010
0100
,
1000
0000
0001
0000
,
1000
0001
0100
0001
,
1000
0010
0100
0001
,
0010
0000
0100
0000
,
0001
0000
1000
0000
0001
1000
0000
0000
;

//---------------dance-single - ----------------
#NOTES:
     dance-single:
     :
     Hard:
     13:
     0.423,0.450,0.057,0.157,0.118: // measure 1
0000
0000
0000
0000
,  // measure 2
0000
0100
0000
0010
,  // measure 3
0001
1000
0000
2000
,  // measure 4
0000
0000
0000
0000
0000
0000
0000
0000
3001
0000
0000
0001
1000
0000
0010
0000
,  // measure 5
0100
0000
0000
0000
0010
0000
1000
0000
0001
0000
0100
0001
0000
0000
0000
0000
,  // measure 6
0010
0000
0000
0000
0100
0000
0010
0000
1000
0000
0001
0100
0000
0000
0010
0000
,  // measure 7
0001
0000
0000
0000
0100
0000
0010
0000
0000
0000
0000
0000
1000
0000
1000
0100
,  // measure 8
0010
0000
0100
0010
0002
0000
0203
0000
,  // measure 9
0301
0000
0000
0000
0100
0000
0001
0000
1000
0000
0010
1000
0000
0000
0000
0000
,  // measure 10
0100
0000
0001
0000
0010
0000
0100
0000
0001
0000
0000
0010
0000
0000
0100
0000
,  // measure 11
1000
0000
0010
0100
0000
0000
0001
0001
,  // measure 12
0100
0000
0010
0100
2000
0000
3020
1000
,  // measure 13
1030
0000
0000
0010
0000
0000
1000
0000
0000
0000
0010
0000
0100
0000
0010
0000
,  // measure 14
1000
0000
0000
0000
0010
0000
0000
0000
0000
0000
0010
0100
0010
1000
0001
1000
,  // measure 15
0001
0000
0000
1000
0000
0000
0000
0000
0000
0000
1000
0001
1000
0001
0100
0010
,  // measure 16
0100
0000
0000
0010
0000
0000
0100
0000
0100
0000
0000
0000
0001
0000
0010
0000
,  // measure 17
0100
0000
0000
0100
0000
0000
0010
0000
0000
0000
1000
0000
0100
0000
0010
0000
,  // measure 18
0001
0000
0100
0000
0100
0001
0100
1000
,  // measure 19
0000
0000
0000
0000
0010
0000
0000
0100
0000
0000
0000
0000
0100
0000
0000
0010
,  // measure 20
0000
0000
0000
0000
1000
0000
0000
0000
0000
0000
1000
0000
0010
1000
0000
0000
,  // measure 21
1000
0000
0000
0000
0100
0000
0000
0000
1000
0100
0010
0000
0000
0000
0000
0000
,  // measure 22
0001
0000
0000
0000
1000
0000
0000
0000
0001
0010
0100
0000
0000
0000
0000
0000
,  // measure 23
1001
0000
0000
0110
0000
0000
0010
0000
,  // measure 24
0000
0000
0000
0000
0001
0000
0000
0000
0000
0000
0001
0000
0100
0001
0000
0000
,  // measure 25
0001
0000
0000
0000
0010
0000
0000
0000
0001
0010
0100
0000
0000
0000
0000
0000
,  // measure 26
1000
0000
0000
0000
0001
0000
0000
0000
1000
0100
0010
0000
0000
0000
0000
0000
,  // measure 27
1001
0000
0000
0110
0000
0000
0010
0000
,  // measure 28
2002
0000
0000
3003
0020
0000
0130
0000
,  // measure 29
0010
0001
0010
1000
,  // measure 30
0010
0000
0000
0000
0001
0000
0100
0001
,  // measure 31
1000
0010
1000
0001
,  // measure 32
2000
3020
0230
0302
,  // measure 33
0103
0001
0000
1000
,  // measure 34
0001
0000
1000
0001
1000
0001
1000
0000
,  // measure 35
0010
1000
0000
0001
,  // measure 36
0100
0000
0000
0100
0001
0000
1000
0000
,  // measure 37
1000
0010
1000
0100
,  // measure 38
1000
0000
0000
0000
0010
0000
0001
0010
,  // measure 39
0100
1000
0100
0010
,  // measure 40
0100
1000
0001
0010
,  // measure 41
0001
0000
0010
0000
0100
0000
0001
0100
,  // measure 42
0000
0000
0100
0010
0100
0010
0100
0000
,  // measure 43
1000
0010
0000
1000
0000
0000
0010
0000
,  // measure 44
0001
0000
0000
0001
0010
0000
0100
0000
,  // measure 45
0110
0000
0000
0000
0000
0000
0000
0000
1001
0000
0100
0000
0010
0000
0001
0100
,  // measure 46
0000
0000
0000
0000
1000
0000
0000
0000
0010
0000
1000
0001
0010
0000
0100
0000
,  // measure 47
0001
0000
0000
0001
0000
0000
0010
0000
0000
0000
0100
0000
1000
0000
0100
0000
,  // measure 48
0000
0000
1000
0000
0000
0000
0000
0000
1000
0000
0000
1000
0010
0000
0100
0000
,  // measure 49
0010
0000
1000
0001
0000
0000
0100
0000
0100
0000
0000
0000
0001
0000
0010
0000
,  // measure 50
0100
0000
1000
0010
0000
0000
0100
0000
0001
0000
0000
0000
0010
0000
0100
0000
,  // measure 51
1000
0000
0000
0000
0010
0000
0000
1000
0000
0000
0000
0000
0010
0000
1000
0000
,  // measure 52
0001
0000
0000
0000
0100
0000
0000
0001
1000
0000
0000
1000
0001
0000
0100
0000
,  // measure 53
0010
1000
0100
0001
,  // measure 54
0100
0000
0000
0000
1000
0000
0010
1000
,  // measure 55
0001
0100
0001
1000
,  // measure 56
0002
0203
0320
2030
,  // measure 57
3010
1000
0000
0001
,  // measure 58
1000
0000
0001
1000
0001
1000
0001
0000
,  // measure 59
0100
0001
0010
1000
,  // measure 60
0010
0000
0000
0010
1000
0000
0001
0000
,  // measure 61
0001
0100
0001
0010
,  // measure 62
0001
0000
0000
0000
0100
0000
1000
0100
,  // measure 63
0010
0001
0010
0100
,  // measure 64
0010
0001
1000
0100
,  // measure 65
1000
0100
0010
1000
,  // measure 66
0010
0000
0010
0100
0010
0100
0010
0000
,  // measure 67
0001
0100
0000
0001
0000
0000
0100
0000
,  // measure 68
1000
0000
0000
1000
0100
0000
0010
0000
,  // measure 69
0001
0010
1000
0100
,  // measure 70
1000
0000
0000
0000
0010
0000
0001
0010
,  // measure 71
0100
1000
0100
0010
,  // measure 72
0200
2300
3002
0023
,  // measure 73
0031
0010
0000
0100
,  // measure 74
0010
0000
0100
0010
0100
0010
0100
0000
,  // measure 75
1000
0100
0001
0010
,  // measure 76
0001
0000
0000
0001
0010
0000
0100
0000
,  // measure 77
0100
1000
0100
0001
,  // measure 78
0100
0000
0000
0000
1000
0000
0010
1000
,  // measure 79
0001
0100
0001
1000
,  // measure 80
0001
0100
0010
1000
,  // measure 81
0010
1000
0001
0010
,  // measure 82
0001
0000
0001
1000
0001
1000
0001
0000
,  // measure 83
0100
1000
0000
0100
0000
0000
1000
0000
,  // measure 84
0010
0000
2002
0000
,  // measure 85
3003
0000
0000
0000
;
