#TITLE:Brand New World;
#SUBTITLE:;
#ARTIST:D-51;
#TITLETRANSLIT:;
#SUBTITLETRANSLIT:;
#ARTISTTRANSLIT:;
#CREDIT:;
#BANNER:Brand New World.png;
#BACKGROUND:Brand New World-bg.png;
#LYRICSPATH:;
#CDTITLE:;
#MUSIC:Brand New World.mp3;
#OFFSET:-0.500;
#SAMPLESTART:48.840;
#SAMPLELENGTH:15.000;
#SELECTABLE:YES;
#BPMS:0.000=160.020;
#STOPS:;
#BGCHANGES:;

//---------------dance-single - ----------------
#NOTES:
     dance-single:
     :
     Easy:
     5:
     0.309,0.393,0.192,0.229,0.000:
0000
0000
0000
0000
,
0000
0000
0000
0000
,
0000
0000
0000
0000
,
0000
0000
0000
0000
,
0100
0010
1000
0010
,
0100
0001
1000
0001
,
0100
0001
0010
0001
,
0100
0010
1000
0010
,
0100
0010
0100
0010
,
0000
0001
0001
0100
,
0000
1000
1000
0010
,
0000
0100
0010
0100
,
0000
0010
1000
1000
,
0000
0001
1000
0001
,
0000
0100
0010
1000
,
0000
0100
0010
0010
,
0000
1000
0010
0100
,
0000
1000
0001
0010
,
0000
0001
1000
0100
,
0000
0010
0100
0010
,
1000
0001
0100
0001
,
1000
0010
0100
0010
,
2000
0000
3020
0000
,
0130
0000
0000
0000
,
1001
0100
0001
0100
,
0000
0010
1000
0010
,
1010
1000
0010
1000
,
0000
0001
0100
0001
,
0101
0000
0000
0110
0000
0000
1010
0000
,
0000
1001
0000
0000
1000
0000
1000
0000
,
2000
0000
0000
0000
,
3010
0100
0010
0000
,
0102
0103
0001
0100
,
0120
0130
0010
0100
,
2010
3010
1000
0001
,
1002
1003
0010
1000
,
0000
0010
0100
0001
,
0100
0010
0200
0300
,
0100
0010
1000
0010
,
0100
0001
1000
0001
,
1020
1030
0010
1000
,
1200
1300
0100
1000
,
0102
0103
0001
0010
,
0021
0031
0100
0001
,
0000
0100
1000
0010
,
1000
0100
2000
3000
,
1000
0100
0001
0100
,
1000
0010
0001
0010
,
2010
3010
1000
0010
,
0210
0310
0100
0010
,
0102
0103
0001
1000
,
2001
3001
0100
0001
,
0000
0100
0010
1000
,
0010
0100
0020
0030
,
0010
0100
0001
0100
,
0010
1000
0001
1000
,
0201
0301
0100
0001
,
0021
0031
0010
0001
,
2010
3010
1000
0100
,
1200
1300
0010
1000
,
0000
0010
0001
0100
,
0001
0010
0002
0003
,
0001
0010
1000
0010
,
0001
0100
1000
0100
,
0220
0030
0000
0010
,
0300
0100
0000
0010
,
0000
1000
0000
0010
,
0000
1000
0001
1000
,
2002
3000
0000
1000
,
0003
0001
0000
0100
,
0000
0010
0000
1000
,
0000
0001
0100
0010
,
2020
0030
0000
0010
,
3000
1000
0000
0001
,
0000
0100
0000
0010
,
0000
1000
0010
1000
,
2002
3003
0000
0000
;

//---------------dance-single - ----------------
#NOTES:
     dance-single:
     :
     Beginner:
     3:
     0.212,0.309,0.147,0.096,0.000: // measure 1
0000
0000
0000
0000
,  // measure 2
0000
0000
0000
0000
,  // measure 3
0000
0000
0000
0000
,  // measure 4
0000
0000
0000
0000
,  // measure 5
0000
0010
0000
0010
,  // measure 6
0000
0010
0000
0010
,  // measure 7
0000
1000
0000
1000
,  // measure 8
0000
1000
0000
1000
,  // measure 9
0000
0001
0001
0001
,  // measure 10
0000
1000
0000
0010
,  // measure 11
0000
0100
0100
0100
,  // measure 12
0000
0010
0000
1000
,  // measure 13
0000
1000
1000
1000
,  // measure 14
0000
0100
0000
0010
,  // measure 15
0000
0010
0010
0010
,  // measure 16
0000
0100
0000
0010
,  // measure 17
0000
0100
0100
0100
,  // measure 18
0000
0001
0000
0001
,  // measure 19
0000
0100
0100
0100
,  // measure 20
0000
0010
0000
1000
,  // measure 21
0000
1000
0000
1000
,  // measure 22
0000
0001
0000
0100
,  // measure 23
0200
0000
0300
0000
,  // measure 24
0010
0010
0010
0000
,  // measure 25
0110
0000
0000
0100
,  // measure 26
0000
0010
0000
0000
,  // measure 27
1001
0000
0000
0001
,  // measure 28
0000
1000
0000
0000
,  // measure 29
1010
0000
0010
0000
,  // measure 30
0100
0000
0100
0000
,  // measure 31
0220
0000
0330
0000
,  // measure 32
0010
0010
0010
0000
,  // measure 33
0000
0010
0100
0010
,  // measure 34
0000
1000
0010
1000
,  // measure 35
0000
0001
0100
0001
,  // measure 36
0000
1000
0001
1000
,  // measure 37
0000
0010
0010
0010
,  // measure 38
0010
0020
0000
0030
,  // measure 39
0010
0000
0110
0000
,  // measure 40
1001
0000
1000
0000
,  // measure 41
0000
0001
0100
0001
,  // measure 42
0000
1000
0010
1000
,  // measure 43
0000
0010
0100
0010
,  // measure 44
0000
0100
0010
0100
,  // measure 45
0000
1000
1000
1000
,  // measure 46
1000
2000
0000
3000
,  // measure 47
1000
0000
1001
0000
,  // measure 48
0110
0000
1001
0110
,  // measure 49
1001
1000
0001
1000
,  // measure 50
0000
0001
0100
0001
,  // measure 51
0000
1000
0010
1000
,  // measure 52
0000
0001
1000
0001
,  // measure 53
0000
0100
0100
0100
,  // measure 54
0100
0200
0000
0300
,  // measure 55
0100
0000
0110
0000
,  // measure 56
1001
0000
0001
0000
,  // measure 57
0000
1000
0010
1000
,  // measure 58
0000
0001
0100
0001
,  // measure 59
0000
0100
0010
0100
,  // measure 60
0000
0010
0100
0010
,  // measure 61
0000
0001
0001
0001
,  // measure 62
0001
0002
0000
0003
,  // measure 63
0001
0000
1001
0000
,  // measure 64
0110
0000
0100
0100
,  // measure 65
0200
0000
0000
0000
,  // measure 66
0300
0000
0010
0000
,  // measure 67
1001
0000
0001
0000
,  // measure 68
1000
0000
0010
0010
,  // measure 69
0020
0000
0000
0000
,  // measure 70
0030
0000
0100
0000
,  // measure 71
1001
0000
1000
0000
,  // measure 72
0001
0000
1000
0001
,  // measure 73
2002
0000
0000
0000
,  // measure 74
3003
0000
0010
0000
,  // measure 75
0110
0000
0100
0000
,  // measure 76
0010
0000
0100
0000
,  // measure 77
0220
0330
0000
0000
;

//---------------dance-single - ----------------
#NOTES:
     dance-single:
     :
     Medium:
     9:
     0.360,0.393,0.147,0.184,0.000:
0000
0000
0000
0000
,
0000
0000
0000
0000
,
0000
0000
0000
0000
,
0000
0000
0000
0000
,
1000
0010
1000
0010
,
0100
0001
0100
0001
,
0100
0010
1000
0010
,
0100
0000
0001
0000
1000
0001
1000
0000
,
1010
0000
0010
0000
1000
0000
0010
0100
,
0010
0000
0100
0000
0001
0000
1000
0010
,
0100
0000
0010
0000
0100
0000
0001
0100
,
0010
0100
0001
0010
,
0110
0000
0100
0000
1000
0000
1000
0001
,
1000
0000
1000
0000
0010
0000
0100
0010
,
0100
0000
0010
0000
0100
0000
0001
0100
,
0010
0000
0100
0000
0010
1000
0010
0000
,
0101
0000
0100
0000
0001
0000
0100
0010
,
0100
0000
0010
0000
1000
0000
0001
0100
,
0010
0000
0100
0000
0010
0000
1000
0010
,
0100
0010
1000
0100
,
0002
0023
0230
2300
,
3010
1000
0010
0100
,
0220
0330
2002
3003
,
0001
1000
0001
1000
,
1001
0000
0000
1000
0000
0000
0010
0000
,
0100
0010
1000
0001
,
0101
0000
0000
0001
0000
0000
0010
0000
,
0110
0100
1000
0010
,
1010
0000
0000
0100
0000
0000
0110
0000
,
0000
0010
0000
0000
0101
0000
0001
0000
,
0002
0000
0000
0000
0003
0000
0000
0001
,
0100
0001
0100
0001
0000
0000
1001
0000
,
1000
0000
0010
1000
0000
0010
1000
0010
,
0000
0000
0100
0001
0000
0001
0100
0010
,
0000
0000
0100
0010
0000
0100
0010
0100
,
0000
0000
0010
0100
0000
0010
1000
0001
,
0000
0100
0010
0100
,
0001
1000
2000
3000
,
0010
0100
0001
0100
,
0001
0001
0022
0033
,
0100
0000
1000
0100
0000
1000
0100
1000
,
0000
0000
0001
0010
0000
0010
0001
1000
,
0000
0000
0001
1000
0000
0001
1000
0001
,
0000
0000
1000
0001
0000
1000
0100
0010
,
0000
0001
1000
0001
,
0010
0100
0200
0300
,
1000
0001
0010
0001
,
0010
1000
0010
1001
,
0001
0000
0100
0001
0000
0100
0001
0100
,
0000
0000
0010
1000
0000
1000
0010
0100
,
0000
0000
0010
0100
0000
0010
0100
0010
,
0000
0000
0100
0010
0000
0100
0001
1000
,
0000
0010
0100
0010
,
1000
0001
0002
0003
,
0100
0010
1000
0010
,
1000
1000
2200
3300
,
0010
0000
0001
0010
0000
0001
0010
0001
,
0000
0000
1000
0100
0000
0100
1000
0001
,
0000
0000
1000
0001
0000
1000
0001
1000
,
0000
0000
0001
1000
0000
0001
0010
0100
,
0000
1000
0001
1000
,
0100
0010
0020
0030
,
0001
1000
0100
1000
,
0100
0001
0100
1001
,
2002
0000
0000
3003
,
1000
0000
0000
0000
0010
0000
0000
1000
,
0010
0010
0001
0100
,
1000
0001
0100
0001
,
0202
0000
0000
0303
,
0001
0000
1000
0000
0010
0000
0000
0010
,
1000
0010
0100
0010
,
1000
0010
0100
0010
,
0220
0000
0000
0330
,
0100
0000
0010
0000
0100
0000
0000
0100
,
0010
1000
0001
0100
,
0001
0100
1000
0100
0001
0100
1000
0100
,
2002
3003
0000
0000
;

//---------------dance-single - ----------------
#NOTES:
     dance-single:
     :
     Hard:
     13:
     0.480,0.450,0.140,0.280,0.070:
0000
0000
0000
0000
,
0000
0000
0000
0000
,
0000
0000
0000
0000
,
0000
0000
0000
0000
,
0001
0000
0001
0100
0010
0100
0001
0000
,
0100
0000
0010
1000
0010
1000
0100
0000
,
1000
0000
0001
1000
0010
1000
0001
0000
,
1000
0000
0010
1000
0010
1000
0100
0000
,
1010
0000
0010
0000
1000
0000
0010
0100
,
0010
0100
0000
0010
0000
1000
0001
0100
,
0001
1000
0000
0001
0000
0001
0100
1000
,
0100
0000
0001
0000
0000
0000
0200
0000
0000
0000
0310
0100
0010
0000
0000
0000
,
0101
0000
0001
0000
0100
0000
0001
0010
,
0100
1000
0000
0010
0000
1000
0100
0010
,
0100
1000
0000
0010
0000
0010
0100
0001
,
1000
0100
0010
0001
0000
1000
0001
0000
,
0101
0000
0100
0000
0001
0000
0100
0010
,
0100
0010
0000
0100
0000
0001
1000
0010
,
1000
0001
0000
1000
0000
1000
0010
0001
,
0010
1000
0010
0200
0000
0310
0100
0002
,
0000
0023
0000
0230
0000
2300
0000
3010
,
0000
1000
0010
0000
1000
0000
1000
0010
,
0001
0000
0000
0000
0000
0000
1000
0001
1000
0000
0010
0000
0000
0000
0000
0000
,
0200
0010
0010
0310
,
1010
0000
0000
0110
0000
0000
0101
0000
,
1000
0100
0010
0001
0100
0010
1000
0001
,
0101
0000
0000
0110
0000
0000
1001
0000
,
0010
0001
0010
1000
0010
0001
0010
1000
,
1010
0000
0000
1100
0000
0000
1001
0000
,
0000
0011
0000
0000
0001
0000
0100
0000
,
0002
0000
0000
0000
0000
0000
0003
0001
,
0100
0000
0001
0000
0100
0000
0010
0000
0000
0000
0220
0000
0330
0000
0100
0010
,
1000
0000
0000
0000
1000
0000
0010
0000
0000
0000
0100
0010
1000
0000
0010
0000
,
0001
0000
0000
0000
0100
0000
0010
0000
0000
0000
0100
0010
0100
0000
0001
0000
,
1000
0000
0000
0000
0001
0000
0100
0000
0000
0000
0001
0100
0010
0000
0100
0000
,
0010
0000
0000
0000
0100
0000
0010
0000
0000
0000
0010
0100
0010
0000
1000
0000
,
0010
1000
0010
0100
0000
0010
0100
0001
,
0000
0101
0000
1001
0000
0000
1000
0001
,
1000
0001
0100
0001
,
0100
0010
0100
1000
0100
0010
0001
0100
,
0001
0000
0000
0000
0001
0000
0100
0000
0000
0000
1000
0001
1000
0000
0100
0000
,
0010
0000
0000
0000
1000
0000
0100
0000
0000
0000
1000
0100
1000
0000
0010
0000
,
0001
0000
0000
0000
0010
0000
1000
0000
0000
0000
0010
1000
0100
0000
1000
0000
,
0100
0000
0000
0000
1000
0000
0100
0000
0000
0000
0100
1000
0100
0000
0001
0000
,
0000
0001
0010
1000
0000
1000
0010
0100
,
0010
0100
0000
0001
0000
0000
0000
0001
,
0100
0010
1000
0010
,
1000
0000
0000
0010
0200
0300
0020
0030
,
0100
0000
0000
0000
0001
0000
0100
0000
0000
0000
0010
0100
0001
0000
0100
0000
,
1000
0000
0000
0000
0010
0000
0100
0000
0000
0000
0010
0100
0010
0000
1000
0000
,
0001
0000
0000
0000
1000
0000
0010
0000
0000
0000
1000
0010
0100
0000
0010
0000
,
0100
0000
0000
0000
0010
0000
0100
0000
0000
0000
0100
0010
0100
0000
0001
0000
,
0100
0001
0100
0010
0000
0100
0010
1000
,
0000
1010
0000
1001
0000
0000
0001
1000
,
0001
1000
0010
1000
,
0010
0100
0010
0001
0010
0100
1000
0010
,
1000
0000
0000
0000
1000
0000
0010
0000
0000
0000
0001
1000
0001
0000
0010
0000
,
0100
0000
0000
0000
0001
0000
0010
0000
0000
0000
0001
0010
0001
0000
0100
0000
,
1000
0000
0000
0000
0100
0000
0001
0000
0000
0000
0100
0001
0010
0000
0001
0000
,
0010
0000
0000
0000
0001
0000
0010
0000
0000
0000
0010
0001
0010
0000
1000
0000
,
0000
1000
0100
0001
0000
0001
0100
0010
,
0100
0010
0000
1000
0000
0000
0000
1000
,
0010
0100
0001
0100
,
0001
0000
0000
0100
0020
0030
0200
0300
,
0002
0203
0320
2030
,
3020
0000
0230
0000
0310
0000
0100
0010
,
0100
0001
1000
0010
,
1000
0000
0010
0000
0200
0300
0020
0030
,
2000
3020
0230
0302
,
0203
0000
0320
0000
0130
0000
0010
0100
,
0010
1000
0001
0100
,
0010
0000
1000
0000
0002
0003
2000
3000
,
0200
2300
3002
0023
,
0032
0000
2003
0000
3001
0000
1000
0001
,
1000
0100
0010
0001
,
1000
0100
0010
0001
0100
0010
1000
0001
,
2002
3003
0000
0000
;
