#TITLE:Boss Bitch;
#SUBTITLE:;
#ARTIST:Doja Cat;
#TITLETRANSLIT:;
#SUBTITLETRANSLIT:;
#ARTISTTRANSLIT:;
#CREDIT:;
#BANNER:Boss Bitch.png;
#BACKGROUND:Boss Bitch-bg.png;
#LYRICSPATH:;
#CDTITLE:;
#MUSIC:Boss Bitch.mp3;
#OFFSET:-0.020;
#SAMPLESTART:83.880;
#SAMPLELENGTH:15.000;
#SELECTABLE:YES;
#BPMS:0.000=126.000;
#STOPS:;
#BGCHANGES:-0.220=Boss Bitch.avi=1.000=0=0=0,
99999=-nosongbg-=1.000=0=0=0 // don't automatically add -songbackground-
;

//---------------dance-single - ----------------
#NOTES:
     dance-single:
     :
     Easy:
     5:
     0.254,0.286,0.015,0.186,0.000:
0000
0000
0000
0000
,
0000
0000
0000
0000
,
0000
0000
0000
0000
,
0000
0000
0000
0000
,
0000
1000
0100
0100
,
0000
0001
0100
1000
,
0000
1000
0100
0010
,
0000
0100
0001
0001
,
0000
1000
0010
0001
,
0000
0010
0001
0010
,
0000
0010
1000
0010
,
0020
0000
0000
0030
,
0110
0010
0100
0001
,
0000
1000
0010
1000
,
0000
0100
0010
1000
,
0000
0001
0100
0001
,
0000
0010
0100
0010
,
0000
1000
0100
1000
,
0000
0100
0010
1000
,
0000
0100
1000
0001
,
0020
0031
2000
3100
,
1000
0001
1000
0010
,
2000
3001
0200
0301
,
0100
0010
1000
0100
,
0020
0130
0200
0310
,
1000
0100
0010
0001
,
0002
0013
2000
3100
,
0001
1000
0001
1000
,
0000
0100
1000
0100
,
0000
0100
1000
0001
,
0000
1000
0010
0001
,
0000
0001
1000
0010
,
0000
0001
0010
0001
,
0000
0100
0010
0100
,
0000
1000
0100
1000
,
0000
0001
0100
0001
,
0101
0100
0010
1000
,
0000
0001
0100
0001
,
0000
0010
0100
0001
,
0000
1000
0010
1000
,
0000
0100
0010
0100
,
0000
0001
0010
0001
,
0000
0010
0100
0001
,
0000
0010
0001
1000
,
0200
1300
0002
0013
,
0001
1000
0001
0100
,
0002
1003
0020
1030
,
0010
0100
0001
0010
,
0200
0310
0020
0130
,
0001
0010
0100
1000
,
2000
3100
0002
0013
,
1000
0001
1000
0001
,
0000
0100
0000
0010
,
0000
1000
0000
0001
,
0000
0100
0000
0001
,
0000
1000
0000
0010
,
0000
1000
0000
1000
,
0000
0100
0000
0100
,
0000
0010
0000
0010
,
0000
0001
0000
0001
,
0002
0103
0020
1030
,
0010
0100
0010
0001
,
0020
0130
2000
3100
,
1000
0001
0010
1000
,
0002
1003
2000
3001
,
0010
1000
0001
0100
,
0200
0301
0020
1030
,
0100
0010
1000
0001
,
0000
0100
0000
0010
,
0000
1000
0000
0001
;

//---------------dance-single - ----------------
#NOTES:
     dance-single:
     :
     Beginner:
     2:
     0.166,0.156,0.067,0.000,0.000:
0000
0000
0000
0000
,
0000
0000
0000
0000
,
0000
0000
0000
0000
,
0000
0000
0000
0000
,
0000
0001
0000
1000
,
0000
0001
0000
1000
,
0000
0010
0000
0100
,
0000
0001
0000
0100
,
0000
0010
0000
0010
,
0000
1000
0000
0001
,
0000
0100
0000
0001
,
0000
0010
0000
0001
,
0000
0001
0001
0001
,
0000
1000
1000
1000
,
0000
0010
0010
0010
,
0000
0100
0100
0100
,
0000
0010
0010
0010
,
0000
0001
0001
0001
,
0000
0010
0010
0010
,
0000
1000
1000
1000
,
0000
1001
0000
0110
,
0000
0001
0000
0010
,
0000
1000
0000
1000
,
0000
0100
0000
0001
,
0000
0100
0000
1000
,
0000
0100
0000
0010
,
0000
0100
0000
0010
,
0000
1000
0000
1000
,
0000
1001
0000
0001
,
0000
0100
0000
0010
,
0000
1000
0000
0001
,
0000
0100
0000
0001
,
0000
0010
0000
0100
,
0000
1000
0000
0010
,
0000
0001
0000
0100
,
0000
1000
0000
0100
,
0000
0001
0001
0001
,
0000
0100
0100
0100
,
0000
0001
0001
0001
,
0000
1000
1000
1000
,
0000
0010
0010
0010
,
0000
1000
1000
1000
,
0000
0100
0100
0100
,
0000
0010
0010
0010
,
0000
0110
0000
1001
,
0000
1000
0000
0001
,
0000
0100
0000
0001
,
0000
1000
0000
0010
,
0000
0100
0000
0010
,
0000
1000
0000
0001
,
0000
0100
0000
0001
,
0000
1000
0000
0001
,
0000
0100
0000
0010
,
0000
0100
0000
0010
,
0000
1000
0000
1000
,
0000
0001
0000
0000
,
1001
0000
0010
0000
,
1000
0000
0001
0000
,
0100
0000
0001
0000
,
0010
0000
0000
1001
,
0000
0110
0000
1001
,
0000
0001
0000
1000
,
0000
0010
0000
1000
,
0000
0001
0000
0100
,
0000
0010
0000
0100
,
0000
0001
0000
1000
,
0000
0010
0000
1000
,
0000
0001
0000
1000
,
0000
0010
0000
1000
,
0000
0001
0000
0001
;

//---------------dance-single - ----------------
#NOTES:
     dance-single:
     :
     Medium:
     8:
     0.315,0.338,0.030,0.052,0.022:
0000
0000
0000
0000
,
0000
0000
0000
0000
,
0000
0000
0000
0000
,
0000
0000
0000
0000
,
0010
0000
0100
0000
0010
0100
0010
0000
,
0100
0000
0010
0000
0100
0010
0100
0000
,
0001
0000
1000
0000
0010
1000
0001
0000
,
0010
0000
0100
0000
1000
0010
1000
0000
,
0000
0100
0000
1000
,
0000
0001
0000
0010
,
0000
0001
0000
1000
,
0000
0100
0000
0010
,
1001
0000
0100
0000
1000
0010
1000
0000
,
0010
0000
0100
0000
0010
1000
0010
0000
,
0100
0000
0001
0000
0100
0001
0010
0000
,
0100
0000
0010
0000
1000
0100
1000
0000
,
1000
0000
0001
0000
0100
0001
0100
0000
,
0010
0000
0100
0000
0010
0100
0001
0000
,
0001
0000
1000
0000
0010
1000
0010
0000
,
0200
0000
0000
0000
0300
0000
0010
1000
,
0001
0000
0001
1000
0010
0000
0100
0000
,
0100
0000
0010
0000
0010
0000
1000
0100
,
1000
0000
0001
0010
0001
0000
0001
0000
,
0010
0000
0100
0000
1000
0000
0010
1000
,
0010
0000
0100
0001
0100
0000
0001
0000
,
1000
0000
0001
0000
0100
0000
0010
0100
,
0010
0000
0100
0010
0100
0000
0010
0000
,
1000
0001
0100
0000
,
0100
0000
0010
0000
0100
0010
0100
0000
,
0010
0000
0100
0000
0010
0100
0010
0000
,
1000
0000
0001
0000
0100
0001
1000
0000
,
0100
0000
0010
0000
0001
0100
0001
0000
,
0000
0010
0000
0001
,
0000
1000
0000
0100
,
0000
1000
0000
0001
,
0000
0010
0000
0100
,
1001
0000
0010
0000
0001
0100
0001
0000
,
0100
0000
0010
0000
0100
0001
0100
0000
,
0010
0000
1000
0000
0010
1000
0100
0000
,
0010
0000
0100
0000
0001
0010
0001
0000
,
0001
0000
1000
0000
0010
1000
0010
0000
,
0100
0000
0010
0000
0100
0010
1000
0000
,
1000
0000
0001
0000
0100
0001
0100
0000
,
0020
0000
0000
0000
0030
0000
0100
0001
,
1000
0000
1000
0001
0100
0000
0010
0000
,
0010
0000
0100
0000
0100
0000
0001
0010
,
0001
0000
1000
0100
1000
0000
1000
0000
,
0100
0000
0010
0000
0001
0000
0100
0001
,
0100
0000
0010
1000
0010
0000
1000
0000
,
0001
0000
1000
0000
0010
0000
0100
0010
,
0100
0000
0010
0100
0010
0000
0100
0000
,
0001
0000
1000
0000
0010
1000
0000
2000
,
0000
0000
0000
0000
3000
0000
0000
0020
,
0000
0000
0000
0000
0000
0000
0000
0130
,
0000
0110
0000
0000
,
2002
0000
0000
3003
,
1000
0000
0000
1000
0000
0000
1000
0000
0100
0000
0000
0100
0000
0000
0100
0000
,
0010
0000
0000
0010
0000
0000
0010
0000
0001
0000
0000
0001
0000
0000
0001
0000
,
1000
0000
0000
0001
0000
0000
1000
0000
0010
0000
0000
0100
0000
0000
0010
0000
,
0100
0000
0010
0000
1000
0000
1000
0010
,
0001
0000
0001
1000
0010
0000
0100
0000
,
0100
0000
0010
0000
0010
0000
1000
0010
,
0001
0000
0001
0010
1000
0000
0001
0000
,
0010
0000
0100
0000
1000
0000
0010
1000
,
0010
0000
0100
0001
0100
0000
0001
0000
,
1000
0000
0001
0000
0100
0000
0010
0100
,
0001
0000
1000
0100
0001
0000
0010
0000
,
1000
0000
0001
0000
0100
0001
0000
0002
,
0000
0000
0000
0000
0003
0000
0001
0100
,
0001
0000
0100
0010
1000
0000
0001
1000
;

//---------------dance-single - ----------------
#NOTES:
     dance-single:
     :
     Hard:
     14:
     0.562,0.572,0.037,0.060,0.491: // measure 1
0000
0000
0000
0000
,  // measure 2
0000
0000
0000
0000
,  // measure 3
0000
0000
0000
0000
,  // measure 4
0000
0000
0000
0000
0000
0000
0000
0001
,  // measure 5
0000
0000
0100
0000
0001
0100
0001
0000
0100
0000
0010
0000
1000
0000
0000
0000
,  // measure 6
1000
0100
1000
0100
1000
0000
0010
0100
0010
0000
0100
0000
0010
0000
0100
0000
,  // measure 7
0010
0000
0000
1000
0000
0000
0001
0000
1000
0000
0001
0010
0001
0000
0000
0000
,  // measure 8
0010
0000
0001
0010
0000
0001
0010
0001
1000
0000
0100
0000
0001
0000
0100
0000
,  // measure 9
1000
0000
0000
0100
0000
0000
1000
0000
0010
0000
0000
0100
0000
0000
0001
0000
,  // measure 10
0100
0010
1000
0010
,  // measure 11
0010
0000
0000
0001
0000
0000
0100
0000
0010
0000
0000
1000
0000
0000
0001
0000
,  // measure 12
0010
0001
1000
0010
,  // measure 13
0100
0000
0000
0000
0010
1000
0010
1000
0010
0000
1000
0010
0000
0100
0000
0000
,  // measure 14
0010
0000
0100
0000
0001
0100
0001
0100
0001
0000
0100
0001
0000
1000
0000
0000
,  // measure 15
0010
0000
1000
0100
1000
0000
0100
0000
0100
0000
0010
0100
0010
0000
0100
0000
,  // measure 16
0001
0000
0010
0001
0010
0000
0001
0000
1000
0000
0000
0000
0010
0100
0010
0100
,  // measure 17
0000
0020
0000
0000
0030
0000
0010
0000
0010
0000
0001
1000
0000
0000
0000
0000
,  // measure 18
0001
0000
0100
0001
1000
0000
0010
0000
0100
0000
0010
0000
0100
0000
0000
0000
,  // measure 19
0001
0000
0000
0000
1000
0000
0000
0000
0010
0000
0000
0000
1000
0000
0000
0000
0000
0000
0100
0000
0000
1000
0000
0000
0100
0000
0000
0000
0000
0000
1000
0000
0000
0000
0000
0000
0010
0000
0000
0000
0000
0000
0100
0000
0000
0000
0000
0000
,  // measure 20
0010
0000
0100
0000
1000
0000
0010
1000
0100
0000
0001
0000
0000
0000
0001
0100
,  // measure 21
0010
0000
0000
0000
1000
0000
0010
1000
0010
0000
0000
0000
0100
0000
0001
0100
,  // measure 22
0001
0000
1000
0010
1000
0000
0010
0100
0010
0000
0100
0000
0001
0000
0100
0001
,  // measure 23
0100
0000
0000
0000
0010
0000
1000
0010
1000
0000
0000
0000
1000
0000
1000
0010
,  // measure 24
0100
0000
0001
0100
0010
0000
1000
0001
1000
0000
0100
0000
0010
0000
0001
0100
,  // measure 25
0001
0000
1000
0000
0100
0000
0010
0001
0100
0000
0010
0000
0100
0000
0010
1000
,  // measure 26
0100
0000
0100
1000
0010
0000
0010
0100
0001
0000
0010
0000
0001
0000
0010
0001
,  // measure 27
0010
0000
0100
0000
0010
0000
1000
0100
1000
0000
0010
0000
1000
0000
0010
1000
,  // measure 28
0010
0000
0100
0001
0100
0000
0010
1000
0010
0000
0100
0000
0000
0000
0010
0000
,  // measure 29
0000
0010
1000
0001
,  // measure 30
0100
0001
0010
0001
,  // measure 31
1000
0010
1000
0010
,  // measure 32
0100
0001
0010
0001
,  // measure 33
0101
0000
0000
0001
0000
0000
0010
0000
0001
0000
0000
0100
0000
0000
0010
0000
,  // measure 34
1000
0000
0000
0100
0000
0000
1000
0000
0010
0000
0000
0100
0000
0000
0010
0000
,  // measure 35
1000
0000
0000
0010
0000
0000
0001
0000
0010
0000
0000
1000
0000
0000
0001
0000
,  // measure 36
2000
0000
0000
0000
3000
1001
0000
0100
,  // measure 37
0001
0000
0100
0001
0100
0000
0010
1000
0010
0000
0000
0100
0000
0000
0010
0000
,  // measure 38
1000
0000
0010
1000
0100
0000
0100
1000
0010
0000
0000
0100
0000
0000
0001
0000
,  // measure 39
0010
0000
0001
0100
0010
0000
0100
0010
1000
0000
0000
1000
0000
0000
0010
0000
,  // measure 40
0100
0000
0010
0100
0010
0000
0100
0010
0100
0000
0000
0010
0000
0000
0001
0000
,  // measure 41
1000
0000
0010
1000
0010
0000
0100
0001
0100
0000
0000
0010
0000
0000
0100
0000
,  // measure 42
0001
0000
0100
0001
0010
0000
0010
0001
0100
0000
0000
0010
0000
0000
1000
0000
,  // measure 43
0100
0000
1000
0010
0100
0000
0010
0100
0001
0000
0000
0001
0000
0000
0100
0000
,  // measure 44
0010
0000
0100
0010
0100
0000
0010
0100
0010
0000
0000
0100
0000
0000
1000
0010
,  // measure 45
0100
0000
0000
0000
0001
0000
0100
0001
0100
0000
0000
0000
0010
0000
1000
0010
,  // measure 46
1000
0000
0001
0100
0001
0000
0100
0010
0100
0000
0010
0000
1000
0000
0010
1000
,  // measure 47
0010
0000
0000
0000
0100
0000
0001
0100
0001
0000
0000
0000
0001
0000
0001
0100
,  // measure 48
0010
0000
1000
0010
0100
0000
0001
1000
0001
0000
0010
0000
0100
0000
1000
0010
,  // measure 49
1000
0000
0001
0000
0010
0000
0100
1000
0010
0000
0100
0000
0010
0000
0100
0001
,  // measure 50
0010
0000
0010
0001
0100
0000
0100
0010
1000
0000
0100
0000
1000
0000
0100
1000
,  // measure 51
0100
0000
0010
0000
0100
0000
0001
0010
0001
0000
0100
0000
0001
0000
0100
0001
,  // measure 52
0100
0000
0010
1000
0010
0000
0100
0001
0100
0000
0010
0000
0000
0000
0200
0000
,  // measure 53
0000
0020
0000
0000
0330
0000
0000
2020
,  // measure 54
0000
0000
0000
0000
0000
0000
0000
3030
,  // measure 55
0000
0101
0000
0000
,  // measure 56
2002
0000
0000
3003
,  // measure 57
0001
0000
0000
0001
0000
0000
0001
0000
1000
0000
0000
1000
0000
0000
1000
0000
,  // measure 58
0010
0000
0000
0010
0000
0000
0010
0000
0100
0000
0000
0100
0000
0000
0100
0000
,  // measure 59
0010
0000
0000
0010
0000
0000
0010
0000
1000
0000
0000
1000
0000
0000
1000
0001
,  // measure 60
1000
0000
0001
1000
0001
0000
1000
0001
1000
0000
0001
0000
1000
0000
0001
0100
,  // measure 61
0010
0000
0000
0000
1000
0000
0010
1000
0010
0000
0000
0000
0100
0000
0001
0100
,  // measure 62
0001
0000
1000
0010
1000
0000
0010
0100
0010
0000
0100
0000
0001
0000
0100
0001
,  // measure 63
0100
0000
0000
0000
0010
0000
1000
0010
1000
0000
0000
0000
1000
0000
1000
0010
,  // measure 64
0100
0000
0001
0100
0010
0000
1000
0001
1000
0000
0100
0000
0010
0000
0001
0100
,  // measure 65
0001
0000
1000
0000
0100
0000
0010
0001
0100
0000
0010
0000
0100
0000
0010
1000
,  // measure 66
0100
0000
0100
1000
0010
0000
0010
0100
0001
0000
0010
0000
0001
0000
0010
0001
,  // measure 67
0010
0000
0100
0000
0010
0000
1000
0100
1000
0000
0010
0000
1000
0000
0010
1000
,  // measure 68
0010
0000
0100
0001
0100
0000
0010
1000
0010
0000
0100
0000
0000
0000
0000
0000
,  // measure 69
0100
0000
0010
0001
0100
0000
0001
1000
,  // measure 70
0010
0000
1000
0010
0100
0000
0001
0100
;
