#TITLE:Bon appétit (feat. YA-LE);
#SUBTITLE:;
#ARTIST:Shaun Frank;
#TITLETRANSLIT:;
#SUBTITLETRANSLIT:;
#ARTISTTRANSLIT:;
#CREDIT:;
#BANNER:Bon appetit (feat. YA-LE).png;
#BACKGROUND:Bon appetit (feat. YA-LE)-bg.png;
#LYRICSPATH:;
#CDTITLE:;
#MUSIC:Bon appetit (feat. YA-LE).mp3;
#OFFSET:-0.420;
#SAMPLESTART:102.700;
#SAMPLELENGTH:15.000;
#SELECTABLE:YES;
#BPMS:0.000=122.020;
#STOPS:;
#BGCHANGES:;

//---------------dance-single - ----------------
#NOTES:
     dance-single:
     :
     Beginner:
     3:
     0.165,0.196,0.014,0.027,0.000: // measure 1
0000
0000
0000
0000
,  // measure 2
0000
0000
0000
0000
,  // measure 3
0000
0000
0000
0000
,  // measure 4
0000
0000
0000
0000
,  // measure 5
0000
1000
0000
1000
,  // measure 6
0000
0001
0000
1000
,  // measure 7
0000
0010
0000
0010
,  // measure 8
0000
0100
0000
0001
,  // measure 9
0000
1000
0000
1000
,  // measure 10
0000
0001
0000
0001
,  // measure 11
0000
0100
0000
0010
,  // measure 12
0000
1000
0000
0010
,  // measure 13
0000
1000
1000
1000
,  // measure 14
0000
0010
0010
0010
,  // measure 15
0000
0100
0100
0100
,  // measure 16
0000
0001
0001
0001
,  // measure 17
0000
0010
0010
0010
,  // measure 18
0000
0100
0100
0100
,  // measure 19
0000
0010
0010
0010
,  // measure 20
0020
0000
0000
0030
,  // measure 21
0000
0010
0000
0100
,  // measure 22
0000
0010
0010
0010
,  // measure 23
0000
1000
0000
0001
,  // measure 24
0000
1000
1000
1000
,  // measure 25
0000
0001
0000
1000
,  // measure 26
0000
1000
0001
1000
,  // measure 27
0000
0001
1000
0001
,  // measure 28
0000
0100
0000
0100
,  // measure 29
0000
1000
0001
1000
,  // measure 30
0000
0001
1000
0001
,  // measure 31
0000
0100
1000
0100
,  // measure 32
0000
0001
0010
0001
,  // measure 33
0000
0100
0010
0100
,  // measure 34
0000
0010
0100
0010
,  // measure 35
0000
0100
0010
0100
,  // measure 36
0000
1000
0001
1000
,  // measure 37
1001
0000
0001
0000
,  // measure 38
0001
0000
1000
0000
,  // measure 39
0010
0000
1000
0000
,  // measure 40
0100
0000
1000
0000
,  // measure 41
0010
0000
0001
0000
,  // measure 42
0100
0000
0001
0000
,  // measure 43
0100
0000
0001
0000
,  // measure 44
0110
0000
0000
0000
,  // measure 45
0000
0100
0000
0010
,  // measure 46
0000
0100
0100
0100
,  // measure 47
0000
0001
0000
1000
,  // measure 48
0000
0001
0001
0001
,  // measure 49
0000
1000
0000
0001
,  // measure 50
0000
0001
1000
0001
,  // measure 51
0000
1000
0001
1000
,  // measure 52
0000
0010
0000
0010
,  // measure 53
0000
0001
1000
0001
,  // measure 54
0000
1000
0001
1000
,  // measure 55
0000
0010
0001
0010
,  // measure 56
0000
1000
0100
1000
,  // measure 57
0000
0010
0100
0010
,  // measure 58
0000
0100
0010
0100
,  // measure 59
0000
0010
0100
0010
,  // measure 60
0000
0001
1000
0001
,  // measure 61
0000
0001
0000
0010
,  // measure 62
0000
0001
0000
0010
,  // measure 63
0000
0100
0000
1000
,  // measure 64
0000
0010
0000
0001
,  // measure 65
0000
0010
0000
1000
,  // measure 66
0000
0100
0000
1000
,  // measure 67
0000
0010
0000
1000
,  // measure 68
0000
0001
0000
0100
,  // measure 69
0200
0000
0300
0000
,  // measure 70
0010
0000
1000
0000
,  // measure 71
0002
0000
0003
0000
,  // measure 72
1000
2000
0000
3000
;

//---------------dance-single - ----------------
#NOTES:
     dance-single:
     :
     Easy:
     5:
     0.190,0.196,0.021,0.027,0.000:
0000
0000
0000
0000
,
0000
0000
0000
0000
,
0000
0000
0000
0000
,
0000
0000
0000
0000
,
1001
0000
0010
0000
,
0100
0000
0010
0000
,
1000
0000
0100
0000
,
0010
0000
0001
0000
,
0001
0100
0010
0000
,
0100
0010
1000
0000
,
1000
0100
0010
0000
,
0100
0010
0001
1000
,
0001
0000
0001
0000
,
0001
0010
0001
0000
,
0100
0000
0100
0000
,
0010
0100
1000
0000
,
1000
0000
0100
0000
,
1000
0100
1000
0000
,
0010
0000
0100
0000
,
0010
0000
0001
1000
,
0001
0100
0001
1000
,
0010
0100
0100
0000
,
0010
0100
0001
0000
,
1000
0100
1000
0000
,
1000
0010
1000
0001
,
0100
0001
0001
0000
,
0100
0010
0100
0000
,
0001
0010
0001
0000
,
1000
0010
0100
0001
,
0100
0010
1000
0000
,
0010
0001
0010
1000
,
0010
0001
0010
0000
,
0100
0010
0100
1000
,
0100
0010
0100
0000
,
0100
0010
1000
0000
,
0010
0100
0001
0000
,
1010
0000
0001
0000
,
0100
0000
0001
0000
,
0010
0000
0001
0000
,
0100
0000
0001
0000
,
1000
0000
0010
0000
,
0100
0000
0001
0000
,
2000
0000
0020
0000
,
3030
0000
1000
0010
,
1000
0010
1000
0001
,
0100
0010
0010
0000
,
0100
0010
1000
0000
,
0001
0010
0001
0000
,
0001
0100
0001
1000
,
0010
1000
1000
0000
,
0010
0100
0010
0000
,
1000
0100
1000
0000
,
0001
0100
0010
1000
,
0010
0100
0001
0000
,
0100
1000
0100
0001
,
0100
1000
0100
0000
,
0010
0100
0010
0001
,
0010
0100
0010
0000
,
0010
0100
0001
0000
,
0100
0010
1000
0000
,
0101
0000
0001
0000
,
0100
0000
0010
0000
,
1000
0000
0010
0000
,
0001
0000
0010
0000
,
1000
0000
0001
0000
,
0100
0000
0001
0000
,
0100
0000
0010
0000
,
1000
0000
0100
0000
,
1000
0000
0001
0000
,
0100
0000
0010
0000
,
1000
0000
0010
0000
,
0200
0020
0000
0330
;

//---------------dance-single - ----------------
#NOTES:
     dance-single:
     :
     Medium:
     7:
     0.320,0.319,0.048,0.014,0.000:
0000
0000
0000
0000
,
0000
0000
0000
0000
,
0000
0000
0000
0000
,
0000
0000
0000
0000
,
0110
0000
0100
0000
,
0010
0000
1000
0000
,
0001
0000
0100
0000
,
0001
0100
0001
0100
,
1001
0000
0000
1000
0010
0100
0000
0010
,
0100
1000
0000
0000
0001
0000
0100
0000
,
0001
0100
0010
1000
,
0100
1000
0001
0100
,
0001
0000
0001
0010
0001
0000
0010
0001
,
0010
0000
0100
1000
0100
0000
0000
0000
,
1000
0000
1000
0010
0100
0000
0010
0100
,
0001
0000
0100
0010
0100
0000
0000
0000
,
0010
0000
0010
1000
0010
0000
1000
0010
,
1000
0000
0001
0100
0001
0000
0000
0000
,
0100
0100
0001
0010
,
0010
0000
1000
0000
0100
0001
1000
0001
,
1000
0000
0010
1000
0010
0000
0100
0000
,
0010
0000
0100
0000
0001
0000
0100
0001
,
0010
0000
0001
0000
0100
0000
0001
1000
,
0001
1000
0010
0100
,
1001
0000
1000
0100
1000
0000
0001
0000
,
1000
0000
0001
0000
0010
0000
0001
0010
,
1000
0000
0010
0000
0001
0000
0010
0100
,
0010
0100
1000
0001
,
0101
0000
0001
0100
0001
0000
0010
1000
,
0001
0010
1000
0010
,
0001
0000
1000
0001
0010
0000
1000
0100
,
1000
0100
0001
0010
,
1000
0000
0100
0010
0100
0000
1000
1000
,
0100
0000
1000
0000
0001
0000
1000
0001
,
0100
0000
0001
0000
1000
0000
0001
0010
,
0001
0010
0100
1000
,
0010
0000
0010
0001
0010
0000
0100
0010
,
0100
0000
1000
0100
1000
0000
0000
0000
,
1000
0000
0001
0100
0001
0000
1000
0010
,
1000
0000
0010
0100
0001
0000
0000
0000
,
0100
0000
0100
1000
0100
0000
0010
0100
,
0010
0000
0001
0010
0001
0000
0000
0000
,
0001
0000
1000
0000
,
0001
0000
0000
0000
0001
1000
0001
1000
,
0001
0000
0100
0001
0100
0000
0010
0000
,
0100
0000
0010
0000
1000
0000
0010
1000
,
0100
0000
1000
0000
0010
0000
1000
0001
,
1000
0001
0100
0010
,
1001
0000
0001
0010
0001
0000
1000
0000
,
0001
0000
1000
0000
0100
0000
1000
0100
,
0001
0000
0100
0000
1000
0000
0100
0010
,
0100
0010
0001
1000
,
1010
0000
1000
0010
1000
0000
0100
0001
,
1000
0100
0001
0100
,
1000
0000
0001
1000
0100
0000
0001
0010
,
0001
0010
1000
0100
,
0001
0000
0010
0100
0010
0000
0001
0001
,
0010
0000
0001
0000
1000
0000
0001
1000
,
0010
0000
1000
0000
0001
0000
1000
0100
,
1000
0100
0010
0001
,
0100
0000
0010
0000
0010
0100
0010
0000
,
1000
0000
0010
0000
1000
0100
0010
0000
,
0001
0000
1000
0000
0100
0000
0010
1000
,
0001
0000
0010
0100
0010
0000
1000
0000
,
0010
0000
0100
0000
0001
0100
1000
0000
,
1000
0000
0010
0000
0100
0000
0001
1000
,
0100
0000
0010
1000
0100
0000
0001
0100
,
0010
0000
0100
0010
0100
0000
0110
0000
,
0010
0000
1000
0010
1000
0000
0001
0100
,
0001
0000
0010
0000
0100
0000
0001
0100
,
0001
0010
0100
1000
,
0020
2000
0000
3030
;

//---------------dance-single - ----------------
#NOTES:
     dance-single:
     :
     Hard:
     11:
     0.399,0.368,0.048,0.034,0.021:
0000
0000
0000
0000
,
0000
0000
0000
0000
,
0000
0000
0000
0000
,
0000
0000
0000
0000
,
1010
0000
0000
0000
1000
0000
0000
0000
0010
0000
0000
0100
0000
0000
0010
0000
,
1000
0000
0000
0000
0001
0000
0000
0000
0001
0000
0000
0100
0000
0000
0010
0000
,
0001
0000
0000
0000
0100
0000
0000
0000
0010
0000
0000
1000
0000
0000
0001
0000
,
0100
0000
0000
0000
0010
0000
0000
0000
1000
0000
0000
0001
0000
0000
0100
0000
,
0001
0000
0100
0001
0010
0000
0010
0001
,
0100
0010
1000
0100
,
1000
0001
0100
0001
,
1000
0010
0001
0010
,
1000
0100
0010
0100
1000
0000
0010
1000
,
0001
0000
1000
0010
0001
0000
0001
0000
,
0001
0100
1000
0100
0001
0000
0100
0001
,
1000
0000
0010
1000
0001
0000
1000
0000
,
1000
0001
0010
0001
1000
0000
0010
0100
,
0100
0000
0100
0010
0010
0000
1000
0000
,
0001
0100
0010
0100
,
0001
0000
0000
0000
0010
0000
0000
0000
0001
1000
0001
0000
1000
0000
0001
0000
,
1000
0000
1000
0010
0001
0000
0001
0100
,
0001
0100
0010
1000
0010
0000
1000
0100
,
0010
0100
0010
0001
0100
0000
0001
0010
,
0100
0010
0001
0010
1000
0000
0001
0000
,
0101
0000
0100
1000
0010
0000
0010
0001
,
0010
0001
1000
0100
1000
0000
0100
0001
,
1000
0001
1000
0010
0001
0000
0010
1000
,
0001
1000
0010
1000
0100
0000
0010
0000
,
0101
0000
0100
0001
1000
0000
1000
0010
,
1000
0010
0001
0100
0001
0000
0100
0000
,
0001
0000
0001
1000
0010
0000
1000
0001
,
0010
0001
1000
0001
0100
0000
1000
0000
,
1010
0000
0010
0100
0001
0000
0001
1000
,
0001
1000
0100
0010
0100
0000
0010
1000
,
0100
1000
0100
0001
1000
0000
0001
0100
,
1000
0100
0001
0100
0010
0000
0001
0000
,
1000
0010
1000
0000
0001
0100
0010
0000
,
0100
0000
0010
0100
0010
0000
0000
0000
,
0001
0010
1000
0000
1000
0010
0001
0000
,
1000
0000
0100
0010
1000
0000
0000
0000
,
0010
1000
0001
0000
0100
0001
1000
0000
,
0010
0000
0010
0100
0010
0000
0000
0000
,
2000
0000
3002
0000
,
2003
0000
0000
0000
0000
0000
0000
0000
3001
1000
0001
0000
1000
0000
0001
0000
,
1000
0000
0001
0100
1000
0000
1000
0010
,
1000
0010
0100
0001
0100
0000
0001
0010
,
0100
0010
0100
1000
0010
0000
1000
0100
,
0010
0100
1000
0100
0001
0000
1000
0000
,
1010
0000
0010
0001
0100
0000
0100
1000
,
0100
1000
0001
0010
0001
0000
0010
1000
,
0001
1000
0001
0100
1000
0000
0100
0001
,
1000
0001
0100
0001
0010
0000
0100
0000
,
1010
0000
0010
1000
0001
0000
0001
0100
,
0001
0100
1000
0010
1000
0000
0010
0001
,
1000
0010
1000
0001
0100
0000
0001
1000
,
0100
1000
0001
1000
0010
0000
0001
0000
,
0101
0000
0100
0010
1000
0000
1000
0001
,
1000
0001
0010
0100
0010
0000
0100
0001
,
0010
0001
0010
1000
0001
0000
1000
0010
,
0001
0010
1000
0010
0100
0000
1000
0000
,
0001
0000
0100
0000
0001
1000
0010
1000
,
0010
0000
1000
0000
0010
0100
1000
0100
,
0010
0000
0100
0000
0001
0000
0100
0001
,
0100
1000
0100
0001
0100
0000
0010
0000
,
0010
0000
0001
0000
0010
0100
1000
0100
,
1000
0000
0100
0000
1000
0001
0100
0001
,
1000
0000
0001
0000
0010
0000
0001
0010
,
0001
0100
0001
0010
0001
0000
1000
0000
,
0100
0000
0100
0010
0100
0000
0010
0100
,
0010
0100
0001
1000
0001
0000
1000
0001
,
1000
0001
0100
0010
0100
0000
0010
0000
,
2000
0002
0000
3003
;
