#TITLE:Blue Hour;
#SUBTITLE:;
#ARTIST:TOMORROW X TOGETHER;
#TITLETRANSLIT:;
#SUBTITLETRANSLIT:;
#ARTISTTRANSLIT:;
#CREDIT:;
#BANNER:Blue Hour.png;
#BACKGROUND:Blue Hour-bg.png;
#LYRICSPATH:;
#CDTITLE:;
#MUSIC:Blue Hour.mp3;
#OFFSET:0.860;
#SAMPLESTART:102.220;
#SAMPLELENGTH:15.000;
#SELECTABLE:YES;
#BPMS:0.000=112.000;
#STOPS:;
#BGCHANGES:1.460=Blue Hour.avi=1.000=0=0=0,
99999=-nosongbg-=1.000=0=0=0 // don't automatically add -songbackground-
;

//---------------dance-single - ----------------
#NOTES:
     dance-single:
     :
     Easy:
     4:
     0.204,0.317,0.154,0.181,0.000:
0000
0000
0000
0000
,
0000
0000
0000
0000
,
0000
0000
0000
0000
,
0000
0000
0000
0000
,
0000
0000
0000
0000
,
0000
0000
0000
0000
,
0000
0000
0000
0000
,
0000
0000
0000
0000
,
0000
0100
0100
0010
,
0000
0001
0001
1000
,
0000
1000
0001
1000
,
0000
0010
0100
0010
,
0000
0100
0001
1000
,
0000
1000
0001
0010
,
0000
0100
0010
0100
,
0000
0001
0100
0001
,
0202
0303
0100
0010
,
2020
3030
1000
0001
,
2002
3003
0000
0010
,
0000
0100
0000
0100
,
0220
0330
0010
0010
,
2020
3030
1000
1000
,
2002
3003
0001
0001
,
0000
0001
1000
0001
,
0000
0100
0010
0010
,
0000
1000
0010
0001
,
0000
0100
0010
0010
,
0000
1000
0100
1000
,
0000
0001
0100
0010
,
0000
0000
0100
0001
,
0101
0010
1000
1010
,
1000
1000
1001
0000
,
0202
0000
0303
0000
,
0100
0010
0100
1001
,
0000
0001
0000
0100
,
0000
0010
0000
0010
,
2020
0000
3030
0000
,
0100
0010
0001
1001
,
0000
0100
0000
1000
,
0000
0001
0000
0101
,
0001
0000
0000
0001
0001
0000
0000
0000
,
1000
0000
0000
1000
1000
0000
0000
0000
,
0010
0000
0000
0010
0010
0000
0000
0000
,
0100
0000
0100
0000
,
0100
0100
0100
0100
,
0100
0100
0100
0000
,
0010
0000
1000
0000
,
0002
0023
0230
2300
,
3000
1000
0001
1000
,
0000
0010
0100
0100
,
0000
0001
0100
1000
,
0000
0010
0100
0100
,
0000
0001
0010
0001
,
0000
1000
0010
0100
,
0000
0000
0010
1000
,
1010
0100
0001
0101
,
0001
0001
1001
0000
,
2020
0000
3030
0000
,
0010
0100
0010
1001
,
0000
1000
0000
0010
,
0000
0100
0000
0100
,
0202
0000
0303
0000
,
0010
0100
1000
1001
,
0000
0010
0000
0001
,
0000
1000
0000
2002
,
3003
0000
0000
0000
;

//---------------dance-single - ----------------
#NOTES:
     dance-single:
     :
     Beginner:
     2:
     0.166,0.226,0.105,0.112,0.000:
0000
0000
0000
0000
,
0000
0000
0000
0000
,
0000
0000
0000
0000
,
0000
0000
0000
0000
,
0000
0000
0000
0000
,
0000
0000
0000
0000
,
0000
0000
0000
0000
,
0000
0000
0000
0000
,
0000
0100
0000
0001
,
0000
1000
0000
1000
,
0000
0001
0000
0100
,
0000
0010
0000
0100
,
0000
0001
0000
1000
,
0000
0010
0000
0100
,
0000
0001
0000
0100
,
0000
0010
0000
0000
,
2002
3003
0000
0000
,
0220
0330
0000
0000
,
2020
3030
0000
0100
,
0000
0010
0000
0000
,
0100
0100
0100
0000
,
0010
0010
0010
0000
,
2002
0000
3003
0000
,
0000
1001
0000
0110
,
0000
0001
0001
0001
,
0000
1000
1000
1000
,
0000
0010
0010
0010
,
0000
0100
0100
0100
,
0000
0001
0001
0001
,
0000
1000
1000
1000
,
0000
0110
0000
1001
,
0000
0010
0010
0010
,
0020
0000
0030
0000
,
0100
0010
0100
0000
,
0001
1000
0001
0000
,
1000
0001
1000
0000
,
2000
0000
3000
0000
,
1000
0001
1000
0000
,
0001
0100
0001
0000
,
0220
0000
0330
1001
,
0000
0000
0010
0000
,
0100
0000
0010
0000
,
1000
0000
0001
0000
,
0100
0000
0001
0000
,
1000
1000
1000
0000
,
0001
0001
0001
0000
,
1000
0001
1000
0001
,
0100
0010
0100
0010
,
0000
0100
0000
1001
,
0000
1000
1000
1000
,
0000
0001
0001
0001
,
0000
0100
0100
0100
,
0000
0010
0010
0010
,
0000
1000
1000
1000
,
0000
0001
0001
0001
,
0000
0110
0000
1001
,
0000
0100
0100
0100
,
0200
0000
0300
0000
,
0010
0100
0010
0000
,
1000
0001
1000
0000
,
0001
1000
0001
0000
,
0002
0000
0003
0000
,
0001
1000
0001
0000
,
1000
0010
1000
0000
,
0220
0000
0330
1001
;

//---------------dance-single - ----------------
#NOTES:
     dance-single:
     :
     Medium:
     8:
     0.308,0.340,0.105,0.167,0.035:
0000
0000
0000
0000
,
0000
0000
0000
0000
,
0000
0000
0000
0000
,
0000
0000
0000
0000
,
0000
0000
0000
0000
,
0000
0000
0000
0000
,
0000
0000
0000
0000
,
0000
0000
0000
0000
,
0010
0010
0100
0010
,
1000
0000
0100
0000
0001
1000
0010
1000
,
0001
0000
0100
0000
1000
0010
0001
0010
,
1000
0010
0010
0100
,
0001
1000
1000
0100
,
0001
0000
0100
0000
0010
1000
0010
1000
,
0002
0013
2000
3010
,
0000
0100
0100
0010
0010
0000
0100
0000
,
0102
0003
0100
0010
,
2010
3000
1000
0010
,
0120
0030
0100
0001
,
1000
0100
0010
0001
0000
0000
0100
0000
,
0210
0310
0010
0100
,
2001
3001
0001
1000
,
2002
0000
0000
0000
3003
0001
1000
0000
,
0000
0000
0010
0000
0100
0000
0000
0000
0010
0000
0000
0000
1000
0000
0000
0010
,
0000
0000
0100
0000
0000
0000
0001
0000
1000
0000
0000
0000
1000
0000
0000
0020
,
0000
0000
0130
0000
0100
0010
0001
0000
,
0100
0001
0001
0100
,
0010
0000
1000
0000
1000
0000
0000
0000
0001
0000
0000
0000
0100
0000
0000
0010
,
0000
0000
0001
0000
0000
0000
0010
0000
1000
0000
0000
0000
0010
0000
0000
2000
,
0000
0000
3001
0000
0100
0010
0100
0010
,
1000
0000
0010
0100
0010
0100
0001
0000
,
0001
0010
0100
1000
0001
0000
0100
0000
,
0020
1000
0100
1030
,
1000
1010
1000
1001
,
0100
0001
0100
1000
0100
0001
0100
1000
,
0000
0010
1000
0010
,
2000
0001
0100
3001
,
0001
0110
0100
0101
,
0001
1000
0100
1000
0001
0010
0001
2000
,
0000
0000
0010
0020
3000
1030
0001
0000
,
0200
0000
0000
0010
0310
0000
0000
0000
,
0020
0000
0000
1000
1030
0000
0000
0000
,
1000
0000
0000
1000
0000
0000
1000
0000
0001
0000
0000
0001
0000
0000
0001
0000
,
2000
0000
0000
0001
3001
0000
0010
0010
,
0000
1000
1000
0000
0010
0010
0000
0100
,
0100
0000
0001
0001
0000
1000
0010
0000
,
1000
0001
1000
0010
,
0100
0001
1000
1001
,
0000
0000
0100
0000
0010
0000
0000
0000
0100
0000
0000
0000
0001
0000
0000
0100
,
0000
0000
0010
0000
0000
0000
1000
0000
0001
0000
0000
0000
0001
0000
0000
0200
,
0000
0000
0310
0000
0010
0100
1000
0000
,
0010
1000
1000
0010
,
0100
0000
0001
0000
0001
0000
0000
0000
1000
0000
0000
0000
0010
0000
0000
0100
,
0000
0000
1000
0000
0000
0000
0100
0000
0001
0000
0000
0000
0100
0000
0000
0002
,
0000
0000
1003
0000
0010
0100
0010
0100
,
0001
0000
0100
0010
0100
0010
1000
0000
,
1000
0100
0010
0001
1000
0000
0010
0000
,
0200
0001
0010
0301
,
0001
0101
0001
1001
,
0010
1000
0010
0001
0010
1000
0010
0001
,
0000
0100
0001
0100
,
0002
1000
0010
1003
,
1000
0110
0010
1010
,
1000
0001
0010
0001
1000
0100
1000
0002
,
0000
0000
0100
0200
0003
0301
1000
0001
;

//---------------dance-single - ----------------
#NOTES:
     dance-single:
     :
     Hard:
     13:
     0.454,0.497,0.084,0.230,0.290: // measure 1
0000
0000
0000
0000
,  // measure 2
0000
0000
0000
0000
,  // measure 3
0000
0000
0000
0000
,  // measure 4
0000
0000
0000
0000
,  // measure 5
1000
0010
0000
0100
0000
0000
0001
0000
0100
0001
0100
0001
0000
0000
0010
0000
,  // measure 6
0000
0000
0000
0000
0000
0010
0110
0000
,  // measure 7
0010
0100
0000
0010
0000
0000
1000
0010
0100
0001
0000
0100
0000
0000
0010
0000
,  // measure 8
0000
0000
0000
0000
0000
0000
0000
0000
0000
0000
0100
0000
0100
0001
0100
0000
,  // measure 9
0010
0100
0001
0100
0000
0000
0010
1000
0001
1000
0000
0000
1000
0010
1000
0000
,  // measure 10
0000
0000
0010
0000
0000
0000
0100
0010
0100
0000
0001
0000
0010
0000
0100
0000
,  // measure 11
1000
0000
1001
0000
0000
0000
1000
0010
0100
0000
0010
0000
1000
0000
0001
0000
,  // measure 12
0100
0101
0000
0010
1000
0000
1000
0000
,  // measure 13
1000
0010
0100
0010
0000
0000
0100
0001
1000
0001
0000
0000
0100
0001
0100
0000
,  // measure 14
0000
0010
0000
0100
0100
0010
1000
0001
,  // measure 15
0100
0000
0000
0000
0110
0000
0000
0000
0010
0000
0000
0000
1010
0000
0000
1000
,  // measure 16
0000
0000
0100
0000
0100
0000
0010
0000
0010
0000
0000
0000
0010
1000
0000
0000
,  // measure 17
2020
0000
0000
0000
3030
0000
1000
0010
1000
0000
0001
0100
0001
0000
0000
0000
,  // measure 18
0220
0000
0000
0000
0330
0000
0100
0001
0100
0000
0010
1000
0010
0000
0000
0000
,  // measure 19
0202
0000
0000
0000
0303
0000
0001
0100
0010
0000
1000
0010
0100
0000
0010
0000
,  // measure 20
1000
0000
0001
0000
0010
0000
0100
0000
0000
0000
0001
0000
0001
0100
0000
0000
,  // measure 21
0001
0100
0000
0000
0100
0001
0000
0000
1000
0010
0000
0000
0200
0000
0000
0000
,  // measure 22
0310
0100
0000
0000
0010
1000
0000
0000
1000
0001
0000
0000
0002
0000
0000
0000
,  // measure 23
0203
0000
0010
0300
0000
1000
1000
0000
,  // measure 24
0000
0000
1000
0000
0010
0000
0000
0000
0100
0000
0010
0000
0100
0010
0100
0000
,  // measure 25
0010
0000
0000
0000
1000
0000
0010
0000
0100
0000
0000
0000
0010
0000
0000
0002
,  // measure 26
0000
0000
0103
0010
1000
0000
0000
1000
0010
0000
0100
0000
0010
0000
1000
0010
,  // measure 27
0000
0000
0100
0000
0000
0000
0001
0000
0100
0000
0000
0000
0010
0000
0000
1000
,  // measure 28
0001
0000
0010
0000
0010
0000
0000
0000
1000
0000
0010
0000
1000
0000
0000
0010
,  // measure 29
0000
0000
2000
0000
0002
0000
3003
0000
0001
0000
0000
0000
1000
0000
0000
2000
,  // measure 30
0000
0000
3010
1000
0001
0000
0000
0000
0001
0000
0010
0000
1000
0000
0010
0000
,  // measure 31
0001
0000
1000
0100
0001
0100
1000
0000
,  // measure 32
0001
0000
0001
0000
0010
0000
0010
0000
0100
0000
0100
0000
1000
0010
1000
0000
,  // measure 33
2000
0000
0010
0010
3010
0000
0100
0001
,  // measure 34
0010
0000
0000
0000
0100
0000
0000
0000
0001
0000
0000
0000
0100
0000
0000
0000
0010
0000
0000
0000
1000
0000
0000
0000
0001
0000
0000
0000
0000
0000
0000
0000
0000
1000
0000
0000
0001
0000
0000
0000
0000
0000
0000
0000
0000
0000
0000
0000
,  // measure 35
1000
0100
0010
0001
0010
0100
1000
2000
,  // measure 36
0000
0000
0010
0000
3010
0000
0100
0000
0010
0000
1000
0000
0010
1000
0001
0000
,  // measure 37
0200
0000
0010
0010
0310
0000
0100
0010
,  // measure 38
1000
0000
0000
0000
0001
0000
0000
0000
0100
0000
0000
0000
0001
0000
0000
0000
1000
0000
0000
0000
0010
0000
0000
0000
0100
0000
0000
0000
0000
0000
0000
0000
0000
0100
0000
0000
0001
0000
0000
0000
0000
0000
0000
0000
0000
0000
0000
0000
,  // measure 39
0010
0001
0100
1000
0100
0001
0010
2000
,  // measure 40
0000
0000
0001
0002
3003
0110
1001
0000
,  // measure 41
0200
0000
0000
0000
0000
0000
0010
0000
0310
0000
0000
0000
0000
0000
0001
1000
,  // measure 42
0002
0000
0000
0000
0000
0000
1000
0000
1003
0000
0000
0000
0000
0000
1000
0010
,  // measure 43
0100
0000
0000
0010
0000
0000
0100
0000
0001
0000
0000
1000
0000
0000
0010
0000
,  // measure 44
1000
0000
0000
0100
0001
0000
1000
0010
,  // measure 45
0000
0100
0100
0000
0010
0010
0000
1000
,  // measure 46
1000
0000
0001
0001
0000
0100
0010
1000
,  // measure 47
0010
0100
0001
0100
0010
1000
0100
0001
,  // measure 48
2000
3200
0320
0032
,  // measure 49
0003
0000
0001
0000
0100
0000
0000
0000
0010
0000
0000
0000
0100
0000
0000
0010
,  // measure 50
0000
0000
0100
0000
0001
0000
0100
0000
0010
0000
0000
0000
0100
0000
0000
2000
,  // measure 51
0000
0000
3010
0100
0001
0000
0000
0001
0100
0000
0010
0000
0100
0000
0001
0100
,  // measure 52
0000
0000
0010
0000
0000
0000
1000
0000
0010
0000
0000
0000
0100
0000
0000
0001
,  // measure 53
1000
0000
0100
0000
0100
0000
0000
0000
0001
0000
0100
0000
0001
0000
0000
0100
,  // measure 54
0000
0000
0002
0000
2000
0000
3003
0000
1000
0000
0000
0000
0001
0000
0000
0002
,  // measure 55
0000
0000
0103
0001
1000
0000
0000
0000
1000
0000
0100
0000
0001
0000
0100
0000
,  // measure 56
1000
0000
0001
0010
1000
0010
0001
0000
,  // measure 57
1000
0000
1000
0000
0100
0000
0100
0000
0010
0000
0010
0000
0001
0100
0001
0000
,  // measure 58
0002
0000
0100
0100
0103
0000
0010
1000
,  // measure 59
0100
0000
0000
0000
0010
0000
0000
0000
1000
0000
0000
0000
0010
0000
0000
0000
0100
0000
0000
0000
0001
0000
0000
0000
1000
0000
0000
0000
0000
0000
0000
0000
0000
0001
0000
0000
1000
0000
0000
0000
0000
0000
0000
0000
0000
0000
0000
0000
,  // measure 60
0001
0010
0100
1000
0100
0010
0001
0002
,  // measure 61
0000
0000
0100
0000
0103
0000
0010
0000
0100
0000
0001
0000
0100
0001
1000
0000
,  // measure 62
0020
0000
0100
0100
0130
0000
0010
0100
,  // measure 63
0001
0000
0000
0000
1000
0000
0000
0000
0010
0000
0000
0000
1000
0000
0000
0000
0001
0000
0000
0000
0100
0000
0000
0000
0010
0000
0000
0000
0000
0000
0000
0000
0000
0010
0000
0000
1000
0000
0000
0000
0000
0000
0000
0000
0000
0000
0000
0000
,  // measure 64
0100
1000
0010
0001
0010
1000
0100
0002
,  // measure 65
0000
0000
1000
2000
3003
0110
1001
0000
;
