#TITLE:Black Mamba;
#SUBTITLE:;
#ARTIST:aespa;
#TITLETRANSLIT:;
#SUBTITLETRANSLIT:;
#ARTISTTRANSLIT:;
#CREDIT:;
#BANNER:Black Mamba.png;
#BACKGROUND:Black Mamba-bg.png;
#LYRICSPATH:;
#CDTITLE:;
#MUSIC:Black Mamba.mp3;
#OFFSET:0.540;
#SAMPLESTART:46.140;
#SAMPLELENGTH:15.000;
#SELECTABLE:YES;
#BPMS:0.000=180.000,44.000=90.000,92.000=180.000,156.000=90.000,192.000=180.000;
#STOPS:;
#BGCHANGES:;

//---------------dance-single - ----------------
#NOTES:
     dance-single:
     :
     Easy:
     4:
     0.219,0.303,0.078,0.078,0.000:
0000
0000
0000
0000
,
0000
0000
0000
0000
,
0000
0000
0000
0110
,
0000
0000
0000
0000
,
0000
0000
0000
0000
,
0000
0000
0000
0000
,
0000
0000
0000
0110
,
0000
0000
0000
0000
,
0000
0000
0000
0000
,
0000
0000
0000
0000
,
0000
0000
0000
0000
,
0000
0001
1000
0001
,
0000
1000
0010
1010
,
0000
0100
0010
0001
,
0000
0001
1000
0110
,
0000
0100
1000
0100
,
0000
0001
0010
0010
,
0000
0100
0010
1000
,
0000
0010
1000
0001
,
0000
0100
0010
0100
,
0010
1000
0001
1000
,
0001
0010
0100
1000
,
1010
0000
0000
0000
1000
0001
1000
0000
,
1001
0000
0000
0000
0010
0000
0000
0001
,
0000
0001
0100
0001
,
0100
0000
0000
0000
1000
0000
0000
0010
,
0000
1000
0010
1000
,
0010
0000
0000
0000
0100
0000
0000
0010
,
0000
0001
0010
0100
,
1000
0000
0000
0000
1000
0000
0000
0010
,
0000
1000
0001
0100
,
0101
0000
0000
0000
0001
0000
0000
0010
,
0000
0100
1000
0010
,
1000
0000
0000
0000
1000
0000
0000
0010
,
0000
0001
1000
0001
,
1000
0000
0000
0000
0010
0000
0000
1000
,
0000
0010
1000
0010
,
1000
0000
0000
0000
0010
0000
0000
0100
,
0000
0010
0000
0000
,
0020
0000
0130
0000
,
2000
0100
3100
0000
,
0200
0000
0301
0000
,
0002
0010
1003
0000
,
0020
0000
0130
0000
,
0200
1000
1300
0000
,
2000
0000
3100
0000
,
0020
0100
0130
0000
,
0002
0000
0000
0000
1003
0001
1000
0000
,
1001
0000
0000
0000
0100
0000
0000
1000
,
0000
1000
0010
1000
,
0010
0000
0000
0000
0001
0000
0000
0100
,
0000
0001
0100
0001
,
0100
0000
0000
0000
0010
0000
0000
0100
,
0000
1000
0100
0010
,
0001
0000
0000
0000
0001
0000
0000
0100
,
0000
0001
1000
0010
,
1010
0000
0000
0000
1000
0000
0000
0100
,
0000
0010
0001
0100
,
0001
0000
0000
0000
0001
0000
0000
0100
,
0000
1000
0001
1000
,
0001
0000
0000
0000
0100
0000
0000
0001
,
0000
0100
0001
0100
,
0001
0000
0000
0000
0100
0000
0000
0010
,
0000
0100
0010
0100
;

//---------------dance-single - ----------------
#NOTES:
     dance-single:
     :
     Beginner:
     2:
     0.133,0.276,0.086,0.086,0.000:
0000
0000
0000
0000
,
0000
0000
0000
0000
,
0000
0000
0000
0000
,
0000
0000
0000
0000
,
0000
0000
0000
0000
,
0000
0000
0000
0000
,
0000
0000
0000
0000
,
0000
0000
0000
0000
,
0000
0000
0000
0000
,
0000
0000
0000
0000
,
0000
0000
0000
0000
,
0000
0010
0000
0100
,
0000
0001
0000
1001
,
0000
0001
0000
1000
,
0000
1000
0000
0001
,
0000
0010
0010
0010
,
0000
1000
1000
1000
,
0000
0001
0001
0001
,
0000
0010
0010
0010
,
0000
1000
1000
1000
,
0000
0010
0010
0010
,
0000
0100
0100
0100
,
0000
0000
0000
0000
0010
0010
0000
0000
,
1001
0000
0001
0000
,
0000
0000
1000
0000
,
0000
0000
0010
0000
,
0000
0000
0100
0000
,
0000
0000
0010
0000
,
0000
0000
1000
0000
,
0000
0000
0001
0000
,
0000
0000
0100
0100
,
0100
0000
0001
0000
,
0000
0000
0010
0000
,
0000
0000
0001
1000
,
0001
0000
1001
0000
,
0000
0000
0010
0000
,
0000
0000
1000
0000
,
0000
0000
0010
0100
,
0010
0000
0110
0000
,
0020
0000
0030
0000
,
0020
0000
0030
0000
,
2000
0000
3000
0000
,
0200
0000
0300
0000
,
0002
0000
0003
0000
,
0020
0000
0030
0000
,
0002
0000
0003
0000
,
0200
0000
0300
0000
,
0220
0000
0330
0110
,
1001
0000
1000
0000
,
0000
0000
0001
0000
,
0000
0000
0100
0000
,
0000
0000
0010
0000
,
0000
0000
0100
0000
,
0000
0000
0001
0000
,
0000
0000
1000
0000
,
0000
0000
0010
0010
,
0010
0000
1000
0000
,
0000
0000
0100
0000
,
0000
0000
1000
0001
,
1000
0000
1001
0000
,
0000
0000
0100
0000
,
0000
0000
0001
0000
,
0000
0000
0100
0010
,
0100
0000
0110
0110
;

//---------------dance-single - ----------------
#NOTES:
     dance-single:
     :
     Medium:
     8:
     0.337,0.386,0.130,0.199,0.086:
0000
0000
0000
0000
,
0000
0000
0000
0000
,
0000
0000
0000
1001
,
1000
0000
0000
0000
0010
0000
0000
1000
,
0000
0000
0001
0000
0001
1000
0001
1000
,
0001
0000
0000
0000
0100
0000
0000
0010
,
0000
0000
1000
0000
1000
0001
1000
0001
,
1000
0000
0000
0000
0010
0000
0000
0100
,
0000
0000
0010
0000
0100
0010
0100
0010
,
0100
0000
0000
0000
0010
0000
0000
1000
,
0001
0010
0100
1000
0002
0000
0000
0000
,
1003
0010
0100
0000
1000
0100
0010
0000
,
0100
0010
0001
0000
0001
1000
1010
0000
,
0100
0010
1000
0000
0001
0100
0001
0000
,
1000
0100
1000
0000
0001
0010
0011
0000
,
0000
0100
0010
1000
,
0000
0001
0100
0010
,
0000
1000
0010
1000
,
0000
1000
0010
0001
,
1001
0000
0000
0000
1000
0000
0000
0010
0000
0000
1000
0000
0010
0000
1000
0000
,
0001
0000
0000
0000
0100
0000
0000
0010
0000
0000
0100
0000
0001
0000
0010
0000
,
0001
0000
0000
0000
0100
0000
0000
0001
0000
0000
1000
0000
0100
0000
0010
0000
,
0001
0000
0000
0000
0100
0000
0000
0010
0000
0000
1000
0000
0010
0000
1000
0000
,
1010
0000
0000
0000
1000
0000
0000
0010
,
0000
0000
1000
0000
0000
0000
0010
0100
,
0001
0000
0000
0000
0010
0000
0000
0010
,
0000
0000
0001
0000
0000
0000
0001
0010
,
0100
0000
0000
0000
0010
0000
0000
1000
,
0000
0000
1000
0000
0000
0000
1000
0010
,
0100
0000
0000
0000
0010
0000
0000
0100
,
0000
0000
0010
0000
0000
0000
1000
0001
,
1000
0000
0000
0000
0020
0030
0000
2000
,
3000
0000
2020
3030
0000
0000
0000
0000
,
1000
0000
0010
0000
1000
0000
0010
0000
1000
0000
0010
0000
,
0100
0000
0000
0000
1001
0000
0001
1000
,
0001
0000
0000
0000
0002
0003
0000
0200
,
0300
0000
0220
0330
0000
0000
0000
0000
,
0001
0000
0100
0000
0001
0000
1000
0000
0010
0000
1000
0000
,
0001
0000
0001
0010
0100
0000
0010
0000
,
0002
0100
0103
0010
,
1000
0010
0100
1100
,
0020
0100
0130
0001
,
0100
0010
1000
0010
,
0200
0001
0301
0001
,
1000
0010
0100
1001
,
0002
0010
0013
0100
,
0010
1000
0010
0100
,
2002
0000
0000
0000
3003
0001
1000
0001
,
0101
0000
0000
0000
0001
0000
0000
0100
,
0000
0000
0001
0000
0000
0000
0100
0010
,
1000
0000
0000
0000
0100
0000
0000
0100
,
0000
0000
1000
0000
0000
0000
1000
0100
,
0010
0000
0000
0000
0100
0000
0000
0001
,
0000
0000
0001
0000
0000
0000
0001
0100
,
0010
0000
0000
0000
0100
0000
0000
0010
,
0000
0000
0100
0000
0000
0000
0001
1000
,
0001
0000
0000
0000
0200
0300
0000
0002
,
0003
0000
0202
0303
0000
0000
0000
0000
,
0001
0000
0100
0000
0001
0000
0100
0000
0001
0000
0100
0000
,
0010
0000
0000
0000
1001
0000
1000
0001
,
1000
0000
0000
0000
2000
3000
0000
0020
,
0030
0000
0220
0330
0000
0000
0000
0000
,
1000
0000
0010
0000
1000
0000
0001
0000
0100
0000
0001
0000
,
1000
0000
1000
0100
0010
0000
0100
0000
;

//---------------dance-single - ----------------
#NOTES:
     dance-single:
     :
     Hard:
     12:
     0.488,0.662,0.190,0.182,0.277: // measure 1
0000
0000
0000
0000
,  // measure 2
0000
0000
0000
0000
,  // measure 3
0000
0000
0000
0110
,  // measure 4
0010
0000
0000
0000
1000
0000
0000
0001
,  // measure 5
0000
0000
0001
0000
0001
0010
0100
1000
,  // measure 6
0001
0000
0000
0000
0001
0000
0000
1000
,  // measure 7
0000
0000
0010
0000
1000
0010
0100
0001
,  // measure 8
0100
0000
0000
0000
0010
0000
0000
0100
,  // measure 9
0000
0000
0100
0000
0010
1000
0010
1000
,  // measure 10
0001
0000
0000
0000
0100
0000
0000
0100
,  // measure 11
0010
0100
1000
0100
0010
0000
1000
0010
,  // measure 12
0001
0000
0010
0000
0001
0000
1000
0010
0100
0000
1000
0000
0010
0000
0000
0000
,  // measure 13
0100
1000
0001
0100
0001
1000
0010
0000
1000
0000
0001
0000
1001
0000
0001
0100
,  // measure 14
0010
0000
0100
0000
0010
0000
0100
0010
0100
0000
0010
0000
0001
0000
0000
0000
,  // measure 15
1000
0001
1000
0001
1000
0010
0100
0010
0100
0000
0010
0000
0110
0000
0000
0000
,  // measure 16
0100
0000
0000
0010
0000
0000
1000
0000
0010
0000
0000
0100
0000
0000
0001
0000
,  // measure 17
0100
0000
0000
0001
0000
0000
0010
0000
0002
0000
0000
0000
0003
0000
0000
0000
,  // measure 18
1000
0000
0000
0100
0000
0000
0100
0000
1000
0000
1001
0000
0000
0000
0010
0100
,  // measure 19
0010
0000
0100
0010
0000
1000
0100
0000
2002
0000
3003
0000
1000
0000
0001
0000
,  // measure 20
0200
0000
0010
0000
0310
0000
0100
0000
0010
1000
0001
1000
0000
0100
1000
0000
,  // measure 21
0002
0000
0010
0000
1003
0000
0010
0000
0100
0001
1000
0001
0000
0010
0001
0000
,  // measure 22
2000
0000
0100
0000
3001
0000
1000
0000
0001
0010
0100
0010
0000
1000
0010
1000
,  // measure 23
0100
0000
1000
0010
0001
0000
0001
0100
1000
0000
0010
1000
0001
0000
0100
0000
,  // measure 24
2002
0000
3003
0000
0010
0000
0000
0100
,  // measure 25
0000
0010
1000
0010
1000
0000
0010
0000
,  // measure 26
0202
0000
0303
0000
0001
0000
0000
0100
,  // measure 27
0000
0000
0001
0000
0001
0100
1000
0100
,  // measure 28
0001
0000
0100
0000
0010
0000
0000
1000
,  // measure 29
0000
1000
0100
0010
0001
0010
0100
1000
,  // measure 30
1010
0000
1000
0000
0010
0000
0000
0001
,  // measure 31
0000
0000
0100
0000
0001
1000
0010
1000
,  // measure 32
1001
0000
0100
0000
0010
0000
1000
0010
,  // measure 33
0100
0000
1000
0010
0001
0000
0101
0000
,  // measure 34
0001
0000
0100
0000
0001
0000
1000
0000
0010
0000
1000
0000
,  // measure 35
0001
0000
1000
0000
1000
0010
0100
0010
,  // measure 36
0100
0000
0001
0100
1000
0000
0001
0010
,  // measure 37
1000
1000
0001
0101
,  // measure 38
1000
0000
0100
0000
0010
0000
0001
0000
0010
0000
0100
0000
,  // measure 39
1000
0000
0001
0100
0001
0000
0011
0000
,  // measure 40
0200
0000
0000
0000
0310
0000
0000
0100
0010
0000
0000
1000
0010
0000
0000
0010
,  // measure 41
1000
0000
0000
1000
0001
0000
0000
0001
0010
0000
0000
0000
0101
0000
0000
0000
,  // measure 42
0002
0000
0000
0000
0103
0000
0000
0001
0100
0000
0000
0001
0100
0000
0000
0100
,  // measure 43
0010
0000
0000
1000
0010
0000
0000
1000
0100
0000
0000
0000
1000
0000
0000
0000
,  // measure 44
2000
0000
0000
0000
3010
0000
0000
1000
0010
0000
0000
0010
1000
0000
0000
0001
,  // measure 45
0100
0000
0000
0100
0010
0000
0000
0010
0100
0000
0000
0000
0110
0000
0000
0000
,  // measure 46
0020
0000
0000
0000
0130
0000
0000
0100
0010
0000
0000
0010
1000
0000
0000
1000
,  // measure 47
0002
0000
1000
1003
,  // measure 48
2002
0000
0000
0000
3003
0010
0100
0010
,  // measure 49
2002
0000
3003
0000
0100
0000
0000
0010
,  // measure 50
0000
0100
0001
0100
0001
0000
0100
0000
,  // measure 51
2020
0000
3030
0000
1000
0000
0000
0010
,  // measure 52
0000
0000
1000
0000
1000
0010
0001
0010
,  // measure 53
1000
0000
0010
0000
0100
0000
0000
0001
,  // measure 54
0000
0001
0010
0100
1000
0100
0010
0001
,  // measure 55
0101
0000
0001
0000
0100
0000
0000
1000
,  // measure 56
0000
0000
0010
0000
1000
0001
0100
0001
,  // measure 57
1001
0000
0010
0000
0100
0000
0001
0100
,  // measure 58
0010
0000
0001
0100
1000
0000
1010
0000
,  // measure 59
1000
0000
0010
0000
1000
0000
0001
0000
0100
0000
0001
0000
,  // measure 60
1000
0000
0001
0000
0001
0100
0010
0100
,  // measure 61
0010
0000
1000
0010
0001
0000
1000
0100
,  // measure 62
0001
0001
1000
1010
,  // measure 63
0001
0000
0010
0000
0100
0000
1000
0000
0100
0000
0010
0000
,  // measure 64
0001
0000
1000
0010
1000
0000
1100
0000
;
