#TITLE:Beep Beep;
#SUBTITLE:;
#ARTIST:RUANN;
#TITLETRANSLIT:;
#SUBTITLETRANSLIT:;
#ARTISTTRANSLIT:;
#CREDIT:;
#BANNER:Beep Beep.png;
#BACKGROUND:Beep Beep-bg.png;
#LYRICSPATH:;
#CDTITLE:;
#MUSIC:Beep Beep.mp3;
#OFFSET:-0.960;
#SAMPLESTART:51.160;
#SAMPLELENGTH:15.000;
#SELECTABLE:YES;
#BPMS:0.000=130.000;
#STOPS:;
#BGCHANGES:-2.060=Beep Beep.avi=1.000=0=0=0,
99999=-nosongbg-=1.000=0=0=0 // don't automatically add -songbackground-
;

//---------------dance-single - ----------------
#NOTES:
     dance-single:
     :
     Easy:
     5:
     0.240,0.343,0.139,0.153,0.000:
0000
0000
0000
0000
,
0000
0000
0000
0000
,
0000
0000
0000
0000
,
0000
0000
0000
0000
,
1000
0000
1000
0000
,
0100
0000
0100
0000
,
0010
0000
0010
0000
,
0001
0000
0001
0000
,
1001
0001
1000
0000
,
1000
0010
0100
0110
,
0010
0100
0010
0000
,
0001
0010
1000
0000
,
1000
0010
0001
0000
,
0001
0010
1000
0000
,
0010
0000
0100
0000
,
0010
0000
1000
0000
,
1010
0000
0010
0000
,
0100
0000
0000
0000
0001
0000
0000
1000
,
0001
0000
0100
0000
,
0010
0000
0100
0000
,
0010
0000
1000
0000
,
0001
0000
0000
0000
0010
0000
0000
0010
,
0100
0000
0010
0000
,
0100
0000
0010
0000
,
1000
0000
0001
0000
,
0100
0000
0001
0000
,
1000
0001
1000
0001
,
1001
0010
0100
0010
,
0110
0010
0100
0010
,
0100
0000
0000
1000
,
0001
0100
0001
1000
,
0010
0000
0000
0001
,
0010
0100
1000
0010
,
1000
0000
0000
1000
,
0010
0100
0010
1000
,
0001
0000
0000
0000
,
0101
1010
0100
0010
,
0001
0100
0001
0000
,
1100
0011
0001
0100
,
1000
0100
0001
0000
,
2010
3000
0102
0003
,
0100
0010
0001
1000
,
0210
0300
0120
0030
,
0010
0100
1000
0000
,
0010
0100
0010
0000
,
0100
0001
1000
0000
,
0001
1000
0010
0000
,
0100
0010
0100
0000
,
0001
1001
1000
1001
,
0010
0110
0100
0110
,
1000
0100
0010
0001
,
1000
0001
0010
0100
,
0110
0100
0010
0100
,
0010
0000
0000
0001
,
1000
0010
1000
0001
,
0100
0000
0000
1000
,
0100
0010
0001
0100
,
0001
0000
0000
0001
,
0100
0010
0100
0001
,
1000
0001
1000
0001
,
2002
0000
3003
0010
,
0000
0100
0000
0001
,
1000
0010
0100
0010
,
1000
0000
0000
0100
,
0001
0010
1000
0010
,
0001
0000
0000
0001
,
0001
1000
0010
1000
,
0001
0000
0000
0000
,
0002
0000
2003
0000
,
3002
0000
2003
0000
,
3200
0000
0320
0000
,
0032
0000
0023
0000
,
0230
0000
2300
0000
,
3002
0000
0203
0000
,
0320
0000
2030
0000
,
3001
0000
2002
0000
,
3003
0000
0000
0000
;

//---------------dance-single - ----------------
#NOTES:
     dance-single:
     :
     Beginner:
     3:
     0.175,0.237,0.056,0.049,0.000:
0000
0000
0000
0000
,
0000
0000
0000
0000
,
0000
0000
0000
0000
,
0000
0000
0000
0000
,
1001
0000
0000
0000
,
0020
0000
0030
0000
,
0200
0000
0300
0000
,
0002
0000
0003
0000
,
0000
0001
0000
1000
,
0000
0001
0000
1000
,
0000
0010
0000
0100
,
0000
0010
0000
0100
,
0000
0010
0010
0010
,
0000
1000
1000
1000
,
0000
0001
0001
0001
,
0000
1000
1000
1000
,
0000
1000
0000
1000
,
0000
0100
0000
0100
,
0000
0010
0000
0010
,
0000
0001
0000
0001
,
0000
0010
0000
0010
,
0000
0100
0000
0100
,
0000
1000
0000
1000
,
0000
0001
0000
1000
,
0000
0010
0000
1000
,
0000
0001
0000
0100
,
0000
0010
0010
0010
,
0000
0100
0000
0110
,
0000
0010
0000
1000
,
0000
0010
0000
1000
,
0000
0001
0000
0100
,
0000
0001
0000
0100
,
0000
0001
0000
0010
,
0000
0001
0000
0010
,
0000
1000
0000
0001
,
0000
1000
0000
0001
,
0000
0001
1000
0001
,
0000
0100
0010
0100
,
0000
0010
0100
0010
,
0000
1000
0010
1000
,
0000
0001
0100
0001
,
0000
1000
0010
1000
,
0000
0100
0010
0100
,
0000
0020
0000
0000
,
0030
0000
0110
0000
,
0010
0000
1001
0000
,
1000
0000
1010
0000
,
0001
0000
0101
0000
,
0001
0001
0001
0000
,
1000
1000
1000
0000
,
0001
1000
0001
1000
,
0001
1000
0001
1001
,
0000
0100
0000
0001
,
0000
0100
0000
0001
,
0000
1000
0000
0010
,
0000
1000
0000
0010
,
0000
1000
0000
0100
,
0000
1000
0000
0100
,
0000
0001
0000
1000
,
0000
0001
0000
1000
,
0000
1000
0001
1000
,
0000
0010
0100
0010
,
0000
0100
0010
0100
,
0000
0001
0100
0001
,
0000
1000
0010
1000
,
0000
0001
0100
0001
,
0000
0010
0100
0010
,
0000
0200
0000
0000
,
0300
0000
0010
0000
,
0100
0000
0001
0000
,
1000
0000
0010
0000
,
1000
0000
0010
0000
,
1000
0000
0001
0000
,
0100
0000
0001
0000
,
0100
0000
0010
0000
,
0100
0000
0220
0000
,
0330
0000
0000
0000
;

//---------------dance-single - ----------------
#NOTES:
     dance-single:
     :
     Medium:
     8:
     0.322,0.343,0.153,0.194,0.017:
0000
0000
0000
0000
,
0000
0000
0000
0000
,
0000
0000
0000
0000
,
0000
0000
0000
0000
,
0001
0000
0000
1000
0000
0000
0001
0000
1000
0000
0000
0001
0000
0000
1000
0000
,
0001
0000
0000
0000
,
0220
0000
0000
0330
,
0220
0000
0000
0330
,
0000
0010
1000
0010
1000
0010
0000
0000
,
0001
0100
0001
0100
0000
0000
1001
0000
,
0000
0100
0010
0100
0010
0100
0000
0000
,
1000
0100
0010
0001
0000
0000
0101
0000
,
0000
0010
0000
1000
,
0000
0010
0000
0100
,
0000
0001
0000
0010
,
0000
0000
0001
0000
0100
0001
0100
0000
,
1000
0010
0100
0010
,
1000
0000
0001
0000
0100
0000
0001
1000
,
1001
0001
0100
0010
,
1000
0000
0000
0000
0010
0000
0000
0000
0100
0000
0000
0001
0000
0000
1000
0000
,
0110
0010
0100
0010
,
1000
0000
0001
0000
0100
0000
0010
0100
,
0110
0010
1000
0010
,
0100
0000
0000
0000
0001
0000
0000
0000
0100
0000
0000
0010
0000
0000
0100
0000
,
1001
0001
0000
0100
,
0000
0001
0000
0100
,
0000
0010
0000
1000
,
0000
1000
0010
0001
,
0001
0100
0010
0000
0100
0010
1000
0000
,
1010
0010
0100
0010
,
0100
0010
0100
0000
0010
0100
0010
0000
,
0110
0100
0001
1000
,
0001
0100
1000
0000
1000
0010
0001
0000
,
1001
1000
0010
0001
,
0001
0100
0001
0000
1000
0010
1000
0000
,
1010
0101
1010
0000
,
0002
0103
0002
0103
,
0010
0100
1000
0010
,
0200
0310
0020
1030
,
0001
1000
0001
1000
,
0020
1030
0200
0310
,
0010
0001
1000
0001
,
2000
3100
0002
0013
,
0110
0000
0000
0110
0000
0000
0110
0000
0000
0000
0000
0000
0000
0000
0000
0000
,
0010
0010
0010
0000
,
1000
0001
1000
0000
,
0001
0100
1000
0000
,
1000
0010
0001
0000
,
0001
0100
0001
0100
,
0010
1000
0010
1000
,
1000
0100
0010
0001
,
0001
0010
0100
1000
,
1000
0010
0100
0000
0010
0100
0001
0000
,
0101
0100
0010
0100
,
0010
0100
0010
0000
0100
0010
0100
0000
,
0110
0010
1000
0001
,
1000
0010
0001
0000
0001
0100
1000
0000
,
1001
0001
0100
1000
,
1000
0010
1000
0000
0001
0100
0001
0000
,
0101
1010
0000
0000
,
0001
0010
0100
1000
,
0010
1000
0010
0100
,
0010
0100
0010
0000
1000
0010
0001
0000
,
1000
0001
0100
0010
,
0100
0001
0001
0000
0010
1000
0010
0000
,
1000
0010
0100
0010
,
1000
0010
0100
0000
0001
0100
0010
0000
,
0100
0010
1000
0001
,
0002
0000
2003
0000
,
3002
0000
2003
0000
,
3020
0000
0230
0000
,
0320
0000
0230
0000
,
0320
0000
2030
0000
,
3002
0000
0023
0000
,
0230
0000
2300
0000
,
3002
0000
2003
0000
,
3000
0000
0000
0000
;

//---------------dance-single - ----------------
#NOTES:
     dance-single:
     :
     Hard:
     14:
     0.470,0.448,0.180,0.125,0.337: // measure 1
0000
0000
0000
0000
,  // measure 2
0000
0000
0000
0000
,  // measure 3
0000
0000
0000
0000
,  // measure 4
1000
0000
0001
0000
1000
0000
0001
1000
0001
1000
0001
1000
0001
0000
0001
1000
,  // measure 5
0002
0000
2003
0000
,  // measure 6
3002
0000
0003
0000
,  // measure 7
0001
0000
0000
1000
0000
0000
0010
0000
0000
0000
0000
0000
0000
0000
0000
0000
,  // measure 8
0100
0000
0000
0010
0000
0000
1000
0000
0000
0000
0000
0000
0000
0000
0000
0000
,  // measure 9
0000
0001
0100
0010
0100
0001
0000
0000
,  // measure 10
0001
0010
0100
1000
0000
0000
1010
0000
,  // measure 11
0000
1000
0010
0100
0010
1000
0000
0000
,  // measure 12
1000
0000
0010
0000
1000
0000
0010
0000
0000
0000
0000
0000
0100
0001
0000
0010
,  // measure 13
0000
0001
0000
0100
0000
0000
0010
0000
0000
0000
0000
0000
1000
0010
0000
1000
,  // measure 14
0000
0010
0000
0100
0000
0000
0001
0000
0000
0000
0000
0000
0001
0000
0001
0000
,  // measure 15
0000
1000
0010
1000
0000
0000
0100
0010
,  // measure 16
0000
0100
0010
1000
0000
0000
0110
0000
,  // measure 17
0010
0100
1000
2000
0000
0000
3001
1000
,  // measure 18
0000
0001
1000
0001
0000
0100
0010
0100
,  // measure 19
1001
0000
0001
0100
1000
0100
0001
0100
,  // measure 20
1000
0000
0000
0000
0001
0000
1000
0000
1000
0000
0000
0010
0000
0000
0100
0000
,  // measure 21
1001
0010
0001
0002
0000
0000
1003
0001
,  // measure 22
0000
1000
0001
1000
0000
0010
0100
0010
,  // measure 23
1001
0000
1000
0010
0001
0010
1000
0010
,  // measure 24
0001
0000
0000
0000
1000
0000
0001
0000
0001
0000
0000
0100
0000
0000
0010
0000
,  // measure 25
1010
0000
1000
0010
0000
0000
0100
0010
,  // measure 26
0100
0000
0010
0100
0000
0010
0100
0001
,  // measure 27
0101
0010
1010
2002
,  // measure 28
3003
0000
0000
0000
0001
0000
1000
0000
0001
0000
0000
0100
0000
0000
0001
0000
,  // measure 29
1000
0000
0000
0010
0000
0000
1000
0000
0010
0000
0000
0100
0000
0000
0010
0000
,  // measure 30
0100
0000
0000
0000
0001
0000
0000
0000
0010
0000
1000
0000
0010
1000
0100
1000
,  // measure 31
0010
0000
0000
0010
0000
0000
0010
0000
0010
0000
0000
1000
0000
0000
1000
0000
,  // measure 32
1000
0000
0000
0000
0010
0000
0000
1000
0000
0000
0001
0000
1000
0001
1000
0001
,  // measure 33
0010
0000
0000
0100
0000
0000
0010
0000
0100
0000
0000
0001
0000
0000
1000
0000
,  // measure 34
0010
0000
0000
0000
0100
0000
0000
0000
0010
0000
1000
0000
0001
1000
0010
1000
,  // measure 35
0001
0000
0000
0001
0000
0000
0001
0000
0010
0000
0000
0010
0000
0000
0010
0000
,  // measure 36
0100
0000
0010
0000
0110
0000
1000
0010
,  // measure 37
0001
0000
0000
0010
0000
0000
1000
0000
0000
0010
0000
0000
0001
0000
1000
0000
,  // measure 38
0010
0000
0000
0100
0000
0000
0010
0000
0000
0000
0000
0000
1000
0000
0010
0000
,  // measure 39
0100
0000
0000
0010
0000
0000
1000
0000
0000
0001
0000
0000
0100
0000
0001
0000
,  // measure 40
0020
0000
0000
0000
0031
0000
0000
0000
0000
0000
0000
0000
0010
0000
1000
0010
,  // measure 41
1000
0000
0000
0010
0000
0000
1000
0000
0000
0010
0000
0000
0000
0000
0100
0001
,  // measure 42
0010
0000
0000
0001
0000
0000
1000
0000
0000
0010
0000
0000
1000
0000
0010
0000
,  // measure 43
1010
0000
0000
0110
0000
0000
0101
0000
0000
0001
0000
0000
1000
0000
0010
0000
,  // measure 44
1000
0000
0000
0001
0000
0000
2002
0000
0000
0000
0000
0000
3003
0000
0000
0000
,  // measure 45
0010
0000
0000
0010
0000
0000
0010
0000
0000
0000
1000
0000
0010
0000
1000
0000
,  // measure 46
0001
0000
0000
0001
0000
0000
0001
0000
0000
0000
1000
0000
0001
0000
1000
0000
,  // measure 47
0100
0000
0000
0100
0000
0000
0100
0000
0000
0000
0010
0000
1000
0000
0010
0000
,  // measure 48
1000
0000
0000
1000
0000
0000
1000
0000
0010
0000
1000
0000
0100
0000
0010
0000
,  // measure 49
0001
0000
0000
0010
0000
0000
0100
0000
1000
0000
0001
0000
1000
0000
0001
0000
,  // measure 50
0100
0000
0000
0010
0000
0000
0100
0000
0010
0000
1000
0000
0001
0000
1000
0000
,  // measure 51
0010
1000
0010
0100
0001
0100
0001
1000
,  // measure 52
1001
0000
0000
0110
0000
0000
1001
0000
0000
0000
0000
0000
1010
0000
0000
0000
,  // measure 53
0001
0000
0000
0100
0000
0000
0001
0000
0100
0000
0000
0010
0000
0000
0100
0000
,  // measure 54
0010
0000
0000
0000
1000
0000
0000
0000
0100
0000
0001
0000
0100
0001
0010
0001
,  // measure 55
0100
0000
0000
0100
0000
0000
0100
0000
0100
0000
0000
0001
0000
0000
0001
0000
,  // measure 56
0001
0000
0000
0000
0100
0000
0000
0001
0000
0000
1000
0000
0001
1000
0001
1000
,  // measure 57
0100
0000
0000
0010
0000
0000
0100
0000
0010
0000
0000
1000
0000
0000
0001
0000
,  // measure 58
0100
0000
0000
0000
0010
0000
0000
0000
0100
0000
0001
0000
1000
0001
0100
0001
,  // measure 59
1000
0000
0000
1000
0000
0000
1000
0000
0100
0000
0000
0100
0000
0000
0100
0000
,  // measure 60
0010
0000
0000
0000
0100
0000
0010
0000
0100
0000
0000
0001
0000
0000
1000
0000
,  // measure 61
1000
0000
0000
0010
0000
0000
1000
0000
0010
0000
0000
0100
0000
0000
0010
0000
,  // measure 62
0100
0000
0000
0000
0001
0000
0000
0000
0010
0000
1000
0000
0010
1000
0100
1000
,  // measure 63
0010
0000
0000
0010
0000
0000
0010
0000
0010
0000
0000
1000
0000
0000
1000
0000
,  // measure 64
1000
0000
0000
0000
0010
0000
0000
1000
0000
0000
0001
0000
1000
0001
1000
0001
,  // measure 65
0010
0000
0000
0100
0000
0000
0010
0000
0100
0000
0000
0001
0000
0000
1000
0000
,  // measure 66
0010
0000
0000
0000
0100
0000
0000
0000
0010
0000
1000
0000
0001
1000
0010
1000
,  // measure 67
0001
0000
0000
0001
0000
0000
0001
0000
0010
0000
0000
0010
0000
0000
0010
0000
,  // measure 68
0100
0000
0010
0000
1000
0000
0010
1000
,  // measure 69
0020
0000
0000
1000
0000
0000
1000
0000
2030
0000
0000
0001
0000
0000
0001
0000
,  // measure 70
3002
0000
0000
0100
0000
0000
0100
0000
0003
0000
0000
0000
0100
0000
0001
0000
,  // measure 71
0200
0000
0000
0001
0000
0000
0001
0000
0302
0000
0000
1000
0000
0000
1000
0000
,  // measure 72
2003
0000
0000
0010
0000
0000
0010
0000
3000
0000
1010
0000
0000
0000
0010
0100
,  // measure 73
0010
0000
0000
1000
0000
0000
0010
0000
0000
0000
1010
0000
0000
0000
1000
0010
,  // measure 74
0100
0000
0000
0001
0000
0000
0100
0000
0000
0000
0101
0000
0000
0000
0010
0000
,  // measure 75
1001
0000
0000
0110
0000
0000
1010
0000
0000
0101
0000
0000
1000
0000
0100
0000
,  // measure 76
0010
0000
0000
0001
0000
0000
2002
0000
0000
0000
0000
0000
0000
0000
0000
0000
,  // measure 77
3003
0000
0000
0000
;
