#TITLE:Be Patient;
#SUBTITLE:;
#ARTIST:Loverground;
#TITLETRANSLIT:;
#SUBTITLETRANSLIT:;
#ARTISTTRANSLIT:;
#CREDIT:;
#BANNER:Be Patient.png;
#BACKGROUND:Be Patient-bg.png;
#LYRICSPATH:;
#CDTITLE:;
#MUSIC:Be Patient.mp3;
#OFFSET:-0.020;
#SAMPLESTART:51.100;
#SAMPLELENGTH:15.000;
#SELECTABLE:YES;
#BPMS:0.000=114.000;
#STOPS:;
#BGCHANGES:;

//---------------dance-single - ----------------
#NOTES:
     dance-single:
     :
     Easy:
     3:
     0.145,0.175,0.008,0.000,0.000:
0000
0000
0000
0000
,
0000
0000
0000
0000
,
0000
0000
0000
0000
,
0000
0000
0000
0000
,
0000
0000
0000
0000
,
0000
0000
0000
0000
,
0000
0000
0000
0000
,
0000
0000
0000
0000
,
0000
0001
0000
0001
,
0000
1000
0001
1000
,
0000
1000
0000
1000
,
0000
1000
0001
1000
,
0000
0010
0000
0010
,
0000
0100
0010
0100
,
0000
0100
0000
0100
,
0000
0100
0010
0100
,
0000
0010
0000
1000
,
0000
0001
0000
0100
,
0000
0001
0000
1000
,
0000
0001
0000
0001
,
0000
1000
0000
0010
,
0000
1000
0000
0010
,
0000
0100
0000
0001
,
0000
0100
0000
0001
,
0000
0001
0010
0001
,
0100
0010
1000
0100
,
1000
0010
0000
0010
,
0000
0100
0000
0001
,
0000
0001
0010
1000
,
0100
1000
0010
1000
,
0010
0100
0000
0010
,
0000
1000
0000
0001
,
0000
1001
0001
1000
,
0010
0100
0010
0001
,
0000
0010
0000
0100
,
0000
1000
0000
0100
,
0100
0100
0100
0000
,
0010
0100
0001
0000
,
0100
0001
0100
0000
,
1000
1000
0010
0000
,
0010
0010
0010
0000
,
0100
0010
1000
0000
,
0010
1000
0010
0000
,
0001
0001
0100
0000
,
0010
0100
0010
0000
,
1000
0100
0010
0000
,
0010
0100
0001
0000
,
0010
0001
0010
0000
,
0100
0010
1000
0000
,
0001
1000
0001
0000
,
1000
0100
0010
0000
,
0001
0100
0001
0000
;

//---------------dance-single - ----------------
#NOTES:
     dance-single:
     :
     Beginner:
     1:
     0.113,0.132,0.008,0.068,0.000:
0000
0000
0000
0000
,
0000
0000
0000
0000
,
0000
0000
0000
0000
,
0000
0000
0000
0000
,
0000
0000
0000
0000
,
0000
0000
0000
0000
,
0000
0000
0000
0000
,
0000
0000
0000
0000
,
0000
0010
0000
0100
,
0000
0010
0000
1000
,
0000
0010
0000
0100
,
0000
0001
0000
0001
,
0000
0100
0000
0001
,
0000
1000
0000
0001
,
0000
1000
0000
0010
,
0000
1000
0000
0001
,
0000
0100
0000
0001
,
0000
1000
0000
1001
,
0000
0010
0000
0100
,
0000
0010
0000
1000
,
0000
0100
0000
1000
,
0000
0001
0000
0100
,
0000
0001
0000
1000
,
0000
0001
0000
1000
,
0000
0010
0010
0010
,
0000
0100
0100
0100
,
0000
1000
0000
1000
,
0000
0001
0000
1000
,
0000
0001
0001
0001
,
0000
1000
1000
1000
,
0000
1000
0000
0010
,
0000
0100
0000
0010
,
0000
1000
0000
0001
,
0000
0100
0000
1000
,
0000
0100
0000
0001
,
0000
1000
0000
0010
,
0020
0000
0030
0000
,
2000
0000
3000
0000
,
0002
0000
0003
0000
,
0200
0000
0300
0000
,
0020
0000
0030
0000
,
2000
0000
3000
0000
,
0002
0000
0003
0000
,
2000
0000
3000
0000
,
0000
0001
0000
1000
,
0000
0001
0000
1000
,
0000
0010
0000
0100
,
0000
0010
0000
1000
,
0000
0001
0000
0100
,
0000
0001
0000
1000
,
0000
0010
0000
0100
,
0000
0001
0000
1000
;

//---------------dance-single - ----------------
#NOTES:
     dance-single:
     :
     Medium:
     6:
     0.210,0.331,0.051,0.085,0.017:
0000
0000
0000
0000
,
0000
0000
0000
0000
,
0000
0000
0000
0000
,
0000
0000
0000
0000
,
0000
0000
0000
0000
,
0000
0000
0000
0000
,
0000
0000
0000
0000
,
0000
0000
0000
0000
,
1000
1000
0100
0100
,
0010
0010
0001
0001
,
0001
0001
0010
0010
,
0100
0100
1000
1000
,
0010
1000
0001
0100
,
0001
0010
0100
0010
,
0100
0010
0001
0100
,
0001
0100
1000
0100
,
0001
0000
0000
0000
0000
0000
1000
0010
,
1000
0000
0100
0000
0001
0001
0100
0000
,
1000
0000
0000
0000
0000
0001
0010
0001
,
0000
1000
0010
1000
0000
0000
0000
0000
,
1000
0000
0000
0000
0000
0000
0001
0100
,
0001
0000
0010
0000
1000
1000
0010
0000
,
0001
0000
0000
0000
0000
1000
0100
1000
,
0000
0001
0100
0001
0000
0000
0000
0000
,
1001
0002
0023
0032
,
0003
2000
3200
1300
,
1010
0000
0000
1000
,
0010
1000
0001
0100
,
1001
2000
3200
2300
,
3000
0002
0023
0031
,
0101
0000
0000
0001
,
0100
0001
1000
0010
,
1000
0010
0000
0100
,
0010
1000
0000
1000
,
0100
0001
0000
0010
,
0001
0100
0000
0010
,
0100
0010
0010
0000
,
1000
0000
0000
1000
0000
0000
1000
0000
0000
0000
0000
0000
0000
0000
0000
0000
,
0100
0010
0100
0000
,
0000
0000
0001
0000
0000
0001
0000
0000
0001
0000
0000
0000
0000
0000
0000
0000
,
0010
0100
0100
0000
,
0001
0000
0000
0001
0000
0000
0001
0000
0000
0000
0000
0000
0000
0000
0000
0000
,
0010
0100
0010
0000
,
0000
0000
1000
0000
0000
1000
0000
0000
1000
0000
0000
0000
0000
0000
0000
0000
,
0110
0010
0001
0100
,
1000
0010
0001
0010
,
1000
0010
0100
0001
,
0100
0001
0100
0010
,
1000
0010
1000
0001
,
0100
1000
0100
1000
,
0010
0100
0001
1000
,
0010
1000
0001
0100
,
1001
0000
0000
0000
;

//---------------dance-single - ----------------
#NOTES:
     dance-single:
     :
     Hard:
     8:
     0.275,0.397,0.085,0.136,0.072: // measure 1
0000
0000
0000
0000
,  // measure 2
0000
0000
0000
0000
,  // measure 3
0000
0000
0000
0000
,  // measure 4
0000
0000
0000
0000
,  // measure 5
0000
0000
0000
0000
,  // measure 6
0000
0000
0000
0000
,  // measure 7
0000
0000
0000
0000
,  // measure 8
0000
0000
0000
0000
,  // measure 9
1001
0010
0001
1000
,  // measure 10
0100
0000
0000
0000
1000
0000
0000
0100
0000
0000
0000
0000
1000
0000
0000
0000
,  // measure 11
0010
0100
0001
0100
,  // measure 12
0010
0100
0002
0003
,  // measure 13
0101
0001
0010
0100
,  // measure 14
1000
0010
0001
0010
,  // measure 15
1000
0100
0010
0100
,  // measure 16
1000
0010
2000
3000
,  // measure 17
1100
0000
0000
0000
0000
1000
0010
0100
,  // measure 18
0000
0100
0010
1000
0001
0010
1000
0000
,  // measure 19
0001
0000
0100
0000
0000
0001
0100
0010
,  // measure 20
0000
0010
0100
1000
0000
1000
0000
0000
,  // measure 21
0011
0000
0000
0000
0000
0001
0100
0010
,  // measure 22
0000
0010
0100
0001
1000
0100
0001
0000
,  // measure 23
1000
0000
0010
0000
0000
1000
0010
0100
,  // measure 24
0000
0100
0010
0001
0000
0001
0000
0000
,  // measure 25
0012
0023
0230
2300
,  // measure 26
3200
2300
3002
1003
,  // measure 27
1001
0000
0000
0000
0000
1000
0001
1000
,  // measure 28
0000
1000
0100
0010
0000
0100
0000
0000
,  // measure 29
2100
3200
0320
0032
,  // measure 30
0023
0032
2003
3001
,  // measure 31
1001
0000
0000
0000
0000
0001
1000
0001
,  // measure 32
0000
0001
0010
0100
0000
0010
0000
0000
,  // measure 33
0010
0110
1000
1010
,  // measure 34
0010
0000
0001
0010
0001
0000
0001
0000
,  // measure 35
0100
0000
0000
0000
0000
0100
0100
0010
,  // measure 36
0000
0010
0100
0010
0000
0000
1000
0010
,  // measure 37
1000
0000
0000
0000
1000
0000
0000
0000
1000
0000
0000
0000
0000
0010
1000
0010
,  // measure 38
1000
0000
0000
1000
0000
0000
0010
0000
0000
0100
0000
0000
0010
0100
0010
0000
,  // measure 39
0001
0000
0000
0000
0001
0000
0000
0000
0001
0000
0000
0000
0000
0000
0001
0100
,  // measure 40
0000
0000
0001
0000
0000
0100
0000
0000
0010
0000
0000
0100
0000
0000
1000
0000
,  // measure 41
0001
0000
0000
0000
0001
0000
0000
0000
0001
0000
0000
0000
0000
0100
0001
0100
,  // measure 42
0001
0000
0000
0001
0000
0000
0100
0000
0000
0010
0000
0000
0100
0010
0100
0000
,  // measure 43
1000
0000
0000
0000
1000
0000
0000
0000
1000
0000
0000
0000
0000
0000
1000
0010
,  // measure 44
0000
0000
1000
0000
0000
0010
0000
0000
0100
0000
0000
0010
0000
0000
0001
0000
,  // measure 45
1000
0000
0001
0100
0010
0100
0000
0000
,  // measure 46
0001
1000
0010
0100
,  // measure 47
0001
0000
1000
0010
0001
0010
0000
1000
,  // measure 48
0000
0010
1000
0010
,  // measure 49
0001
0000
1000
0010
0100
0010
0000
0000
,  // measure 50
1000
0001
0100
0010
,  // measure 51
1000
0000
0001
0100
1000
0100
0000
0001
,  // measure 52
0000
0100
0001
0100
,  // measure 53
1000
0000
0000
0000
;
