#TITLE:Bad;
#SUBTITLE:;
#ARTIST:INFINITE;
#TITLETRANSLIT:;
#SUBTITLETRANSLIT:;
#ARTISTTRANSLIT:;
#CREDIT:;
#BANNER:Bad.png;
#BACKGROUND:Bad-bg.png;
#LYRICSPATH:;
#CDTITLE:;
#MUSIC:Bad.mp3;
#OFFSET:-0.280;
#SAMPLESTART:105.540;
#SAMPLELENGTH:15.000;
#SELECTABLE:YES;
#BPMS:0.000=100.000,104.000=200.000,168.000=100.000,208.000=200.000,336.000=100.000;
#STOPS:;
#BGCHANGES:;

//---------------dance-single - ----------------
#NOTES:
     dance-single:
     :
     Easy:
     4:
     0.195,0.342,0.034,0.080,0.000:
0000
0000
0000
0000
,
0000
0000
0000
0000
,
0000
0000
0000
0000
,
0000
0000
0000
0000
,
0000
0000
0000
0000
,
0000
0000
0000
0000
,
0000
0000
0000
0000
,
0000
0000
0000
0000
,
0000
0000
0000
0000
,
0000
0000
0000
0110
,
0000
0010
0100
0010
,
0000
0001
1000
0010
,
0000
1000
0001
1000
,
0000
0010
0010
0001
,
0000
0001
0100
1000
,
0000
0010
1000
0001
,
0000
1000
0100
0100
,
0000
1000
0010
0001
,
0000
0002
0023
0230
,
0300
2000
3020
2030
,
3000
0200
0320
0032
,
0003
1000
0001
0101
,
0000
0010
1000
0010
,
0000
0100
0100
0001
,
0000
0001
0010
1000
,
0000
0001
0100
0001
,
0100
0000
0010
0000
,
1000
0010
1000
0000
,
0010
0000
0100
0000
,
0001
0100
0010
0000
,
1000
0000
0010
0000
,
1000
0001
1000
0000
,
0100
0000
0010
0000
,
0100
0010
0100
0000
,
0001
0000
1000
0000
,
0100
1000
0100
0000
,
1000
0000
0001
0000
,
0010
0001
1000
0000
,
0100
0000
1000
0000
,
0100
0010
0100
0000
,
0001
0000
1000
0000
,
0001
1000
0001
0000
,
1000
0000
0010
0000
,
1000
0000
0001
0000
,
0011
0000
1000
0000
,
0010
0000
0100
0000
,
1010
0000
0010
0000
,
0100
0000
0001
0000
,
0100
0000
0010
0000
,
0200
0000
0000
0000
,
0300
0000
0000
0000
,
0000
0000
0100
0010
,
0100
0000
0100
0000
,
0001
0100
0001
0000
,
0100
0000
0010
0000
,
1000
0010
0100
0000
,
0001
0000
0100
0000
,
0001
1000
0001
0000
,
0010
0000
0100
0000
,
0010
0100
0010
0000
,
1000
0000
0001
0000
,
0010
0001
0010
0000
,
0001
0000
1000
0000
,
0100
1000
0001
0000
,
0010
0000
0001
0000
,
0010
0100
0010
0000
,
1000
0000
0001
0000
,
1000
0001
1000
0000
,
0010
0000
0001
0000
,
1000
0001
1000
0000
,
0001
0000
0010
0000
,
0100
0010
0001
0000
,
1000
0000
0001
0000
,
1000
0100
1000
0000
,
0010
0000
0001
0000
,
0010
0001
0010
0000
,
0100
0000
1000
0000
,
0010
1000
0010
0000
,
1000
0000
0100
0000
,
0001
0100
1000
0000
,
0010
0000
1000
0000
,
0010
0001
0010
0000
,
0100
0000
1000
0000
,
0100
1000
0100
0000
,
2002
0000
0000
0000
,
3003
0000
0000
0000
;

//---------------dance-single - ----------------
#NOTES:
     dance-single:
     :
     Beginner:
     1:
     0.119,0.199,0.027,0.054,0.000:
0000
0000
0000
0000
,
0000
0000
0000
0000
,
0000
0000
0000
0000
,
0000
0000
0000
0000
,
0000
0000
0000
0000
,
0000
0000
0000
0000
,
0000
0000
0000
0000
,
0000
0000
0000
0000
,
0000
0001
0000
0001
,
0000
1000
0000
1001
,
0000
0010
0000
0100
,
0000
0001
0000
0010
,
0000
0100
0000
1000
,
0000
0001
0000
0110
,
0000
0010
0000
0001
,
0000
1000
0000
0100
,
0000
0010
0000
1001
,
0000
0001
0000
1000
,
2000
3000
0000
0000
,
0200
0300
0000
0000
,
0002
0003
0000
0000
,
0020
0030
0000
0000
,
0100
0100
0000
0010
,
0000
1000
0000
0001
,
0000
0100
0000
0001
,
0002
0003
0002
0003
,
0001
0000
0001
0000
,
0000
0000
1000
0000
,
0000
0000
0010
0000
,
0000
0000
0001
0000
,
0000
0000
0100
0000
,
0000
0000
0001
0000
,
0000
0000
1000
0000
,
0000
0000
0010
0000
,
0000
0000
1000
0000
,
1000
0000
1000
0000
,
0000
0000
0001
0000
,
0001
0000
0001
0000
,
0000
0000
0010
0000
,
0010
0000
0010
0000
,
0000
0000
0100
0000
,
0100
0000
0100
0000
,
0000
0010
0000
0001
,
0000
0100
0000
1000
,
0000
0010
0000
1000
,
0000
0001
0000
0100
,
0000
0001
0000
0001
,
0000
1000
0000
0010
,
0000
1000
0000
1000
,
2000
0000
0000
3000
,
1000
0000
0000
0000
,
0000
0000
0000
0000
,
1001
0000
1000
0000
,
0000
0000
0001
0000
,
0000
0000
0100
0000
,
0000
0000
1000
0000
,
0000
0000
0010
0000
,
0000
0000
1000
0000
,
0000
0000
0001
0000
,
0000
0000
0100
0000
,
0000
0000
0001
0000
,
0001
0000
0001
0000
,
0000
0000
1000
0000
,
1000
0000
1000
0000
,
0000
0000
0100
0000
,
0100
0000
0100
0000
,
0000
0000
0010
0000
,
0010
0000
0010
0000
,
0000
0000
1000
0000
,
0000
0000
0100
0000
,
0000
0000
0010
0000
,
0000
0000
1000
0000
,
0000
0000
0001
0000
,
0000
0000
1000
0000
,
0000
0000
0100
0000
,
0000
0000
0010
0000
,
0000
0000
0100
0000
,
0100
0000
0100
0000
,
0000
0000
1000
0000
,
1000
0000
1000
0000
,
0000
0000
0010
0000
,
0010
0000
0010
0000
,
0000
0000
0001
0000
,
0001
0000
0001
0000
,
0002
0000
0000
0000
,
0003
0000
0000
0000
;

//---------------dance-single - ----------------
#NOTES:
     dance-single:
     :
     Medium:
     7:
     0.284,0.370,0.040,0.054,0.034:
0000
0000
0000
0000
,
0000
0000
0000
0000
,
0000
0000
0000
0000
,
0000
0000
0000
0000
,
0000
0000
0000
0000
,
0000
0000
0000
0000
,
0000
0000
0000
0000
,
0000
0000
0000
0000
,
0010
0000
0000
0000
0010
0000
0000
0010
0000
0100
0000
0000
0001
0000
0000
0000
,
1000
0100
0010
0001
0100
0000
1001
0000
,
0001
0000
0100
0000
0010
0100
1000
0000
,
0010
0000
0100
0000
0001
1000
0010
0000
,
0100
0000
0001
0000
1000
0010
0001
0000
,
0100
0000
0010
0000
0001
0010
1000
0000
,
1000
0000
0010
0000
0100
0010
0001
0000
,
0100
0000
0010
0000
1000
0001
0100
0000
,
0010
0000
1000
0000
0001
0100
1000
0000
,
0010
0000
0100
0000
1000
0100
0001
0100
,
2000
0001
3001
0100
,
0020
0100
0130
0001
,
0002
0100
0103
0010
,
1001
0110
1001
0000
,
0010
0000
0000
0000
0100
0000
0000
0010
0000
0100
0000
0000
0010
0000
0000
0000
,
1000
0000
0000
0000
0001
0000
0000
0100
0000
0001
0000
0000
1000
0000
0000
0000
,
0010
0000
0000
0000
1000
0000
0000
0010
0000
1000
0000
0000
0001
0000
0000
0000
,
2000
0000
0002
0000
3003
0010
0100
0010
,
1000
0000
0010
0000
,
1000
0001
0100
0001
,
0100
0000
0010
0000
,
0001
0010
1000
0010
,
0100
0000
0010
0000
,
0100
1000
0001
1000
,
0001
0000
0010
0000
,
1000
0010
0100
0010
,
0100
0000
1000
0000
,
0100
0010
0001
0010
,
0001
0000
1000
0000
,
0010
1000
0100
1000
,
0001
0000
1000
0000
,
0001
0100
0010
0100
,
0010
0000
1000
0000
,
0100
1000
0001
1000
,
0100
0000
0100
0010
0100
0000
0001
0010
,
1000
0000
1000
0100
0010
0000
0010
0100
,
1000
0000
0001
1000
0001
0000
0010
1000
,
0001
0000
0100
0010
0001
0000
0100
0001
,
1000
0000
0010
0001
0010
0000
0100
1000
,
0010
0000
0100
0001
1000
0000
0010
0100
,
0001
0000
0010
1000
0010
0000
0100
0010
,
0020
0000
0000
0000
,
0130
0000
0000
0000
,
0000
0000
0100
0000
0000
0010
0000
0100
0010
0000
0100
0000
0010
0000
1001
0000
,
0001
0000
0100
0000
,
0001
1000
0010
1000
,
0010
0000
0100
0000
,
1000
0100
0001
0100
,
0010
0000
0100
0000
,
0010
0001
1000
0001
,
1000
0000
0100
0000
,
0001
0100
0010
0100
,
0010
0000
0001
0000
,
0010
0100
1000
0100
,
1000
0000
0001
0000
,
0100
0001
0010
0001
,
1000
0000
0001
0000
,
1000
0010
0100
0010
,
0100
0000
0001
0000
,
0010
0001
1000
0001
,
0100
0000
0010
0000
,
0100
1000
0001
1000
,
0001
0000
0010
0000
,
1000
0010
0100
0010
,
0001
0000
0010
0000
,
0001
0100
1000
0100
,
1000
0000
0010
0000
,
0100
0010
0001
0010
,
0001
0000
0100
0000
,
0001
0010
1000
0010
,
1000
0000
0100
0000
,
0010
0100
0001
0100
,
1000
0000
0100
0000
,
1000
0001
0010
0001
,
0010
0000
0100
0000
,
0001
0100
1000
0100
,
0202
0000
0000
0000
,
0303
0000
0000
0000
;

//---------------dance-single - ----------------
#NOTES:
     dance-single:
     :
     Hard:
     13:
     0.403,0.655,0.067,0.067,0.241: // measure 1
0000
0000
0000
0000
,  // measure 2
0000
0000
0000
0000
,  // measure 3
0000
0000
0000
0000
,  // measure 4
0000
0000
0000
0000
,  // measure 5
0000
0000
0000
0000
,  // measure 6
0000
0000
0000
0000
,  // measure 7
0000
0000
0000
0000
,  // measure 8
0000
0000
0000
0000
,  // measure 9
1000
0000
0000
0000
0010
0000
0000
1000
0000
0001
0000
0000
0100
0000
0000
0000
,  // measure 10
0001
0000
0001
0000
0010
0000
0010
0000
0100
0000
0000
0000
1001
0000
0010
0100
,  // measure 11
0000
0010
0000
0001
0000
1000
0000
0010
0000
0001
0000
0000
0010
0000
1000
0001
,  // measure 12
0000
0010
0000
0100
0000
1000
0000
0010
0000
1000
0000
0000
1010
0000
1000
0010
,  // measure 13
1000
0000
0010
0100
0000
0000
0100
0001
0100
0000
0001
0100
0000
0000
0001
0010
,  // measure 14
0100
0000
0100
1000
0000
0010
0000
1000
0000
0000
0000
0000
1010
0000
0100
0000
,  // measure 15
0010
1000
0000
1000
0001
0000
0100
0001
0000
0000
0001
0000
0010
0000
0001
0000
,  // measure 16
1000
0010
0000
0100
0010
0000
1000
0010
0000
0000
0100
0000
0110
0000
0010
0100
,  // measure 17
0010
1000
0001
1000
0000
0000
0001
0010
0100
1000
0010
1000
0000
0000
1000
0010
,  // measure 18
0100
0001
0100
0001
0000
0000
1000
0100
0010
0000
0001
0000
0100
0000
0010
0000
,  // measure 19
2000
0000
0010
0000
3010
0100
0010
0001
,  // measure 20
0020
0000
0001
0000
0031
0001
1000
0010
,  // measure 21
0200
0000
0010
0000
0310
0100
0010
1000
,  // measure 22
1010
0000
0000
0000
0010
0000
0000
0000
0101
0000
0000
0000
0010
0100
0010
0100
,  // measure 23
0000
0000
0000
0000
0010
0000
0000
1000
0000
0010
0000
0000
1000
0100
0010
0001
,  // measure 24
0000
0100
0000
0010
0000
1000
0000
0001
0000
0000
0000
0000
0100
0010
0100
0010
,  // measure 25
0000
0000
0000
0000
0100
0000
0000
0001
0000
0010
0000
0000
0100
0000
0010
0000
,  // measure 26
0002
0000
0000
0000
0013
0000
0000
0010
1000
0000
0010
0000
0100
0000
1001
0000
,  // measure 27
0010
0000
0100
0000
0010
1000
0000
0010
,  // measure 28
1000
0010
0001
0100
,  // measure 29
0001
0000
1000
0000
0010
0100
0000
0100
,  // measure 30
0010
0001
0010
0100
,  // measure 31
1000
0000
0001
0000
1000
0100
0000
1000
,  // measure 32
0100
1000
0010
0001
,  // measure 33
0010
0000
0100
0010
0000
0100
0000
0010
,  // measure 34
1000
0000
1000
0010
0000
0100
0000
0001
,  // measure 35
0000
0000
0001
0000
0010
0100
0000
0010
,  // measure 36
0100
0010
1000
0001
,  // measure 37
1000
0000
0100
0000
0010
0001
0000
0001
,  // measure 38
0010
1000
0010
0001
,  // measure 39
0100
0000
1000
0000
0100
0001
0000
0100
,  // measure 40
0001
0100
0010
1000
,  // measure 41
0010
0000
0000
0100
0000
0000
0010
0000
0000
1000
0000
0000
0010
0000
0000
0001
,  // measure 42
0000
1000
0000
0000
0000
0000
0000
0000
0020
0000
0000
0000
0030
0000
0000
0000
,  // measure 43
1000
0000
0000
0000
0010
0000
0010
0000
0100
0000
0001
0000
0010
0000
0001
0010
,  // measure 44
0000
0001
0000
0000
0000
0000
0000
0000
0001
0000
0100
0000
1000
0000
0100
0000
,  // measure 45
0001
0010
0001
1000
0000
1000
0010
0000
,  // measure 46
0010
0000
0000
0010
0000
0000
0010
0000
0000
0000
2000
0000
0000
0000
3010
0000
,  // measure 47
0001
0000
0000
0000
0100
0000
0100
0000
0010
0000
1000
0000
0100
0000
1000
0100
,  // measure 48
0000
1000
0000
0000
0000
0000
0000
0000
1000
0000
0010
1000
0000
0010
0000
0001
,  // measure 49
0000
0000
0000
0000
0000
0000
0000
0000
0001
0000
0000
0001
0000
0000
0100
0000
,  // measure 50
0020
0000
0000
0000
,  // measure 51
0130
0000
0000
0000
,  // measure 52
0000
0000
1000
0000
0000
1000
0000
0010
1000
0000
0010
0000
0100
0000
1001
0000
,  // measure 53
0100
0000
0010
0000
0100
0001
0000
0100
,  // measure 54
0001
0100
1000
0010
,  // measure 55
1000
0000
0001
0000
0100
0010
0000
0010
,  // measure 56
0100
1000
0100
0010
,  // measure 57
0001
0000
1000
0000
0001
0010
0000
0001
,  // measure 58
0010
0001
0100
1000
,  // measure 59
0100
0000
0010
0100
0000
0010
0000
0100
,  // measure 60
0001
0000
0001
0100
0000
0010
0000
1000
,  // measure 61
0000
0000
1000
0000
0100
0010
0000
0100
,  // measure 62
0010
0100
0001
1000
,  // measure 63
0001
0000
0010
0000
0100
1000
0000
1000
,  // measure 64
0100
0001
0100
1000
,  // measure 65
0010
0000
0001
0000
0010
1000
0000
0010
,  // measure 66
1000
0010
0100
0001
,  // measure 67
0100
0000
0000
0010
0000
0000
0100
0000
0000
0001
0000
0000
0100
0000
0000
1000
,  // measure 68
0000
0001
0000
0000
0000
0000
0000
0000
0200
0000
0000
0000
0300
0000
0000
0000
,  // measure 69
0010
0000
0001
0000
0010
0100
0000
0010
,  // measure 70
0100
0010
1000
0001
,  // measure 71
1000
0000
0100
0000
0010
0001
0000
0001
,  // measure 72
0010
1000
0010
0001
,  // measure 73
0100
0000
1000
0000
0100
0001
0000
0100
,  // measure 74
0001
0100
0010
1000
,  // measure 75
0010
0000
0001
0000
0000
0001
0000
0010
,  // measure 76
0100
0100
0001
1010
,  // measure 77
0010
0000
1000
0000
0010
0001
0000
0010
,  // measure 78
0001
0010
0100
1000
,  // measure 79
0100
0000
0001
0000
0010
1000
0000
1000
,  // measure 80
0010
0100
0010
1000
,  // measure 81
0001
0000
0100
0000
0001
1000
0000
0001
,  // measure 82
1000
0001
0010
0100
,  // measure 83
0010
0000
0000
0000
0100
0000
0000
0010
,  // measure 84
1000
1000
0010
0100
,  // measure 85
0220
0000
0000
0000
,  // measure 86
0330
0000
0000
0000
;
