#TITLE:Back Door;
#SUBTITLE:;
#ARTIST:Stray Kids;
#TITLETRANSLIT:;
#SUBTITLETRANSLIT:;
#ARTISTTRANSLIT:;
#CREDIT:;
#BANNER:Back Door.png;
#BACKGROUND:Back Door-bg.png;
#LYRICSPATH:;
#CDTITLE:;
#MUSIC:Back Door.mp3;
#OFFSET:1.080;
#SAMPLESTART:44.600;
#SAMPLELENGTH:15.000;
#SELECTABLE:YES;
#BPMS:0.000=108.000;
#STOPS:;
#BGCHANGES:1.880=Back Door.avi=1.000=0=0=0,
99999=-nosongbg-=1.000=0=0=0 // don't automatically add -songbackground-
;

//---------------dance-single - ----------------
#NOTES:
     dance-single:
     :
     Beginner:
     2:
     0.186,0.219,0.181,0.072,0.000:
0000
0000
0000
0000
,
1001
0000
0000
0000
,
0010
0000
0000
0000
,
0100
0000
0000
0000
,
0010
0000
0000
0000
,
1000
1000
1000
0000
,
0001
0001
0001
0000
,
0010
0010
0010
0000
,
0100
0100
0100
0000
,
0001
0000
1000
0000
,
0010
0000
1000
0000
,
0001
0000
0100
0000
,
0010
0000
1000
0000
,
2002
3003
1000
0000
,
0001
0000
1000
0000
,
0010
0000
0100
0000
,
0010
0000
1000
0000
,
1010
1010
1010
0000
,
0010
0010
0010
0000
,
0110
0110
0110
0000
,
0001
0001
1002
0000
,
1003
0010
1000
0000
,
0101
0001
0100
0000
,
0110
0010
0100
0000
,
1001
1000
0001
0000
,
1000
0010
1000
0000
,
0001
0100
0001
0000
,
0010
0100
0010
0000
,
0100
0010
0200
0000
,
0310
0000
0110
0000
,
1000
0000
1010
0000
,
0001
0000
1001
0000
,
0100
0000
0110
0000
,
1000
1000
1000
0000
,
0100
0100
0100
0000
,
0010
0010
0010
0000
,
0002
0000
0003
0000
,
1001
0000
0010
0000
,
1010
0000
1000
0000
,
1100
0000
0100
0000
,
0110
1001
0110
0000
,
0001
0100
0001
0000
,
1000
0010
1000
0000
,
0100
0010
0100
0000
,
0010
0100
0020
0000
,
0130
0010
0100
0010
,
0000
1000
0010
1000
,
0000
0001
0100
0001
,
0000
0010
0100
0010
,
0000
1000
0010
1000
,
0000
0001
1000
0001
,
0000
0100
0010
0100
,
0110
0000
0220
0000
,
0330
0000
0010
0000
,
1000
0000
0001
0000
,
0100
0000
0010
0000
,
0100
0000
0001
0000
,
1000
0000
0001
0000
,
1000
0000
0010
0000
,
0100
0000
0010
0000
,
0220
0000
0330
0000
;

//---------------dance-single - ----------------
#NOTES:
     dance-single:
     :
     Easy:
     5:
     0.219,0.220,0.145,0.080,0.000:
0000
0000
0000
0000
,
0110
0000
0100
0000
,
0010
0000
1000
0000
,
0001
0000
1000
0000
,
1001
0000
0000
0000
,
0001
0100
0001
0010
,
1000
0010
1000
0010
,
0100
0010
0100
0001
,
0100
0001
1000
0001
,
1001
0001
0100
0001
,
1000
0010
0100
0010
,
1000
0001
0100
0001
,
0100
0010
1000
0010
,
2010
0000
3001
0000
,
0001
0100
0001
0010
,
0102
0000
0103
0000
,
0001
1000
1000
0001
,
1001
0100
0010
0100
,
0001
0010
0100
1000
,
0010
1000
0100
0010
,
0001
0000
0220
0000
,
0330
0010
1000
0010
,
0000
0100
0010
0100
,
0000
0001
1000
0001
,
0000
0100
0010
0001
,
0000
1000
0100
0010
,
0000
0100
0010
0001
,
0000
0001
1000
0100
,
0000
1000
0020
0000
,
1030
0000
1010
0000
,
1000
0100
0110
0000
,
0010
0100
0101
0000
,
0001
0010
0101
0000
,
1000
0001
1001
0000
,
0010
0100
0110
0000
,
1000
0010
0101
0000
,
2002
0000
0000
0000
,
3003
0001
1000
0001
,
0000
0100
0010
0100
,
0000
0001
1000
0001
,
0001
0010
0100
1000
,
1001
0001
0010
0100
,
0000
0010
0100
1000
,
0000
1000
0001
0010
,
0000
0001
1000
0010
,
1010
1000
0010
1000
,
0010
0100
0001
0100
,
0001
0010
0100
0010
,
0100
0010
1000
0010
,
1000
0001
0100
0001
,
1000
0010
1000
0001
,
0100
0001
1000
0010
,
1000
0001
0220
0000
,
0330
0000
0010
0000
,
0100
0000
0001
0000
,
1000
0000
0001
0000
,
1001
0000
0001
0000
,
1000
0000
0010
0000
,
0100
0000
0001
0000
,
1000
0000
0010
0000
,
0100
0000
0220
0330
;

//---------------dance-single - ----------------
#NOTES:
     dance-single:
     :
     Medium:
     7:
     0.281,0.308,0.138,0.087,0.076:
0000
0000
0000
0000
,
0110
0000
0000
0000
0100
0000
0000
0001
,
1000
0000
0010
0000
,
1010
0000
0000
0000
0010
0000
0000
1000
,
0001
0000
0000
1000
,
1000
0010
1000
0001
,
0100
0000
0010
0000
1000
0001
1000
0001
,
0100
0010
1000
0001
,
0100
0000
0010
0000
0001
0100
0010
0100
,
0001
1000
0010
0100
,
0010
0000
1000
0000
1000
0100
0010
0100
,
1000
0001
0100
0001
,
0100
0000
0010
0000
0100
0010
0001
0100
,
0001
0000
0000
1000
0010
0100
0001
0000
0000
0100
0000
0000
,
0010
1000
0001
0010
,
1000
0000
0000
0001
0010
0100
1000
0000
0000
0001
0000
0000
,
1000
0010
1000
0001
,
0100
0000
0010
0000
1000
0000
0001
1000
,
0001
0000
0010
0000
0100
0000
1000
0010
,
1000
0001
0100
0010
,
1000
0001
1000
0001
0000
0000
2002
0000
0000
0000
0000
0000
,
3003
0000
0000
0000
0001
0000
1000
0000
0100
0000
0000
0010
0000
0000
1001
0000
,
0000
0000
0000
0000
0010
0000
0100
0000
0010
0000
0000
0010
0000
0000
1000
0000
,
0001
0000
0000
0000
0100
0000
0001
0000
1000
0000
0000
0010
0000
0000
0101
0000
,
0000
0000
0000
0000
0001
0000
0100
0000
0010
0000
0000
1000
0000
0000
0000
0000
,
1000
0010
1000
0010
,
0100
0010
0100
0010
,
0001
0100
0001
0100
,
0001
0000
1000
0001
2002
0000
0000
0000
,
3003
0000
0110
0000
,
1000
0000
0000
0010
0000
0000
0100
0000
0001
0000
0000
0000
0000
0000
0000
0000
,
0100
0000
0001
0000
,
0001
0000
0000
0100
0000
0000
0010
0000
1000
0000
0000
0000
0000
0000
0000
0000
,
1010
0000
1100
0000
,
0001
0000
0000
0001
0000
0000
0001
0000
0100
0000
0000
0000
0000
0000
0000
0000
,
0110
0000
0000
0000
0000
0000
1000
0010
0001
0010
0000
0000
,
2020
0000
0000
0000
,
3030
0000
0000
0000
1000
0000
0001
0000
0010
0000
0000
0100
0000
0000
0000
0000
,
0110
0000
0000
0000
0100
0000
0010
0000
0100
0000
0000
0100
0000
0000
0001
0000
,
1000
0000
0000
0000
0010
0000
1000
0000
0001
0000
0000
0100
0000
0000
0000
0000
,
1001
0000
0000
0000
1000
0000
0010
0000
0100
0000
0000
0001
0000
0000
0000
0000
,
0001
0100
0001
0100
,
0010
0100
0010
0100
,
1000
0010
1000
0010
,
1000
0000
0001
1000
2002
0000
0000
0000
,
3003
1000
1000
0010
,
0100
0010
0001
1000
0001
0000
0010
0000
,
1000
0001
0100
0001
,
1000
0100
0010
0001
1000
0000
0001
0000
,
0100
0001
1000
0010
,
0001
0010
1000
0010
0001
0000
0100
0000
,
0010
1000
0001
0100
,
0010
1000
0010
1000
0000
0000
2020
0000
0000
0000
0000
0000
,
3030
0000
0000
0000
0010
0000
0000
1000
,
0001
0000
0100
0000
,
0101
0000
0000
0000
0100
0000
0000
0001
,
1000
0000
0010
0000
,
0110
0000
0000
0000
0100
0000
0000
0001
,
1000
0000
0010
0000
,
1010
0000
0000
0000
0010
0000
0000
1000
,
0001
0000
2002
3003
;

//---------------dance-single - ----------------
#NOTES:
     dance-single:
     :
     Hard:
     13:
     0.456,0.484,0.210,0.138,0.290: // measure 1
0000
0000
0000
0000
,  // measure 2
0001
0000
0001
0000
1000
0000
0010
1000
,  // measure 3
0010
0000
0100
0000
0001
0100
1000
0100
,  // measure 4
0001
0000
1000
0000
0010
0000
0100
0010
,  // measure 5
1010
0000
0000
0000
0000
0000
0000
0000
0000
0000
1000
0000
0010
0000
1000
0010
,  // measure 6
0100
0000
0000
0000
0010
0000
0000
0000
0001
0000
0100
0010
0100
0010
1000
0000
,  // measure 7
0001
0000
0000
0000
1000
0000
0000
0000
0010
0000
1000
0001
1000
0100
1000
0001
,  // measure 8
0020
0000
0000
0031
0000
0000
1000
0000
0010
0000
0100
0001
0010
0001
1000
0000
,  // measure 9
0100
0000
0010
0000
1000
0000
0001
0010
,  // measure 10
0001
0010
1000
0010
1000
1000
0100
0000
,  // measure 11
0001
0100
1000
0100
0010
0001
0100
0000
,  // measure 12
1000
0000
0000
0000
0100
0000
0000
0000
1000
0000
0000
0000
0100
0000
0000
0000
0010
0000
0000
0000
0001
0000
0000
0000
0100
0000
0000
0000
0010
0000
0000
0000
0001
0000
0000
0000
0010
0000
0000
0000
0000
0000
1000
0000
0000
0001
0000
0000
,  // measure 13
1000
0000
0100
0000
1000
0000
0010
0000
0001
0000
0000
1000
0000
0000
1010
0000
,  // measure 14
0000
0000
0000
1000
0010
0100
0010
0000
0000
1000
0010
0100
,  // measure 15
0001
0000
0010
0000
0001
0000
1000
0000
0010
0000
0100
0000
0020
0000
0000
0100
0000
0000
0000
0000
0000
0030
0000
0000
,  // measure 16
0000
0000
0000
0001
0100
0010
0100
0000
0000
0001
0100
0010
,  // measure 17
1000
0000
0000
0000
0100
0000
0000
0000
1000
0000
0000
0000
0001
0000
0000
0000
0000
0000
0000
0000
0000
0001
0000
0000
1000
0000
0000
0000
0000
0000
0001
0000
0000
0000
0000
0000
0010
0000
0000
0000
0000
0000
0100
0000
0000
0000
0000
0000
,  // measure 18
1010
0000
0000
0010
1000
0000
0000
1000
0010
0000
0000
0100
0001
0000
0100
0000
,  // measure 19
0010
0000
0000
0100
0010
0000
0000
0010
1000
0000
0000
1000
0010
0000
0100
0000
,  // measure 20
0001
0000
0000
1000
0001
0000
0000
0001
0100
0000
0000
0010
0100
0000
0010
0000
,  // measure 21
1000
0000
0100
0000
0010
0000
0001
0000
0000
0000
0000
0000
2002
0000
0000
0000
0000
0000
0000
0000
0000
3003
0000
0000
,  // measure 22
1000
0000
0000
0010
0000
0000
0100
0000
0001
0000
0000
1000
0000
0000
0010
0000
,  // measure 23
0100
0000
0000
0001
0000
0000
0100
0000
0001
0000
1000
0000
0010
0000
1000
0000
,  // measure 24
1001
0000
0000
0010
0000
0000
1000
0000
0010
0000
0000
0100
0000
0000
0001
0000
,  // measure 25
1000
0000
0000
0001
0000
0000
0001
0000
1000
0000
0000
0010
0000
0000
0100
0000
,  // measure 26
0010
1000
0010
1010
0000
0000
0100
0001
,  // measure 27
0100
0001
0100
0101
0000
0000
1000
0010
,  // measure 28
0001
0000
0010
0000
1000
0000
1001
0000
0000
0000
1000
0010
1000
0010
0100
0001
,  // measure 29
0100
0010
0100
0110
2002
0000
0000
3003
,  // measure 30
2000
0000
0000
0000
3010
0000
0000
1000
,  // measure 31
0010
0001
0010
1000
0010
0001
0010
1000
,  // measure 32
1010
0000
0000
0000
0202
0000
0303
0001
,  // measure 33
0100
1000
0100
0001
0100
1000
0100
0001
,  // measure 34
0101
0000
1000
0001
1000
0010
1000
0001
1000
0002
0000
0000
,  // measure 35
1003
0000
0100
0001
1000
0010
0100
0001
1000
0210
0000
0000
,  // measure 36
0310
0000
1000
0010
0100
0001
0100
0010
1000
0020
0000
0000
,  // measure 37
0230
0000
0000
0000
,  // measure 38
0301
0000
0000
0100
0000
0000
0010
0000
1000
0000
0000
0001
0000
0000
0100
0000
,  // measure 39
0010
0000
0000
1000
0000
0000
0010
0000
1000
0000
0001
0000
0100
0000
0001
0000
,  // measure 40
1001
0000
0000
0100
0000
0000
0001
0000
0100
0000
0000
0010
0000
0000
1000
0000
,  // measure 41
0001
0000
0000
1000
0000
0000
1000
0000
0001
0000
0000
0100
0000
0000
0010
0000
,  // measure 42
0100
0001
0100
0101
0000
0000
0010
1000
,  // measure 43
0010
1000
0010
1010
0000
0000
0001
0100
,  // measure 44
1000
0000
0100
0000
0001
0000
1001
0000
0000
0000
0001
0100
0001
0100
0010
1000
,  // measure 45
0010
0100
0010
0110
2002
0000
0000
3003
,  // measure 46
1001
0010
0100
0010
1000
0001
0100
0000
,  // measure 47
0101
0001
0100
0010
1000
0010
0100
0000
,  // measure 48
1000
0001
0100
0001
0100
0010
1000
0000
,  // measure 49
1010
1000
0100
0010
0001
0100
0010
0000
,  // measure 50
1100
1000
0010
0001
0010
1000
0001
0000
,  // measure 51
0101
0001
1000
0100
1000
0001
0100
0000
,  // measure 52
0110
0010
0100
0001
1000
1000
0001
0000
,  // measure 53
1000
0001
1000
0001
0000
0000
2002
0000
0000
0000
0000
3003
,  // measure 54
1000
0000
1000
0000
0001
0000
0100
0001
,  // measure 55
0100
0000
0010
0000
1000
0010
0001
0010
,  // measure 56
1000
0000
0001
0000
0100
0000
0010
0100
,  // measure 57
0101
0000
0001
0000
1000
0000
0010
1000
,  // measure 58
0010
0000
0100
0000
0001
0100
1000
0100
,  // measure 59
0001
0000
1000
0000
0010
0000
0100
0010
,  // measure 60
1000
0000
1000
0000
0001
0000
0100
0001
,  // measure 61
0100
0100
0220
0330
;
