#TITLE:Baby, I'm Jealous (feat. Doja Cat);
#SUBTITLE:;
#ARTIST:Bebe Rexha;
#TITLETRANSLIT:;
#SUBTITLETRANSLIT:;
#ARTISTTRANSLIT:;
#CREDIT:;
#BANNER:Baby, I'm Jealous (feat. Doja Cat).png;
#BACKGROUND:Baby, I'm Jealous (feat. Doja Cat)-bg.png;
#LYRICSPATH:;
#CDTITLE:;
#MUSIC:Baby, I'm Jealous (feat. Doja Cat).mp3;
#OFFSET:-0.480;
#SAMPLESTART:26.820;
#SAMPLELENGTH:15.000;
#SELECTABLE:YES;
#BPMS:0.000=98.000;
#STOPS:;
#BGCHANGES:;

//---------------dance-single - ----------------
#NOTES:
     dance-single:
     :
     Easy:
     3:
     0.174,0.210,0.075,0.067,0.000:
0000
0000
0000
0000
,
0000
0000
0000
0000
,
0000
0000
0000
0000
,
0001
0100
0001
0000
,
0100
0010
1000
0000
,
1000
1000
0100
0000
,
0010
0100
0010
0000
,
0100
0010
0002
0003
,
0001
0100
0001
0000
,
0100
0010
1000
0000
,
1001
0110
1001
0000
,
1010
0100
0010
1000
,
0000
0010
0000
0100
,
0110
0100
0010
0100
,
0000
0001
0000
0010
,
0101
0010
0001
1000
,
0000
0010
0000
0100
,
2000
3002
2003
3002
,
0003
0001
0010
0100
,
1000
0000
0000
1000
,
0000
0010
0100
0010
,
0000
0100
0010
0100
,
0000
0010
0100
0010
,
0001
0100
0001
0101
,
0010
1000
0010
1010
,
0000
0001
1000
0001
,
0000
0100
0010
0100
,
0000
0000
0000
0010
,
0000
0100
0010
1000
,
0000
0001
0100
0001
,
0000
0010
0100
1000
,
0000
1000
0100
0010
,
0000
1000
0001
1000
,
0000
0100
1000
0100
,
0000
0010
0001
0010
,
0000
0100
0000
0100
,
0000
0100
0000
0010
,
0110
0010
0100
0010
,
0000
1000
0000
0100
,
1010
0100
1000
0001
,
0000
0100
0000
0010
,
0002
2003
3002
2003
,
3000
1000
0100
0010
,
0001
0010
0001
0100
,
0010
1000
0100
1000
,
0010
0100
0001
1000
,
0010
0100
0010
1000
,
0000
0100
0000
0010
,
0000
0001
0000
0100
,
0000
0001
0000
1000
,
0000
0010
0000
0100
,
0000
0010
0000
0000
;

//---------------dance-single - ----------------
#NOTES:
     dance-single:
     :
     Beginner:
     1:
     0.135,0.134,0.022,0.030,0.000:
0000
0000
0000
0000
,
0000
0000
0000
0000
,
0000
0000
0000
0000
,
0000
1000
0000
0010
,
0000
1000
0000
0010
,
0000
0100
0000
0001
,
0000
0100
0000
0001
,
0000
0010
0000
0100
,
0000
1000
0000
0010
,
0000
1000
0000
0001
,
0000
1000
0000
1001
,
0000
1000
1000
1000
,
0000
0010
0010
0010
,
0000
0100
0100
0100
,
0000
0001
0001
0001
,
0000
1000
0001
1000
,
0000
0001
1000
0001
,
0000
0200
0300
0020
,
0030
0010
0000
0100
,
0000
0000
0000
1001
,
0000
0010
0000
0100
,
0000
0001
0000
0100
,
0000
0010
0000
1000
,
0000
0100
0000
0010
,
0000
0100
0000
1000
,
0000
0001
0000
1000
,
0000
0010
0000
1000
,
0000
0001
0001
0001
,
0000
0100
0000
0010
,
0000
0100
0100
0100
,
0000
0010
0000
1000
,
0000
1000
1000
1000
,
0000
0001
0000
1000
,
0000
0001
0001
0001
,
0000
0100
0000
0110
,
0000
0001
0001
0001
,
0000
0100
0100
0100
,
0000
0010
0010
0010
,
0000
1000
1000
1000
,
0000
0001
1000
0001
,
0000
1000
0001
1000
,
0000
0020
0030
0200
,
0300
0100
0000
0010
,
0000
1000
0010
1000
,
0000
0001
0100
0001
,
0000
1000
0001
1000
,
0000
0001
1000
0001
,
0000
0100
0010
0100
,
0000
0010
0100
0010
,
0000
1000
0100
1000
,
0000
0001
0010
0001
,
0000
0010
0000
0000
;

//---------------dance-single - ----------------
#NOTES:
     dance-single:
     :
     Medium:
     6:
     0.275,0.287,0.030,0.097,0.015:
0000
0000
0000
0000
,
0000
0000
0000
0000
,
0000
0000
0000
0000
0000
0010
0100
0010
,
0100
0000
0000
0100
0010
0000
0000
0001
,
1000
0000
0000
1000
0001
0000
0001
1000
,
0010
0000
0000
0010
0100
0000
0000
0100
,
0010
0000
0000
0001
1000
0000
1000
0010
,
0100
0000
0000
0100
1000
0000
0000
0001
,
0010
0000
0000
0100
0010
0000
0100
0010
,
0001
0000
0000
0001
0010
0000
0000
0010
,
0001
0000
0000
0100
0010
0000
1000
0010
,
1000
0000
0010
1000
0100
1000
0010
0000
,
0100
0000
0001
0100
0001
0000
0010
0001
,
0100
0000
0001
0100
1000
0100
0001
0000
,
0100
0000
0010
0100
0010
0000
1000
0010
,
1000
0000
0010
1000
0001
0100
0010
0000
,
0100
0000
0001
0001
0100
0000
0010
0000
,
1000
0000
0000
0010
0000
0000
1000
0000
0000
0000
0001
0000
0000
0100
0000
0000
,
0001
0000
1001
0000
1000
0100
0010
0000
,
0000
0000
0000
0110
,
0100
0000
0000
0100
0001
0000
0010
0100
,
0010
0000
0000
1000
0100
0000
0000
0010
,
1000
0000
0000
0001
0100
0000
0001
0100
,
1000
0000
1000
0010
0001
0010
1000
0000
,
0010
0000
0010
0100
0001
1000
0001
0000
,
0001
0000
0001
0010
0100
1000
1000
0000
,
0010
0000
1000
0010
0001
0010
1000
0000
,
0000
0000
0000
1001
,
0001
0001
0010
0010
0100
0100
1000
1000
,
0010
2000
3010
1000
,
1000
0001
1000
0010
0100
0001
0010
0100
,
1000
0020
1030
0001
,
0001
0100
0001
1000
0010
1000
0001
0100
,
1000
0010
0200
0301
,
0001
0010
0100
0010
0001
0010
0100
0010
,
0001
0000
0100
0001
0010
0001
0100
0000
,
0010
0000
1000
0010
1000
0000
0100
1000
,
0010
0000
1000
0010
0001
0010
1000
0000
,
0010
0000
0100
0010
0100
0000
0001
0100
,
0001
0000
0100
0001
1000
0010
0100
0000
,
0010
0000
1000
1000
0010
0000
0100
0000
,
0001
0000
0000
0100
0000
0000
0001
0000
0000
0000
1000
0000
0000
0010
0000
0000
,
1000
0000
1001
0000
0001
0010
0100
0000
,
0001
0100
0001
2000
,
3010
0100
0010
1000
,
0001
0100
0001
0200
,
0310
0100
1000
0010
,
2000
0000
3020
0000
,
0230
0000
0302
0000
,
2003
0000
3020
0000
,
0230
0000
0000
0000
0300
0100
0100
0010
,
0100
0020
0030
0000
0000
0000
0000
0000
;

//---------------dance-single - ----------------
#NOTES:
     dance-single:
     :
     Hard:
     10:
     0.392,0.363,0.075,0.239,0.179: // measure 1
0000
0000
0000
0000
,  // measure 2
0000
0000
0000
0000
,  // measure 3
0000
0000
0000
0000
0000
0001
0010
0100
,  // measure 4
1000
0000
0010
0000
0100
0000
0010
1000
0010
0000
0100
0010
0000
0100
0000
0001
,  // measure 5
1000
0000
0001
1000
0010
0000
0100
0010
0000
1000
0000
0010
0000
0001
0000
0000
,  // measure 6
0001
0000
0100
0000
0010
0000
0100
0001
0100
0000
0010
0100
0000
0010
0000
0000
,  // measure 7
0010
1000
0001
0000
0100
0000
0010
0100
0000
0001
0000
0100
0000
1000
0000
0000
,  // measure 8
0000
0001
0100
0002
0000
0000
0103
0010
,  // measure 9
0100
0010
1000
0100
0020
0000
0032
0100
,  // measure 10
1003
0010
0100
0010
0000
0000
0010
0100
,  // measure 11
0110
0000
0000
0000
1001
0000
0000
0000
0110
0000
0000
0000
0010
0100
0010
0000
,  // measure 12
0100
0000
0001
0000
0000
0000
0100
0000
0001
0000
0010
0000
0001
0000
1000
0010
,  // measure 13
0100
0000
0010
0000
0100
0000
0001
0000
2000
0000
0000
0000
3001
1000
0001
0000
,  // measure 14
0100
0000
0010
0000
0000
0000
0001
0000
0010
0000
0100
0000
1000
0000
1000
0010
,  // measure 15
0100
0000
0010
0000
1000
0000
0010
0000
0002
0000
0000
0000
1003
0010
0100
0000
,  // measure 16
0001
0000
0010
0000
0001
0000
0100
0000
0010
0000
1000
0000
0100
0000
1000
0100
,  // measure 17
1000
0000
0010
0000
0100
0000
0010
0100
0000
0000
0010
0000
0100
0000
0000
0000
,  // measure 18
0020
0000
0000
0230
0000
0000
0302
0000
0000
0003
2000
0000
0000
3002
0000
0000
,  // measure 19
0203
0000
0000
0300
0010
0000
0000
0000
0010
0000
0100
0000
0001
0000
0000
0000
,  // measure 20
0100
0010
0000
0010
0100
0010
1000
0001
,  // measure 21
1000
0010
0000
0010
1000
0010
0100
0001
,  // measure 22
1000
0001
0000
1000
0010
0100
0010
1000
,  // measure 23
0001
0100
0000
0001
0100
1000
0100
0001
,  // measure 24
0100
0010
1010
0000
0100
0010
0101
0000
,  // measure 25
1000
0010
0001
0010
1000
0010
0001
0000
,  // measure 26
0001
0100
0001
1000
0010
1000
0001
0000
,  // measure 27
0100
0010
0100
0010
1000
0001
1000
0001
,  // measure 28
0000
0000
0100
0000
0000
0010
0000
0000
0120
0000
0000
0000
0130
0000
0000
0000
,  // measure 29
0010
0100
0010
1000
0100
1000
0001
0010
,  // measure 30
0001
0000
1000
0000
0000
0001
0000
0000
0102
0000
0000
0000
0103
0000
0000
0000
,  // measure 31
0010
0001
0100
1000
0010
1000
0001
0100
,  // measure 32
0001
0000
0010
0000
0000
0001
0000
0000
2010
0000
0000
0000
3010
0000
0000
0000
,  // measure 33
1000
0010
0100
0001
0100
0010
1000
0001
,  // measure 34
0100
0000
0001
0000
0000
0100
0000
0000
0120
0000
0000
0000
0130
0000
0000
0000
,  // measure 35
0010
0000
1000
0000
0001
0000
0100
0000
0010
0000
1000
0000
0100
0010
0100
0000
,  // measure 36
0010
0000
1000
0000
0000
0000
0010
0000
1000
0000
0100
0000
1000
0000
0001
0100
,  // measure 37
0010
0000
0100
0000
0010
0000
1000
0000
0002
0000
0000
0000
1003
0001
1000
0000
,  // measure 38
0010
0000
0100
0000
0000
0000
1000
0000
0100
0000
0010
0000
0001
0000
0001
0100
,  // measure 39
0010
0000
0100
0000
0001
0000
0100
0000
2000
0000
0000
0000
3001
0100
0010
0000
,  // measure 40
1000
0000
0100
0000
1000
0000
0010
0000
0100
0000
0001
0000
0010
0000
0001
0010
,  // measure 41
0001
0000
0100
0000
0010
0000
0100
0010
0000
0000
0100
0000
0010
0000
0000
0000
,  // measure 42
0200
0000
0000
0320
0000
0000
2030
0000
0000
3000
0002
0000
0000
2003
0000
0000
,  // measure 43
3020
0000
0000
0030
0100
0000
0000
0000
0010
0000
0100
0000
0010
0000
0000
0000
,  // measure 44
1000
0000
0000
0000
1000
0010
0000
0000
0010
0000
0000
0000
0020
0000
0000
0000
,  // measure 45
0030
0000
0000
0000
0100
0001
0000
0000
0010
0000
0000
0000
0002
0000
0000
0000
,  // measure 46
0003
0000
0000
0000
0001
0100
0000
0000
0001
0000
0000
0000
2000
0000
0000
0000
,  // measure 47
3000
0000
0000
0000
0010
0100
0000
0000
0010
0000
0000
0000
0200
0000
0000
0000
,  // measure 48
0300
0000
0000
0000
0010
1000
0000
0000
1000
0000
0000
0000
0200
0000
0000
0000
,  // measure 49
0300
0000
0000
0000
1000
0010
0000
0000
0100
0000
0000
0000
0020
0000
0000
0000
,  // measure 50
0030
0000
0000
0000
0100
0010
0000
0000
0100
0000
0000
0000
0002
0000
0000
0000
,  // measure 51
0003
0000
0000
0000
0001
1000
0000
0000
1000
0000
0010
0000
0100
0010
0100
0000
,  // measure 52
0010
2002
3003
0000
0000
0000
0000
0000
;
