#TITLE:BOY;
#SUBTITLE:;
#ARTIST:TREASURE;
#TITLETRANSLIT:;
#SUBTITLETRANSLIT:;
#ARTISTTRANSLIT:;
#CREDIT:;
#BANNER:BOY.png;
#BACKGROUND:BOY-bg.png;
#LYRICSPATH:;
#CDTITLE:;
#MUSIC:BOY.mp3;
#OFFSET:-0.520;
#SAMPLESTART:59.960;
#SAMPLELENGTH:15.000;
#SELECTABLE:YES;
#BPMS:0.000=110.000;
#STOPS:;
#BGCHANGES:-1.220=BOY.avi=1.000=0=0=0,
99999=-nosongbg-=1.000=0=0=0 // don't automatically add -songbackground-
;

//---------------dance-single - ----------------
#NOTES:
     dance-single:
     :
     Easy:
     5:
     0.248,0.355,0.216,0.042,0.000:
0000
0000
0000
0000
,
0000
0000
0000
0000
,
0000
0000
0000
0000
,
0000
0000
0000
0000
,
1000
0001
1000
0000
,
0001
1000
1000
0000
,
0010
0100
0001
0000
,
1000
0001
0100
0000
,
0010
0100
0010
0000
,
0001
0100
1000
0000
,
0001
1000
0001
0000
,
0010
0001
0010
0000
,
1000
0010
1000
0010
,
0100
0001
0100
0001
,
0000
0001
1000
0010
,
0000
1000
0001
1000
,
0000
0010
1000
0100
,
0000
0010
0001
0100
,
0000
1000
0001
1000
,
0000
0010
0100
0010
,
1010
1000
1000
1000
,
1000
0100
0100
0100
,
0100
0010
0010
0010
,
0010
0001
0001
0001
,
1001
0001
0100
0001
,
1000
0010
1000
0010
,
0100
0010
0100
0010
,
1000
0001
0000
0000
0100
0000
0001
0000
,
0101
0001
1000
0010
,
1000
0001
0200
0301
,
1000
0010
0100
0010
,
0110
1001
0110
0010
,
1000
0001
0100
0001
,
1000
0010
0020
1030
,
0010
1000
0010
0100
,
1001
0110
1001
0000
,
0001
0000
0000
0010
0010
0000
0000
0000
,
1000
0000
0000
0001
1000
0000
0000
0000
,
1000
0000
0000
1000
1000
0000
0000
0000
,
0010
0000
0000
0010
0100
0000
0000
0000
,
0100
0010
0010
1000
,
0001
1000
0001
0000
,
0101
0001
0001
0010
,
0010
0100
0100
1000
,
1010
0000
0000
0000
,
1000
0010
0100
0010
,
1000
0001
0100
0001
,
0001
1000
0001
0100
,
0110
0110
1010
0000
,
0001
0100
0010
0100
,
0001
1000
0010
1000
,
1000
0001
1000
0010
,
0110
0110
0101
0000
,
0011
0110
1100
1010
,
0101
0011
2002
3003
,
2002
0000
0000
0000
3003
0000
0100
0010
,
0100
0010
1000
0001
,
0100
0001
0100
0001
,
1000
0010
1000
0010
,
1001
0110
1001
0000
,
0010
0100
0001
1000
,
0010
1000
0010
1000
,
0001
0100
0001
0100
,
1001
0000
0110
0000
1001
0000
0010
0010
;

//---------------dance-single - ----------------
#NOTES:
     dance-single:
     :
     Beginner:
     3:
     0.172,0.245,0.174,0.007,0.000:
0000
0000
0000
0000
,
0000
0000
0000
0000
,
0000
0000
0000
0000
,
0000
0000
0000
0000
,
1001
0000
0000
0000
,
0010
0000
0000
0000
,
0100
0000
0000
0000
,
0010
0000
0000
0000
,
1000
0000
0000
0000
,
1000
0000
0000
0000
,
0001
0000
0000
0000
,
1000
0000
0000
0000
,
0000
0010
0000
0100
,
0000
0001
0000
1000
,
0000
0001
0000
0100
,
0000
0001
0000
1000
,
0000
0010
0000
1000
,
0000
0001
0000
0100
,
0000
0001
0000
1000
,
0000
0001
0000
0100
,
0000
1000
1000
1000
,
0000
0001
0001
0001
,
0000
0100
0100
0100
,
0000
0001
0001
0001
,
0000
0001
0000
0001
,
0000
1000
0000
1000
,
0000
0001
1000
0001
,
1001
0000
0000
0000
,
0000
0100
0010
0100
,
0000
0001
1000
0001
,
0000
1000
0001
1000
,
0000
0100
0010
0100
,
0000
0010
1000
0010
,
0000
0001
1000
0001
,
0000
1000
0001
1000
,
1001
0110
1001
0000
,
0001
0000
0101
0000
,
1000
0000
1010
0000
,
0010
0000
0110
0000
,
0100
0000
0101
0000
,
0000
0001
0001
0001
,
0000
0100
0100
0100
,
0000
0010
0000
0100
,
0000
0010
0010
0010
,
0000
1000
0000
1000
,
0000
0010
0000
1000
,
0000
0001
0100
0001
,
0000
1000
0001
1000
,
1001
0110
1001
0000
,
0000
0010
0100
0010
,
0000
1000
1000
1000
,
0000
0001
1000
0001
,
1001
0110
1001
0000
,
1000
1000
1000
1000
,
1000
1000
1000
1000
,
2000
0000
3000
0000
,
1001
1001
1001
1001
,
0000
0010
1000
0010
,
0000
0100
0001
0100
,
0101
1010
0101
0000
,
0000
0010
0100
0010
,
0000
1000
0010
1000
,
0000
0001
1000
0001
,
1001
0110
1001
0000
,
0010
0000
0000
0000
;

//---------------dance-single - ----------------
#NOTES:
     dance-single:
     :
     Medium:
     8:
     0.304,0.355,0.236,0.035,0.017:
0000
0000
0000
0000
,
0000
0000
0000
0000
,
0000
0000
0000
0000
,
0000
0000
0000
0000
,
0000
0100
0010
0100
,
0000
0001
1000
0001
,
0000
1000
0010
0001
,
0000
0001
0010
1000
,
0000
0001
1000
0001
,
0000
1000
0010
1000
,
0000
0010
0100
0010
,
0000
1000
0001
1000
,
0000
0000
0001
0000
0001
0010
0100
0000
,
0000
0000
0010
0000
0100
0010
1000
0000
,
0000
0000
1000
0000
0000
0100
0000
0000
0010
0000
0000
0100
0000
0000
0010
0000
,
0000
0000
0100
0000
0000
0010
0000
0000
0001
0000
0000
1000
0000
0000
0001
0000
,
0000
0000
0001
0000
1000
0001
1000
0000
,
0000
0000
1000
0000
1000
0100
0010
0000
,
0000
0000
0100
0000
0100
0010
0001
0000
,
0000
0000
0001
0000
0001
0100
0010
0000
,
0110
0010
0010
0010
,
1010
1000
1000
1000
,
1001
0001
0001
0001
,
0101
0100
0100
0100
,
0110
0010
1000
0010
,
0100
0001
0100
0010
,
1001
0000
0110
0000
1001
0000
1000
0001
,
1000
0001
0000
0000
0100
0000
0010
0000
,
0110
0000
0010
1000
0010
0000
0100
0010
,
0010
0000
0100
0001
0010
0000
1000
0001
,
0100
0000
0001
1000
0010
0000
0010
0001
,
1001
0000
1010
0000
0101
0000
0001
1000
,
0000
0001
0100
0000
0001
0100
0000
0001
,
0100
0000
0101
0000
0200
0000
0310
0010
,
0000
1000
0010
0000
1000
0010
0000
1000
,
0010
1010
1001
0000
,
0010
0000
0000
0010
0110
0000
0000
0000
,
1000
0000
0000
0001
1001
0000
0000
0000
,
0001
0000
0000
0010
0101
0000
0000
0000
,
0100
0000
0000
0100
1010
0000
0000
0000
,
1000
0010
1000
0001
,
0100
0010
0100
0010
,
1000
0001
0100
0001
,
1000
0010
0200
0310
,
0110
0000
0000
0000
0000
0000
0100
0000
0010
0100
0010
0000
1001
0000
0000
0000
,
1000
0010
0100
0010
1000
0001
0100
0010
,
0000
0100
0010
0100
0010
1000
0001
1000
,
0000
0001
0010
1000
0010
0001
0010
1000
,
1001
0110
1001
0000
,
0001
0100
0010
0100
0001
1000
0010
0100
,
0000
0010
0100
0010
0100
0001
1000
0001
,
0000
1000
0100
0001
0100
1000
0100
0001
,
1001
0110
1001
0000
,
0100
0010
1000
0001
,
0100
0001
2000
3001
,
2002
0000
3003
0010
,
0100
0010
1000
0001
,
0100
0001
0100
0001
0100
0001
0100
0000
,
0010
1000
0001
1000
,
1010
0000
0011
0000
0110
0000
0010
0100
,
0010
0100
0001
1000
,
0010
1000
0010
1000
0010
1000
0010
0000
,
0100
0001
1000
0001
,
0101
0000
1100
0000
0110
0010
0100
0010
;

//---------------dance-single - ----------------
#NOTES:
     dance-single:
     :
     Hard:
     14:
     0.490,0.555,0.278,0.202,0.306: // measure 1
0000
0000
0000
0000
,  // measure 2
0000
0000
0000
0000
,  // measure 3
0000
0000
0000
0000
,  // measure 4
0000
0000
0000
0000
0000
0000
0000
0000
0000
0000
0000
0000
1000
0010
0000
0100
,  // measure 5
0000
0010
0000
1000
0010
0000
1000
0000
0000
0000
0000
0000
0010
0100
0000
0010
,  // measure 6
0000
0100
0001
0000
0100
0000
0000
0000
0000
0000
0000
0000
0001
1000
0000
0010
,  // measure 7
0000
1000
0000
0010
0100
0000
0010
0000
0000
0000
0000
0000
1000
0010
0000
1000
,  // measure 8
0000
0010
0000
0010
0100
0000
0000
0010
0000
1000
0000
0010
1000
0000
0000
0001
,  // measure 9
0000
0100
0000
0001
0100
0000
0010
0000
0000
0000
0000
0000
0100
0010
0000
0100
,  // measure 10
0000
0010
1000
0000
0002
0000
0000
0000
0003
0000
0000
0000
0001
0100
0000
0001
,  // measure 11
0000
0100
0000
0010
0100
0000
0001
0000
0000
0000
0000
0010
0001
0100
0000
0100
,  // measure 12
0000
0001
0000
0100
0010
0000
0000
0010
0000
0100
0000
0001
0100
0000
0000
0000
,  // measure 13
0000
0010
0001
1000
0010
0000
0001
1000
,  // measure 14
0000
0010
0100
0001
1000
0000
0100
0010
,  // measure 15
0000
0000
0100
0000
0000
0010
0000
0000
0001
0000
0000
1000
0000
0000
0010
0000
,  // measure 16
0000
0000
1000
0000
0000
0010
0000
0000
0100
0000
0000
0010
0000
0000
1000
0000
,  // measure 17
0000
1000
0001
0100
0001
0000
0100
0010
,  // measure 18
0000
0010
1000
0001
0100
0000
0010
0000
,  // measure 19
2000
3100
0002
0013
,  // measure 20
0001
0000
0010
0000
0100
0000
1000
0000
0010
0000
0000
1000
0000
0000
0010
0000
,  // measure 21
1001
0001
0100
0010
1000
0100
1000
0010
,  // measure 22
0100
0010
0010
0010
,  // measure 23
0010
0010
0001
0100
1000
0100
0001
0100
,  // measure 24
2000
3010
0020
0130
,  // measure 25
0010
0000
0010
0100
0000
0100
0001
0000
0000
0000
0001
0000
0010
0000
0100
0000
,  // measure 26
1000
0000
0001
1000
0000
1000
0001
0000
0000
0000
0110
0000
0000
0000
0000
0000
,  // measure 27
0101
0000
0110
0000
1010
0000
1000
0100
,  // measure 28
0010
0000
0001
0000
0001
0000
1000
0000
0010
1000
0010
0000
0100
0000
0010
0000
,  // measure 29
0010
0000
0100
0010
0000
0010
0100
0000
0010
0000
0100
0000
1000
0000
0001
0000
,  // measure 30
1000
0000
0010
1000
0000
1000
0001
0000
0001
0000
0010
0000
0100
0000
0010
0000
,  // measure 31
0001
0000
0001
1000
0000
0001
1000
0000
0100
0000
0010
0000
0100
0000
1000
0000
,  // measure 32
2100
0000
0000
3100
0000
0000
0120
0000
0000
0130
0000
0000
0012
0000
0000
0013
0000
0000
0001
0000
1000
0000
0001
0000
,  // measure 33
1000
0000
0010
0100
0000
0100
0010
0000
1000
0000
0010
0000
0001
0000
0010
0000
,  // measure 34
1000
0000
0001
0100
0000
0100
0001
0000
1000
0000
0010
0000
0001
0000
0010
0000
,  // measure 35
1000
0000
0010
1000
0000
0001
0100
0000
0010
0000
0100
0000
0010
0000
0100
0000
,  // measure 36
0110
1001
0110
0000
,  // measure 37
2010
0000
0000
0010
3010
0100
0010
0000
,  // measure 38
0102
0000
0000
0100
0103
0001
1000
0000
,  // measure 39
2001
0000
0000
0001
3001
1000
0010
0000
,  // measure 40
0201
0000
0000
0001
0301
1000
0010
0000
,  // measure 41
0100
0000
0000
0000
0000
0000
0100
0010
1000
0000
0010
0000
1000
0000
0000
0000
,  // measure 42
0000
0000
0001
0100
0010
0000
0100
0000
0001
0000
0000
0000
1000
0000
0010
0000
,  // measure 43
0100
0000
0000
0010
0000
0000
1000
0000
0001
0000
0000
0000
0001
0000
0010
0000
,  // measure 44
0100
0000
0000
1000
0000
0000
0010
0000
1000
0000
0000
0000
1001
0000
0000
0000
,  // measure 45
0220
0000
0330
0000
0000
0000
0100
0000
0010
0100
0010
0000
0100
0000
0010
0000
,  // measure 46
0000
0000
0001
0100
0001
0000
0100
0000
0001
0000
0010
0000
0100
0000
1000
0000
,  // measure 47
1000
0000
0010
1000
0010
0000
1000
0000
0010
0000
0001
0000
0010
1000
0001
0000
,  // measure 48
0101
0000
0001
0100
0010
0000
0100
0000
0010
0000
1000
0000
0100
0000
1000
0000
,  // measure 49
2010
0000
0000
3010
0000
0000
0102
0000
0000
0103
0000
0000
2001
0000
0000
3001
0000
0000
0001
0000
0010
0000
0100
0000
,  // measure 50
1000
0000
1000
0010
1000
0000
0010
0000
1000
0000
0100
0000
0010
0000
0001
0000
,  // measure 51
0001
0000
0100
0001
0100
0000
0001
0000
0100
0000
1000
0000
0100
0001
1000
0000
,  // measure 52
1010
0000
1000
0010
0100
0000
0010
0000
0100
0000
0001
0000
0010
0000
0001
0000
,  // measure 53
0102
0000
0000
0103
0000
0000
2010
0000
0000
3010
0000
0000
1002
0000
0000
1003
0000
0000
1000
0000
0100
0000
0010
0000
,  // measure 54
0001
0000
0000
0000
0001
0100
0000
0000
0110
0000
0000
0000
1000
0010
0000
0000
,  // measure 55
1000
0010
0000
0000
0220
0300
0030
0000
2002
0000
0000
0000
0000
0000
3003
0000
,  // measure 56
0220
0000
0000
0000
0000
0000
0000
0000
0330
0000
0000
0000
0100
0010
0000
0000
,  // measure 57
1000
0000
0010
1000
0010
0000
1000
0000
0001
0000
0100
0000
0010
0000
1000
0000
,  // measure 58
0010
1000
1010
0010
0110
0100
0101
0000
,  // measure 59
0010
0000
0100
0010
0100
0000
0001
0000
1000
0000
0010
0000
1000
0000
0001
0000
,  // measure 60
0201
0000
0000
0301
0000
0000
0210
0000
0000
0310
0000
0000
2010
0000
0000
3010
0000
0000
1000
0000
0010
0000
0100
0000
,  // measure 61
0001
0000
0100
0001
0100
0000
0001
0000
1000
0000
0010
0000
0100
0000
0001
0000
,  // measure 62
0100
0001
0101
0100
0110
0010
1010
0000
,  // measure 63
0100
0000
0010
0100
0010
0000
1000
0000
0001
0000
0100
0000
0001
0000
1000
0000
,  // measure 64
1001
0000
0000
0000
0110
0000
0000
0000
1000
0001
1000
0000
0010
0000
0100
0000
;
