#TITLE:BOOMBAYAH;
#SUBTITLE:;
#ARTIST:BLACKPINK;
#TITLETRANSLIT:;
#SUBTITLETRANSLIT:;
#ARTISTTRANSLIT:;
#CREDIT:;
#BANNER:BOOMBAYAH.png;
#BACKGROUND:BOOMBAYAH-bg.png;
#LYRICSPATH:;
#CDTITLE:;
#MUSIC:BOOMBAYAH.mp3;
#OFFSET:-0.100;
#SAMPLESTART:81.640;
#SAMPLELENGTH:15.000;
#SELECTABLE:YES;
#BPMS:0.000=125.000;
#STOPS:;
#BGCHANGES:-0.400=BOOMBAYAH.avi=1.000=0=0=0,
99999=-nosongbg-=1.000=0=0=0 // don't automatically add -songbackground-
;

//---------------dance-single - ----------------
#NOTES:
     dance-single:
     :
     Easy:
     5:
     0.260,0.304,0.095,0.122,0.000:
0000
0000
0000
0000
,
0010
1000
1000
0000
,
1000
0001
1000
0000
,
0010
0001
1000
0000
,
0001
0100
0100
0000
,
0010
0010
1000
0000
,
1000
0100
1000
0000
,
0010
0001
0010
0000
,
0100
1000
0100
0000
,
1000
0100
0100
0000
,
0100
0010
0100
0000
,
1000
0010
0200
0020
,
0330
0000
0000
0000
,
1000
1000
0100
0000
,
0100
0001
0100
0000
,
1000
0010
1000
0000
,
0001
0100
0001
0000
,
1000
0010
1000
0000
,
0001
0100
0010
0000
,
1001
0000
0010
0000
,
0100
0000
0001
0101
,
1000
0000
0010
0000
,
0100
0010
0002
1003
,
0001
0000
1000
0000
,
0001
0010
0100
2000
,
3010
0000
0010
0000
,
0100
0010
0001
0000
,
1000
1000
1000
0000
0001
0001
0001
0000
,
0100
0010
0100
0000
,
2000
0000
3010
0000
,
1000
0000
0001
0100
,
0002
0000
0103
0000
,
0010
0000
1000
0010
,
0200
0000
0310
0000
,
0001
0000
1000
0010
,
0020
0000
0130
0000
,
0001
0000
0010
0001
,
0010
0001
0100
0010
,
0100
0010
1000
0100
,
1000
0100
0010
0001
,
0002
0023
0230
2300
,
3002
0000
0003
1001
,
0000
0000
0000
0000
0010
0100
0010
0000
,
0110
0010
1000
0010
,
0100
0001
0100
0001
,
1000
0010
1000
0010
,
0100
0001
1000
0010
,
2000
0000
3002
0000
,
2003
0000
3001
0110
,
1000
0010
0100
0001
,
1000
0010
1000
1010
,
1000
0010
1000
0001
,
0100
0001
1000
0110
,
0100
0001
0100
1000
,
0010
0100
0001
0101
,
0010
1000
0001
0100
,
0001
1000
0001
1001
,
0001
0100
1000
0100
,
0001
0100
1000
1100
,
0100
1000
0010
0000
,
0001
0100
0010
0000
,
0100
0010
1000
0000
,
0100
0001
1000
1001
,
0001
0100
1000
0000
,
0010
0001
1000
0000
,
0001
1000
0100
0000
,
0001
0010
0100
0110
,
0010
0001
0100
0000
,
1000
0010
0100
0000
,
0010
0100
0001
0000
,
0010
1000
0001
1001
,
1000
0010
0001
0000
,
0100
1000
0001
0000
,
1000
0001
0010
0000
,
1000
0100
0010
0220
,
0330
0000
0000
0000
;

//---------------dance-single - ----------------
#NOTES:
     dance-single:
     :
     Beginner:
     3:
     0.177,0.202,0.074,0.081,0.000:
0000
0000
0000
0000
,
0000
0000
0010
0000
,
0000
0000
1000
0000
,
0000
0000
0001
0000
,
0000
0000
1000
0000
,
0000
0000
0010
0000
,
0000
0000
1000
0000
,
0000
0000
0010
0000
,
0000
0000
0100
0000
,
0010
0010
0010
0000
,
0010
0010
0010
0000
,
0100
0100
0200
0000
,
0300
0000
0000
0000
,
1001
0000
0001
0001
,
0001
0000
1000
0000
,
0010
0000
0100
0100
,
0100
0000
0010
0000
,
1000
0000
1000
1000
,
1000
0000
0001
0000
,
1000
0000
0001
0001
,
0001
0000
0100
0000
,
0110
0000
1000
0000
,
0010
0010
0010
0000
,
1000
0000
0001
0000
,
0100
0100
0100
0000
,
0001
0000
1000
0000
,
0001
0001
0001
0000
,
0010
0000
0100
0000
,
0010
0010
0010
0000
,
2002
0000
3003
0000
,
0020
0000
0030
0000
,
2000
0000
3000
0000
,
0002
0000
0003
0000
,
0220
0000
0330
0000
,
0020
0000
0030
0000
,
2000
0000
3000
0000
,
0002
0000
0003
0000
,
1000
0001
1000
0000
,
0010
0100
0010
0000
,
1000
0001
1000
0000
,
1000
0100
1000
0000
,
0001
0010
0001
0000
,
0000
0000
1001
0110
,
1001
0000
0010
0000
,
1000
0010
1000
0000
,
0010
0000
0001
0000
,
0010
0001
0010
0000
,
0001
0000
1000
0000
,
0001
1000
0001
0000
,
1000
0000
0010
0000
,
1000
0010
1000
0000
,
0001
0000
0100
0000
,
0001
0100
0001
0000
,
0100
0000
1000
0000
,
0100
1000
0100
0000
,
1000
0000
0001
0000
,
1000
0001
1000
0000
,
0001
0000
0100
0000
,
0001
0100
0001
0000
,
0100
0000
1000
0000
,
0100
1000
0100
0000
,
1000
0000
0010
0000
,
1000
0010
1000
0000
,
0010
0000
0100
0000
,
0010
0100
0010
0000
,
0110
0000
1000
0000
,
1001
0000
0010
0000
,
0010
0000
0001
0000
,
0010
0001
0010
0000
,
0001
0000
0100
0000
,
0001
0100
0001
0000
,
0100
0000
0010
0000
,
0100
0010
0100
0000
,
0110
0000
0001
0000
,
1001
0000
0200
0300
;

//---------------dance-single - ----------------
#NOTES:
     dance-single:
     :
     Medium:
     9:
     0.404,0.406,0.156,0.068,0.118:
0000
0000
0000
0000
,
0001
0000
0000
0000
0001
0000
0000
0000
0100
0000
0000
0001
0000
0000
0100
0000
,
0001
0000
0000
0000
1000
0000
0000
0000
0010
0000
0000
1000
0000
0000
0010
0000
,
1000
0000
0000
0000
0010
0000
0000
0000
0100
0000
0000
0010
0000
0000
0100
0000
,
0010
0000
0000
0000
1000
0000
0000
0000
0100
0000
0000
0010
0000
0000
0001
0000
,
0100
0000
0000
0000
0001
0000
0000
0000
0010
0000
0000
0100
0000
0000
1000
0000
,
0100
0000
0000
0000
0100
0000
0000
0000
1000
0000
0000
0100
0000
0000
1000
0000
,
0100
0000
0000
0000
0010
0000
0000
0000
0001
0000
0000
0010
0000
0000
0001
0000
,
0010
0000
0000
0000
0001
0000
0000
0000
1000
0000
0000
0001
0000
0000
1000
0000
,
0001
0000
0000
0000
0010
0000
0000
0000
1000
0000
0000
0001
0000
0000
0100
0000
,
1000
0000
0000
0000
0100
0000
0000
0000
0001
0000
0000
1000
0000
0000
0010
0000
,
0001
1000
0002
2000
,
3003
0010
0000
1000
0001
0000
0011
0000
,
1000
0000
0000
0000
1000
0000
0000
0000
0010
0000
0000
1000
0000
0000
0010
0000
,
1000
0000
0000
0000
0001
0000
0000
0000
0100
0000
0000
0001
0000
0000
0100
0000
,
0001
0000
0000
0000
0100
0000
0000
0000
0010
0000
0000
0100
0000
0000
0010
0000
,
0100
0000
0000
0000
0001
0000
0000
0000
0010
0000
0000
0100
0000
0000
1000
0000
,
0010
0000
0000
0000
1000
0000
0000
0000
0100
0000
0000
0010
0000
0000
0001
0000
,
0010
0000
0000
0000
0010
0000
0000
0000
0001
0000
0000
0010
0000
0000
0001
0000
,
0010
0000
0000
0000
0100
0000
0000
0000
1000
0000
0000
0100
0000
0000
1000
0000
,
0100
1000
0001
1001
,
0100
0000
0000
0000
0100
0000
0000
0000
0010
0000
0000
0100
0000
0000
0010
0000
,
0100
0000
0000
0000
0001
0000
0000
0000
1000
0000
0000
0001
0000
0000
1000
0000
,
0001
0000
0000
0000
1000
0000
0000
0000
0010
0000
0000
1000
0000
0000
0010
0000
,
1000
0000
0000
0000
0001
0000
0000
0000
0010
0000
0000
1000
0000
0000
0100
0000
,
0010
0000
0000
0000
0100
0000
0000
0000
1000
0000
0000
0010
0000
0000
0001
0000
,
0010
0000
0000
0000
0010
0000
0000
0000
0001
0000
0000
0010
0000
0000
0001
0000
,
0010
0000
0000
0000
1000
0000
0000
0000
0100
0000
0000
1000
0000
0000
0100
0000
,
1000
0100
0001
0001
,
0200
0000
0000
0000
0010
0000
0000
0000
0310
0000
0000
0010
0000
0000
0010
0000
,
1000
0000
0000
0000
0010
0000
0000
0000
1000
0000
0000
0010
0000
0000
0001
0000
,
0200
0000
0000
0000
0001
0000
0000
0000
0301
0000
0000
0001
0000
0000
0001
0000
,
0010
0000
0000
0000
0001
0000
0000
0000
0010
0000
0000
0001
0000
0000
0100
0000
,
0020
0000
0000
0000
0100
0000
0000
0000
0130
0000
0000
0100
0000
0000
0100
0000
,
0001
0000
0000
0000
0100
0000
0000
0000
0001
0000
0000
0100
0000
0000
1000
0000
,
0020
0000
0000
0000
1000
0000
0000
0000
1030
0000
0000
1000
0000
0000
1000
0000
,
0100
0000
0000
0000
1000
0000
0000
0000
0100
0000
0000
1000
0000
0000
0100
0000
,
2000
0000
0000
0000
0010
0000
0000
0000
3010
0000
0000
0010
0000
0000
0010
0000
,
0100
0000
0000
0000
0010
0000
0000
0000
0100
0000
0000
0010
0000
0000
0001
0000
,
2000
0000
0000
0000
0001
0000
0000
0000
3001
0000
0000
0001
0000
0000
0001
0000
,
0010
1000
0001
0100
0010
0001
0100
0010
,
1000
0001
1000
0001
0100
0001
1001
0000
,
0000
0000
0000
0000
0010
0100
0010
0000
,
0110
0000
0010
1000
0001
0000
0100
0001
,
1000
0000
0010
1000
0001
0000
0011
0000
,
0001
0000
1000
0010
1000
0000
1000
0010
,
0001
0000
0001
0100
1000
0000
1010
0000
,
0100
0000
0010
1000
0001
0000
0100
0010
,
1000
0000
0001
1000
0001
0000
1100
0000
,
0001
0000
0001
0010
0100
0000
0100
0010
,
0001
0000
1000
0100
0010
0000
1001
0000
,
0110
0000
0100
0001
1000
0000
0010
1000
,
0001
0000
0100
0001
1000
0000
1100
0000
,
1000
0000
0001
0100
0001
0000
0001
0100
,
1000
0000
1000
0010
0001
0000
0101
0000
,
0010
0000
0100
0001
1000
0000
0010
0100
,
0001
0000
1000
0001
1000
0000
0011
0000
,
1000
0000
1000
0100
0010
0000
0010
0100
,
1000
0000
0001
0010
0100
0000
1001
0000
,
1010
0000
0010
0100
0001
0000
1000
0001
,
0100
0000
0010
0100
0001
0000
0011
0000
,
0001
0000
0100
0010
0100
0000
0100
0010
,
0001
0000
0001
1000
0100
0000
0110
0000
,
1000
0000
0010
0100
0001
0000
1000
0010
,
0100
0000
0001
0100
0001
0000
1100
0000
,
0001
0000
0001
0010
1000
0000
1000
0010
,
0001
0000
0100
1000
0010
0000
0101
0000
,
1010
0000
1000
0001
0100
0000
0010
0100
,
0001
0000
1000
0001
0100
0000
1100
0000
,
0100
0000
0001
1000
0001
0000
0001
1000
,
0100
0000
0100
0010
0001
0000
1001
0000
,
0010
0000
1000
0001
0100
0000
0010
1000
,
0001
0000
0100
0001
0100
0000
0011
0000
,
0100
0000
0100
1000
0010
0000
0010
1000
,
0100
0000
0001
0010
1000
0000
0202
0000
,
0303
0000
0000
0000
;

//---------------dance-single - ----------------
#NOTES:
     dance-single:
     :
     Hard:
     14:
     0.484,0.583,0.189,0.054,0.169: // measure 1
0000
0000
0000
0000
,  // measure 2
0010
0000
0000
0000
0010
0000
0000
0000
0100
0000
0000
0010
0000
0000
1000
0000
,  // measure 3
0001
0000
0000
0000
1000
0000
0000
0000
0010
0000
0000
1000
0000
0000
0010
0000
,  // measure 4
0001
0000
0000
0000
0100
0000
0000
0000
1000
0000
0000
0100
0000
0000
0001
0000
,  // measure 5
0100
0000
0000
0000
0010
0000
0000
0000
1000
0000
0000
1000
0000
0000
0001
0000
,  // measure 6
0100
0010
1001
0100
,  // measure 7
0010
0000
1000
0100
0010
0001
0100
0000
,  // measure 8
0001
1000
0101
0010
,  // measure 9
1000
0000
1000
0010
0001
0010
1000
0000
,  // measure 10
1000
0010
1000
0000
0010
0000
0000
0001
0100
0000
0100
0001
0000
0000
0000
0000
,  // measure 11
0001
0010
0100
0000
1000
0000
0000
1000
0100
0000
0010
0001
0000
0000
0000
0000
,  // measure 12
0001
0100
0010
1000
0010
0000
0000
1000
0010
0000
0010
1000
0000
0000
0000
0000
,  // measure 13
0000
1000
0000
0010
1000
0000
0011
0000
,  // measure 14
0100
0000
0000
0001
0000
0000
0100
0010
1000
0000
1000
0100
0010
0000
0000
0000
,  // measure 15
0100
0010
0100
0000
0010
0100
0010
0000
0100
0010
1000
0001
0100
0000
0001
0100
,  // measure 16
0010
0000
1000
0000
0000
0000
0001
1000
0010
0000
0100
0001
0000
0000
0001
0010
,  // measure 17
0100
1000
0010
0100
0001
0000
1000
0010
1000
0010
0000
1000
0000
0000
0000
0000
,  // measure 18
1000
0000
0100
0000
1000
0100
0010
0001
0100
0010
0000
1000
0000
0000
0001
0100
,  // measure 19
0001
0000
1000
0010
1000
0000
0010
0100
0010
0100
0000
0001
0000
0000
0100
0000
,  // measure 20
1001
0000
0001
1000
0010
0100
0001
0010
,  // measure 21
1000
0001
0010
0001
0010
0000
1000
0010
,  // measure 22
1000
0000
1000
0100
0010
0000
0010
1000
,  // measure 23
0001
0010
0100
0010
0001
0000
0011
0000
,  // measure 24
0100
0000
0001
0010
1000
0000
1000
0100
,  // measure 25
1000
0100
0010
0100
0010
0000
1000
0000
,  // measure 26
1010
0000
1000
0110
0001
0000
0100
0010
,  // measure 27
0100
1000
0100
0010
0001
0000
0000
1000
,  // measure 28
0001
0100
0001
0100
0001
0000
0010
0000
1000
0100
1000
0100
1000
0000
0010
0000
,  // measure 29
1000
0000
0000
1000
0010
0000
0100
0000
0000
0000
0000
0000
0010
0000
0000
0000
,  // measure 30
2000
0000
0000
0000
0010
0000
0000
0000
3010
0000
0000
0100
0000
0000
0010
0000
,  // measure 31
0001
0000
0100
0010
0001
0010
0100
0010
,  // measure 32
2000
0000
0000
0000
0010
0000
0000
0000
3010
0000
0000
1000
0000
0000
0010
0000
,  // measure 33
0100
0000
0000
0000
0001
0000
0000
0000
0100
0000
0000
0010
0000
0000
0001
0000
,  // measure 34
0002
0000
0000
0000
0100
0000
0000
0000
0103
0000
0000
0010
0000
0000
0100
0000
,  // measure 35
1000
0000
0010
0100
1000
0100
0010
0100
,  // measure 36
0002
0000
0000
0000
0100
0000
0000
0000
0103
0000
0000
0001
0000
0000
0100
0000
,  // measure 37
0010
0000
0000
0000
1000
0000
0000
0000
0010
0000
0000
0100
0000
0000
1000
0000
,  // measure 38
0001
0000
0100
0000
0010
1000
0001
0100
,  // measure 39
0010
0000
1000
0000
0010
0100
0010
0100
,  // measure 40
0001
0010
0001
1000
,  // measure 41
0010
1000
0010
0100
0001
0100
0010
0100
,  // measure 42
0002
0000
2000
3003
,  // measure 43
0000
0000
0000
0000
1001
0110
1001
0000
,  // measure 44
0010
0000
0100
0001
0010
0000
0100
0001
,  // measure 45
0010
1000
0100
0010
1000
0001
0100
0001
,  // measure 46
1000
0000
1000
0010
0100
0000
0001
0010
,  // measure 47
0100
1000
0100
0010
0001
1000
0010
0100
,  // measure 48
0001
0000
0001
0100
0101
0000
1000
0010
,  // measure 49
1001
0010
0101
0010
1010
0000
1100
0001
,  // measure 50
1000
0000
0010
1000
0001
0010
0100
0001
,  // measure 51
1000
0010
1000
0001
0000
0010
1001
0000
,  // measure 52
0010
0000
0100
0010
0000
1000
0010
1000
,  // measure 53
0001
0000
0100
0010
0001
0000
0011
0000
,  // measure 54
0001
0000
1000
0010
0000
0010
1000
0010
,  // measure 55
0001
0000
0100
0001
0100
0010
1001
0000
,  // measure 56
0100
0000
0010
0100
0000
0001
0100
0001
,  // measure 57
1000
0000
0010
0100
1000
0000
1100
0000
,  // measure 58
1000
0000
0001
0100
0000
0100
0001
0100
,  // measure 59
1000
0001
0010
1000
0010
0100
1001
0000
,  // measure 60
0010
0000
1000
0010
1000
0000
0010
0100
,  // measure 61
0001
0100
1000
0010
0001
0000
0011
0000
,  // measure 62
0001
0000
0100
0010
0100
0000
0100
0010
,  // measure 63
0001
0100
1000
0001
1000
0000
0101
0000
,  // measure 64
1000
0000
0010
1000
0010
0100
1000
0001
,  // measure 65
0100
0001
0010
1000
0100
0000
1100
0000
,  // measure 66
0100
0000
0001
1000
0001
0000
0001
0000
,  // measure 67
0100
0000
0010
0100
0010
0000
0101
0000
,  // measure 68
0100
0000
0001
0100
0001
0000
0100
0010
,  // measure 69
1000
0010
0001
0100
1000
0000
1100
0000
,  // measure 70
1000
0000
0010
0100
0010
0000
0010
0100
,  // measure 71
1000
0010
0001
1000
0001
0000
1010
0000
,  // measure 72
0001
0000
0100
0001
0100
0010
0001
1000
,  // measure 73
0010
1000
0100
0001
0010
0000
0011
0000
,  // measure 74
0010
0000
1000
0001
1000
0000
1000
0000
,  // measure 75
0010
0000
0100
0010
0100
0000
2020
0000
,  // measure 76
3030
0000
0000
0000
;
