#TITLE:B.B.B (Big Baby Baby);
#SUBTITLE:;
#ARTIST:Dalshabet;
#TITLETRANSLIT:;
#SUBTITLETRANSLIT:;
#ARTISTTRANSLIT:;
#CREDIT:;
#BANNER:B.B.B (Big Baby Baby).png;
#BACKGROUND:B.B.B (Big Baby Baby)-bg.png;
#LYRICSPATH:;
#CDTITLE:;
#MUSIC:B.B.B (Big Baby Baby).mp3;
#OFFSET:-0.240;
#SAMPLESTART:52.600;
#SAMPLELENGTH:15.000;
#SELECTABLE:YES;
#BPMS:0.000=126.000;
#STOPS:;
#BGCHANGES:;

//---------------dance-single - ----------------
#NOTES:
     dance-single:
     :
     Easy:
     5:
     0.257,0.283,0.136,0.116,0.000:
0000
0000
0000
0000
,
0000
0000
0000
0000
,
0000
0000
0000
0000
,
0000
0000
0000
0000
,
0001
0100
0001
0100
,
0010
1000
0010
1000
,
0100
0010
0100
0010
,
0100
1001
0110
1001
,
0000
0010
0100
0100
,
0000
0001
0010
0100
,
0000
1000
0010
0001
,
0000
0001
0100
0001
,
0000
1000
0100
0010
,
0000
0010
1000
1001
,
0000
0100
0001
1000
,
0000
0001
0010
0101
,
0000
1000
0001
0100
,
0000
1000
0100
1100
,
0000
0001
0100
0001
,
0000
0100
0010
1001
,
0000
0001
0000
0100
,
0000
0001
0000
1000
,
0000
0010
0000
1000
,
0000
0001
0000
0100
,
0110
0010
0000
1000
,
0000
0001
0000
0100
,
0000
0010
0000
0100
,
1000
0001
1000
0001
1000
0000
0010
0000
,
0100
0110
1000
0010
,
0001
0011
0001
0100
,
0001
0001
1000
1000
,
0020
0000
0030
0000
,
0001
1001
0100
1000
,
0010
1010
0010
0001
,
0010
0010
0100
0100
,
2000
0000
3000
0000
,
2002
3003
0100
1000
,
0100
1000
0001
0010
,
0001
0100
0001
1000
,
0001
0100
0001
0100
,
0220
0330
1000
0010
,
1000
0010
0100
0001
,
0100
1000
0100
0010
,
0100
1000
0100
1000
,
0220
0000
0330
0000
,
0010
0010
0001
0001
,
1000
1000
0100
0100
,
0001
1000
0001
0000
,
1000
0001
1000
0000
,
0100
0100
0001
0001
,
1000
1000
0010
0010
,
0001
1000
0001
0100
,
0200
0300
0000
0000
,
0100
0000
0100
0000
,
0001
0000
0001
0000
,
1000
0000
1000
0000
,
0010
0000
0100
0000
,
0001
0000
1000
0000
,
0001
0000
0100
0001
,
0010
0100
0001
0100
,
1000
0100
1000
0010
,
1000
1000
0001
0001
,
0200
0000
0300
0000
,
1000
1001
0010
0001
,
0100
0101
0100
1000
,
0100
0100
0010
0010
,
0002
0000
0003
0000
,
2002
3003
0010
0001
,
0010
0001
1000
0100
,
1000
0010
1000
0001
,
1000
0010
1000
0010
,
0220
0330
0001
0100
,
0001
0100
0010
1000
,
0010
0001
0010
0100
,
0010
0001
0010
0001
,
0202
0000
0000
0303
;

//---------------dance-single - ----------------
#NOTES:
     dance-single:
     :
     Beginner:
     3:
     0.177,0.206,0.068,0.027,0.000:
0000
0000
0000
0000
,
0000
0000
0000
0000
,
0000
0000
0000
0000
,
0000
0000
0000
0000
,
0000
0010
0000
0001
,
0000
0010
0000
0100
,
0000
1000
0000
0100
,
0000
0001
0000
1001
,
0000
0010
0000
0100
,
0000
0010
0000
0001
,
0000
1000
0000
0010
,
0000
1000
0000
0001
,
0000
0001
0000
0001
,
0000
1000
1000
1000
,
0000
0010
0000
0100
,
0000
0010
0010
0010
,
0000
0100
0000
0001
,
0000
0001
0001
0001
,
0000
0001
0000
1000
,
0000
0100
0100
0100
,
0000
0010
0000
1000
,
0000
0001
0000
0100
,
0100
0100
0000
0100
,
0000
0001
0000
1000
,
1000
1000
0000
0001
,
0000
0100
0000
0010
,
0010
0010
0000
0001
,
0000
0100
0000
0110
,
0000
1001
0000
0010
,
0000
1001
0000
0100
,
0000
0010
0000
1000
,
0000
0001
0000
0010
,
0000
0110
0000
1000
,
0000
0110
0000
0010
,
0000
0001
0000
0100
,
0000
0001
0000
0001
,
0001
0001
0000
1000
,
1000
1000
0000
0010
,
0010
0010
0000
0100
,
0100
0100
0000
0010
,
0010
0010
0000
0100
,
0100
0100
0000
0001
,
0001
0001
0000
1000
,
1000
1000
0000
1000
,
2000
0000
3000
0000
,
0010
0000
1000
0000
,
0001
0000
0100
0000
,
0001
0001
0001
0000
,
1000
1000
1000
0000
,
0010
0000
1000
0000
,
0010
0000
0100
0000
,
0001
0000
0001
0001
,
0002
0003
0000
0001
,
0000
1000
0000
0010
,
0000
1000
0000
0001
,
0000
0100
0000
0010
,
0000
0100
0000
0001
,
0000
0100
0000
0010
,
0000
1000
0000
0010
,
0000
1000
0000
0100
,
0000
0001
0000
0010
,
0000
0100
0000
0001
,
0000
1000
0000
0100
,
0000
0110
0000
0001
,
0000
0110
0000
0100
,
0000
1000
0000
0010
,
0000
1000
0000
1000
,
1000
1000
0000
0001
,
0001
0001
0000
0100
,
0100
0100
0000
0010
,
0010
0010
0000
0100
,
0100
0100
0000
0010
,
0010
0010
0000
1000
,
1000
1000
0000
0001
,
0001
0001
0000
0110
,
2002
0000
0000
3003
;

//---------------dance-single - ----------------
#NOTES:
     dance-single:
     :
     Medium:
     7:
     0.354,0.386,0.143,0.088,0.000:
0000
0000
0000
0000
,
0000
0000
0000
0000
,
0000
0000
0000
0000
,
0000
0000
0000
0000
,
0010
0000
0010
0000
0100
0010
0100
0010
,
0000
0001
1000
0001
,
1000
0000
0001
0000
1000
0001
1000
0001
,
0000
1000
0010
1001
,
0010
0000
0100
0000
0001
0000
0100
0010
,
0000
0000
1000
0010
0000
0000
0100
0001
,
0100
0001
0010
0001
,
1000
0010
1000
0000
0010
0000
0101
0000
,
0001
0000
0100
0010
0100
0010
1000
0001
,
0100
0001
1000
1010
,
1000
0000
0010
0100
0001
1000
0100
0010
,
0001
0100
0010
0101
,
0001
0000
0010
1000
0010
1000
0100
0001
,
0010
0001
0100
1100
,
0100
0000
1000
0010
0001
0100
0010
1000
,
0001
0010
1000
0011
,
1010
0000
0010
0100
0010
0100
0001
1000
,
0010
1000
0001
1000
,
0001
0000
0100
0010
1000
0001
0010
0100
,
1000
0010
0100
1000
,
1001
0000
0100
0001
0100
0001
0010
1000
,
0100
1000
0010
0001
,
0010
0000
0001
0100
1000
0010
0100
0001
,
1000
0010
0100
0010
0001
0000
1100
0000
,
1000
1010
1000
0010
,
0100
0101
0001
0100
,
0020
0030
0200
0300
,
0001
0001
0001
1000
,
0010
0110
0100
0010
,
1000
1100
0001
0100
,
2000
3000
0002
0003
,
1000
1000
1000
0010
,
1010
0000
0010
0100
,
0001
0100
0010
0000
1000
0010
0001
0000
,
0001
1000
0100
0000
1000
0010
1000
0000
,
0001
0100
0010
0001
,
0101
0000
1000
0001
,
0010
0001
1000
0000
0100
1000
0010
0000
,
0010
0100
0001
0000
0100
1000
0100
0000
,
0010
0001
1000
0010
,
0022
0000
0033
0000
,
0001
0100
0001
0100
,
0010
1000
0010
1000
,
0001
1000
0001
0000
,
1000
0000
0001
0000
1000
0000
0010
0010
,
0100
0001
0100
0010
,
0001
0010
0100
0010
,
1000
0000
0100
0000
0010
1000
0010
0100
,
0002
0000
0003
0000
0100
0000
0010
0100
,
0001
0000
0100
0001
0100
0000
0100
0001
,
0100
0000
0001
0010
0100
0000
0010
0100
,
1000
0000
1000
0010
0001
0000
0100
0001
,
1000
0000
1000
0001
0010
0000
1000
0100
,
1000
0000
0010
0100
0010
0000
0001
0010
,
0001
0000
1000
0001
1000
0000
0001
1000
,
0001
0100
0001
0100
,
0010
1000
1000
0010
,
0200
0300
0020
0030
,
1000
1000
1000
0001
,
0100
0110
0010
0100
,
0001
0011
1000
0010
,
0002
0003
2000
3000
,
0001
0001
0001
0100
,
0101
0000
0100
0010
,
1000
0010
0100
0000
0001
0100
1000
0000
,
1000
0001
0010
0000
0001
0100
0001
0000
,
1000
0010
0100
1000
,
1010
0000
0001
1000
,
0100
1000
0001
0000
0010
0001
0100
0000
,
0100
0010
1000
0000
0010
0001
0010
0000
,
0100
1000
0001
0100
,
2002
0000
0000
3003
;

//---------------dance-single - ----------------
#NOTES:
     dance-single:
     :
     Hard:
     13:
     0.468,0.541,0.177,0.129,0.085: // measure 1
0000
0000
0000
0000
,  // measure 2
0000
0000
0000
0000
,  // measure 3
0000
0000
0000
0000
,  // measure 4
0000
0000
0000
0000
0000
0000
0000
0100
,  // measure 5
0010
0000
0100
0000
0001
0010
0100
1000
,  // measure 6
0001
0000
1000
0001
1000
0000
0010
1000
,  // measure 7
0100
0010
0100
0010
0001
1000
0100
0010
,  // measure 8
1000
0001
0100
1001
,  // measure 9
0001
0100
0000
0100
0001
0000
0100
0010
0000
0010
0100
0000
0010
0000
1000
0000
,  // measure 10
0010
1000
0000
1000
0010
0000
0100
0001
0000
0001
0100
0000
0010
0000
1000
0000
,  // measure 11
0010
0100
0000
0100
0010
0000
1000
0001
0000
0001
1000
0000
0001
0000
0000
0000
,  // measure 12
0100
0010
0100
0010
0001
0000
0101
0000
,  // measure 13
0001
0100
0001
0000
1000
0000
0010
0100
,  // measure 14
0000
0010
1000
0000
0010
0000
1001
0000
,  // measure 15
1000
0010
0100
0000
0010
0000
0100
0001
,  // measure 16
0000
0001
0100
0000
0010
0000
0011
0000
,  // measure 17
0001
0010
0001
0000
0100
0000
1000
0010
,  // measure 18
0000
1000
0100
0000
1000
0000
0101
0000
,  // measure 19
0100
1000
0010
0000
1000
0000
0010
0001
,  // measure 20
1000
0000
0010
0100
1000
0000
1001
0000
,  // measure 21
0010
0100
0010
1000
0001
0010
0001
0100
,  // measure 22
0010
1000
0010
0100
0010
1000
0010
0000
,  // measure 23
1000
0000
0010
1000
0001
0100
0001
0010
,  // measure 24
0001
0100
0010
1000
,  // measure 25
1001
0100
1000
0010
1000
0100
1000
0010
,  // measure 26
0100
0001
1000
0100
0001
0010
0001
1000
,  // measure 27
0001
0010
1000
0100
,  // measure 28
1010
1000
0110
0010
0101
0000
0010
0000
,  // measure 29
0100
0000
0011
0000
0001
0100
0010
0100
,  // measure 30
0001
0000
1010
0000
0010
1000
0010
0001
,  // measure 31
0010
0000
1000
0000
0010
0000
0100
0100
,  // measure 32
0000
0100
0010
0000
1000
0100
0010
0001
,  // measure 33
0100
0000
1001
0000
0010
0100
0010
1000
,  // measure 34
0001
0000
1100
0000
1000
0100
0001
0100
,  // measure 35
1000
0000
0100
0010
0001
0000
0100
0000
,  // measure 36
0001
0100
0001
0100
0010
1000
0010
0000
,  // measure 37
2002
3003
1000
0010
1000
0000
0010
0000
,  // measure 38
0100
0000
0010
0000
1000
0000
0010
1000
0000
0000
0010
0000
0200
0000
0000
0000
,  // measure 39
0301
0000
0100
0000
0001
0000
0100
0001
0000
0000
0010
0000
0100
0000
1000
0000
,  // measure 40
0010
0000
0100
0010
0100
0000
0110
0000
,  // measure 41
0202
0303
0100
1000
0100
0000
1000
0000
,  // measure 42
0010
0000
1000
0000
0100
0000
1000
0100
0000
0000
1000
0000
0020
0000
0000
0000
,  // measure 43
0031
0000
0010
0000
0001
0000
0010
0001
0000
0000
1000
0000
0010
0000
0100
0000
,  // measure 44
1000
0000
0010
1000
0010
0000
1010
0000
,  // measure 45
0022
0000
0033
0000
,  // measure 46
0001
0100
0010
0000
0100
0010
1000
0000
,  // measure 47
1000
0010
0001
0000
0001
0100
1000
0000
,  // measure 48
2000
0010
3010
0000
,  // measure 49
0020
0000
0100
0000
0130
0000
0100
0010
,  // measure 50
0010
0000
1000
0000
0001
0000
0100
0000
0001
0000
0100
0010
0000
0000
0100
0000
,  // measure 51
0000
0000
1000
0000
0001
0000
0010
0000
0100
0000
0001
1000
0000
0000
0001
0000
,  // measure 52
1000
0001
0000
0000
0001
1000
0000
0000
0010
0100
0010
0000
1000
0000
0100
0000
,  // measure 53
0020
0000
0031
0001
0100
0010
0100
0001
,  // measure 54
1000
0010
0100
0010
1000
0000
0010
0100
,  // measure 55
0001
0000
0001
0010
1000
0000
1000
0010
,  // measure 56
0100
0000
0001
1000
0010
0000
0100
0001
,  // measure 57
1000
0000
1000
0001
0100
0000
0010
0100
,  // measure 58
0001
0000
0001
0010
0100
0000
0010
0100
,  // measure 59
1000
0000
1000
0100
0010
0000
0100
0010
,  // measure 60
0001
0000
1000
0000
1000
0010
0100
0010
,  // measure 61
1000
0000
0001
0000
0100
0001
0100
1000
,  // measure 62
0100
0000
0001
0000
0100
0000
0010
0010
,  // measure 63
0000
0010
0100
0000
0001
0010
0100
1000
,  // measure 64
0010
0000
1001
0000
0100
0010
0100
0001
,  // measure 65
1000
0000
0011
0000
0001
0010
1000
0010
,  // measure 66
0001
0000
0010
0100
1000
0000
0010
0000
,  // measure 67
1000
0010
1000
0010
0100
0001
0100
0000
,  // measure 68
2002
3003
0001
0100
0001
0000
0100
0000
,  // measure 69
0010
0000
0100
0000
0001
0000
0100
0001
0000
0000
0100
0000
0020
0000
0000
0000
,  // measure 70
1030
0000
0010
0000
1000
0000
0010
1000
0000
0000
0100
0000
0010
0000
0001
0000
,  // measure 71
0100
0000
0010
0100
0010
0000
0110
0000
,  // measure 72
2020
3030
0010
0001
0010
0000
0001
0000
,  // measure 73
0100
0000
0001
0000
0010
0000
0001
0010
0000
0000
0001
0000
0200
0000
0000
0000
,  // measure 74
1300
0000
0100
0000
1000
0000
0100
1000
0000
0000
0001
0000
0100
0000
0010
0000
,  // measure 75
0001
0000
0100
0001
0100
0000
0101
0000
,  // measure 76
2200
0000
0000
3300
;
