#TITLE:As If It's Your Last;
#SUBTITLE:;
#ARTIST:BLACKPINK;
#TITLETRANSLIT:;
#SUBTITLETRANSLIT:;
#ARTISTTRANSLIT:;
#CREDIT:;
#BANNER:As If It's Your Last.png;
#BACKGROUND:As If It's Your Last-bg.png;
#LYRICSPATH:;
#CDTITLE:;
#MUSIC:As If It's Your Last.mp3;
#OFFSET:0.400;
#SAMPLESTART:63.880;
#SAMPLELENGTH:15.000;
#SELECTABLE:YES;
#BPMS:0.000=125.000;
#STOPS:;
#BGCHANGES:0.600=As If It's Your Last.avi=1.000=0=0=0,
99999=-nosongbg-=1.000=0=0=0 // don't automatically add -songbackground-
;

//---------------dance-single - ----------------
#NOTES:
     dance-single:
     :
     Hard:
     13:
     0.466,0.457,0.194,0.101,0.157: // measure 1
0000
0000
0000
0000
,  // measure 2
1000
0000
0000
0010
0000
0000
1000
0000
0010
0000
0000
0100
0000
0000
0001
0000
,  // measure 3
0010
0000
0000
0001
0000
0000
0100
0000
0010
0100
0010
0100
0010
0000
1000
0000
,  // measure 4
0010
0000
0000
0001
0000
0000
0010
0000
1000
0000
0000
0010
0000
0000
0001
0000
,  // measure 5
0010
0000
0000
0100
0000
0000
1000
0000
1000
0001
1000
0001
1000
0000
0010
0000
,  // measure 6
0001
0000
0000
0100
0000
0000
0001
0000
0100
0000
0000
0010
0000
0000
1000
0000
,  // measure 7
0100
0000
0000
1000
0000
0000
0010
0000
0100
0010
0100
0010
0100
0000
0001
0000
,  // measure 8
0100
0000
0000
1000
0000
0000
0100
0000
0001
0000
0000
0100
0000
0000
1000
0000
,  // measure 9
0100
0000
0000
0000
0000
0000
0000
0000
0000
0010
0000
0000
0000
0000
0000
0000
0000
0000
0001
0000
0000
0000
0000
0000
0001
0000
0000
0000
1000
0000
0000
0000
0001
0000
0000
0000
1000
0000
0000
0000
0000
0000
0100
0000
0000
0000
0000
0000
,  // measure 10
0001
1000
0001
1000
0001
0000
0100
0000
0001
0000
0000
1000
0000
0000
0010
0000
,  // measure 11
1000
0000
0000
0010
0000
0000
0100
0000
0001
0000
0010
0000
0101
0000
0000
0000
,  // measure 12
0010
1000
0010
1000
0010
0000
0100
0000
0010
0000
0000
1000
0000
0000
0001
0000
,  // measure 13
0100
0000
0000
1000
0000
0000
0100
0000
1000
0000
0100
0000
1010
0000
0000
0000
,  // measure 14
0000
0000
0100
0000
1000
0000
0100
0000
0001
0000
0000
0100
0000
0000
0001
0000
,  // measure 15
0000
0000
0010
0000
0001
0000
0100
0000
0010
0000
0000
1000
0000
0000
0001
0000
,  // measure 16
0000
0000
0001
0000
0010
0000
0100
0000
1000
0000
0000
0010
0000
0000
0100
0000
,  // measure 17
0001
0000
0101
0000
0010
1000
0001
0000
,  // measure 18
1000
0001
1000
0001
1000
0000
0010
0000
1000
0000
0000
0001
0000
0000
0100
0000
,  // measure 19
0001
0000
0000
0100
0000
0000
0010
0000
1000
0000
0100
0000
1010
0000
0000
0000
,  // measure 20
0100
0001
0100
0001
0100
0000
0010
0000
0100
0000
0000
0001
0000
0000
1000
0000
,  // measure 21
0010
0000
0000
0001
0000
0000
0010
0000
0001
0000
0010
0000
0101
0000
0000
0000
,  // measure 22
0000
0000
0010
0000
0001
0000
0010
0000
1000
0000
0000
0010
0000
0000
1000
0000
,  // measure 23
0000
0000
0100
0000
1000
0000
0010
0000
0100
0000
0000
0001
0000
0000
1000
0000
,  // measure 24
0000
1000
0100
0010
0001
0100
0001
0000
,  // measure 25
1000
0000
1010
0000
0100
0001
1000
0000
,  // measure 26
0010
0000
0100
0010
0100
0000
0010
1000
,  // measure 27
0000
1000
0000
0010
0000
1000
0010
0100
,  // measure 28
0000
0001
0000
1000
0000
0010
0000
0002
,  // measure 29
0000
0003
0000
0000
0100
0000
0001
0000
,  // measure 30
1000
0000
0010
0100
0010
0001
0010
0100
,  // measure 31
0000
1000
0000
0010
0000
1000
0100
0010
,  // measure 32
0000
0001
0010
0100
0000
0010
0000
1001
,  // measure 33
0000
0000
0020
0030
0020
0030
0020
0030
,  // measure 34
1001
0000
0000
0000
0010
0100
1000
0100
,  // measure 35
1001
0100
0010
0001
0000
0001
0010
1000
,  // measure 36
0000
1000
0000
1010
0000
0100
0010
1000
,  // measure 37
0000
1000
0000
0001
0000
0100
0010
1000
,  // measure 38
0000
0010
0000
0100
0000
0001
0000
1000
,  // measure 39
0000
0001
1000
0010
0000
0010
1000
0100
,  // measure 40
0000
0100
0000
1100
0000
0001
1000
0100
,  // measure 41
0000
0100
0000
0010
0000
0001
1000
0100
,  // measure 42
0000
0000
1000
0000
0100
0000
0001
0000
0100
0000
0000
1000
0000
0000
0010
0000
,  // measure 43
0100
0010
0100
0001
0010
0000
0101
0010
,  // measure 44
1000
0010
0100
0010
1000
0000
1001
0100
,  // measure 45
0010
0000
1000
0000
0010
0000
0001
0000
0010
0000
0000
0100
0000
0000
0010
0000
,  // measure 46
0000
0000
0000
0220
0000
0000
0330
0000
,  // measure 47
1000
0001
1000
0100
0001
0000
1100
0001
,  // measure 48
0010
0001
1000
0001
0010
0000
0110
1000
,  // measure 49
0001
0000
0010
0000
0001
0000
0100
0000
0001
0000
0000
1000
0000
0000
0001
0000
,  // measure 50
0000
0000
0000
2002
0000
0000
3003
0000
,  // measure 51
0002
0000
0023
0000
0230
0000
1300
0010
,  // measure 52
1000
0001
0100
0001
1000
0000
0010
0100
,  // measure 53
0001
0000
1000
0010
0100
0000
1000
0000
,  // measure 54
1000
0100
0010
0001
0010
0000
1000
0010
,  // measure 55
0100
0001
0010
0001
0100
0000
0001
0010
,  // measure 56
0100
0010
0100
0010
0001
0000
1000
0010
,  // measure 57
0001
0000
0001
0100
1000
0000
1000
0000
,  // measure 58
0010
1000
0010
1000
0001
0000
0001
0000
,  // measure 59
1001
0000
0100
0010
0100
0010
0100
0000
,  // measure 60
0110
0000
0010
0100
0010
0100
1001
0100
,  // measure 61
1001
0010
0100
1000
0000
1000
0100
0001
,  // measure 62
0000
0001
0000
0101
0000
0010
0100
0001
,  // measure 63
0000
0001
0000
1000
0000
0010
0100
0001
,  // measure 64
0000
0100
0000
0010
0000
1000
0000
0001
,  // measure 65
0000
1000
0001
0100
0000
0100
0001
0010
,  // measure 66
0000
0010
0000
0011
0000
1000
0001
0010
,  // measure 67
0000
0010
0000
0100
0000
1000
0001
0010
,  // measure 68
0000
0000
0001
0000
0010
0000
1000
0000
0010
0000
0000
0001
0000
0000
0100
0000
,  // measure 69
0010
0100
0010
1000
0100
0000
1010
0100
,  // measure 70
0001
0100
0010
0100
0001
0000
1001
0010
,  // measure 71
0100
0000
0001
0000
0100
0000
1000
0000
0100
0000
0000
0010
0000
0000
0100
0000
,  // measure 72
0000
0000
0000
0220
0000
0000
0330
0000
,  // measure 73
0001
1000
0001
0010
1000
0000
0011
1000
,  // measure 74
0100
1000
0001
1000
0100
0000
0110
0001
,  // measure 75
1000
0000
0100
0000
1000
0000
0010
0000
1000
0000
0000
0001
0000
0000
1000
0000
,  // measure 76
0000
0000
0000
2002
0000
0000
3003
0000
;

//---------------dance-single - ----------------
#NOTES:
     dance-single:
     :
     Medium:
     8:
     0.357,0.381,0.034,0.295,0.094:
0000
0000
0000
0000
,
0000
0000
0000
0000
,
0000
0000
0000
0000
,
0000
0000
0000
0000
,
0000
0000
0000
0000
,
0000
0000
0000
0000
,
0000
0000
0000
0000
,
0000
0000
0000
0000
,
0000
0000
0000
0000
,
1000
0000
0000
0010
0000
0000
1000
0000
0001
0000
0000
0100
0000
0000
0001
0000
,
0100
0000
0000
0010
0000
0000
1000
0000
0010
0000
1000
0000
0010
0000
0000
0000
,
0010
0000
0000
0100
0000
0000
0010
0000
1000
0000
0000
0001
0000
0000
0100
0000
,
0001
0000
0000
0010
0000
0000
0100
0000
1000
0000
0010
0000
1000
0000
0000
0000
,
0100
0000
0000
1000
0000
0000
0100
0000
0010
0000
0000
0001
0000
0000
0010
0000
,
0001
0000
0000
1000
0000
0000
0100
0000
1000
0000
0100
0000
1000
0000
0000
0000
,
1000
0000
0000
0001
0000
0000
1000
0000
0100
0000
0000
0010
0000
0000
0001
0000
,
0010
0000
0000
0000
0000
0000
0000
0000
0000
1000
0000
0000
0000
0000
0000
0000
0000
0000
0001
0000
0000
0000
0000
0000
0010
0000
0000
0000
1000
0000
0000
0000
0001
0000
0000
0000
1000
0000
0000
0000
0000
0000
0000
0000
0000
0000
0000
0000
,
0001
0000
0000
0100
0000
0000
0001
0000
1000
0000
0000
0010
0000
0000
1000
0000
,
0010
0000
0000
0100
0000
0000
0001
0000
0100
0000
0001
0000
0100
0000
0000
0000
,
0100
0000
0000
0010
0000
0000
0100
0000
0001
0000
0000
1000
0000
0000
0010
0000
,
1000
0000
0000
0100
0000
0000
0010
0000
0001
0000
0100
0000
0001
0000
0000
0000
,
0010
0000
0000
0001
0000
0000
0010
0000
0100
0000
0000
1000
0000
0000
0100
0000
,
1000
0000
0000
0001
0000
0000
0010
0000
0001
0000
0010
0000
0001
0000
0000
0000
,
0001
0000
0000
1000
0000
0000
0001
0000
0010
0000
0000
0100
0000
0000
1000
0000
,
0100
0000
0000
0000
0000
0000
0000
0000
0000
0001
0000
0000
0000
0000
0000
0000
0000
0000
1000
0000
0000
0000
0000
0000
0100
0000
0000
0000
0001
0000
0000
0000
1000
0000
0000
0000
0001
0000
0000
0000
0000
0000
0000
0000
0000
0000
0000
0000
,
0100
0000
0010
0100
0001
0000
0100
0000
,
0010
0000
1000
0100
0010
0000
1000
0000
,
0001
0000
0001
0100
0010
0000
1000
0000
,
0010
0000
0100
0010
1000
0000
0010
0000
,
0100
0000
0001
1000
0001
0000
0100
0000
,
0010
0000
1000
0100
0010
0000
0100
0000
,
0010
0000
0010
1000
0001
0000
0100
0000
,
2000
3200
0320
0032
,
1003
0000
0000
0000
0010
0100
0010
0000
,
0000
1000
0001
0100
0000
0010
1000
0010
,
0000
0100
0000
0001
0000
0010
0001
0100
,
0000
1000
0000
0100
0000
0010
1000
1000
,
0000
0010
0000
1000
0000
0010
0000
0100
,
0000
0100
0010
0001
0000
1000
0100
1000
,
0000
0001
0000
0010
0000
1000
0010
0001
,
0000
0100
0000
0001
0000
1000
0100
0100
,
0000
1000
0000
0100
0000
1000
0000
0001
,
2000
0000
3020
0000
2030
0000
3001
0100
,
0002
0203
0302
0003
,
0200
0320
0230
0300
,
0010
1000
0010
0100
,
2000
0000
3200
0000
2300
0000
3010
0100
,
0020
0230
0320
0030
,
0002
2003
3002
0003
,
1000
0100
1000
0001
,
0100
0000
0010
0000
0100
0000
1000
0010
,
0100
0000
0001
0100
0010
0000
1000
0000
,
0001
0000
1000
0010
0100
0000
0001
0000
,
1000
0000
0001
0010
0100
0000
0010
0000
,
0010
0000
0100
0000
0010
0000
0001
0100
,
0010
0000
1000
0010
0100
0000
0001
0000
,
1000
0000
0001
0100
0010
0000
1000
0000
,
0001
0000
1000
0100
0010
0000
0100
0000
,
1001
0000
0000
0101
,
1010
0000
0220
0330
,
0000
0001
1000
0010
0000
0100
0001
0100
,
0000
0010
0000
1000
0000
0100
1000
0010
,
0000
0001
0000
0010
0000
0100
0001
0001
,
0000
0100
0000
0001
0000
0100
0000
0010
,
0000
0010
0100
1000
0000
0001
0010
0001
,
0000
1000
0000
0100
0000
0001
0100
1000
,
0000
0010
0000
1000
0000
0001
0010
0010
,
0000
0001
0000
0010
0000
0001
0000
1000
,
0002
0000
0203
0000
0302
0000
1003
0010
,
2000
3020
2030
3000
,
0020
0230
0320
0030
,
0100
0001
0100
0010
,
0002
0000
0023
0000
0032
0000
0103
0010
,
0200
0320
0230
0300
,
2000
3002
2003
3000
,
0001
0010
2002
3003
;

//---------------dance-single - ----------------
#NOTES:
     dance-single:
     :
     Easy:
     4:
     0.221,0.305,0.074,0.141,0.000:
0000
0000
0000
0000
,
0000
0000
0000
0000
,
0000
0000
0000
0000
,
0000
0000
0000
0000
,
0000
0000
0000
0000
,
0000
0000
0000
0000
,
0000
0000
0000
0000
,
0000
0000
0000
0000
,
0000
0000
0000
0000
,
0110
0000
1000
0000
,
0010
0100
0001
0000
,
0100
0000
0010
0000
,
1000
0010
1000
0000
,
0010
0000
0100
0000
,
0001
0010
0100
0000
,
1000
0000
0010
0000
,
1000
0001
0100
0000
,
0101
0000
0001
0000
,
0100
0010
1000
0000
,
0010
0000
0100
0000
,
0001
0100
0001
0000
,
0100
0000
0010
0000
,
1000
0100
0010
0000
,
0001
0000
0100
0000
,
0001
1000
0010
0000
,
0002
0010
0013
0000
,
0200
0010
0310
0000
,
2000
0100
3100
0000
,
2000
0001
3001
0000
,
0020
0100
0130
0000
,
2000
0010
3010
0000
,
0002
0100
0103
0000
,
0020
0230
0320
0030
,
1001
0000
0010
0110
,
0100
0010
1000
0001
,
0100
0001
1000
0010
,
1000
0010
0100
0001
,
0010
0001
1000
0100
,
1000
0010
0001
0100
,
1000
0100
0001
0010
,
0001
0010
1000
0100
,
0010
0100
0001
1000
,
1010
0000
0000
0000
1000
0000
1000
1000
,
1000
0000
0001
0000
,
0100
0000
0010
0000
,
1000
0000
0001
0000
,
0101
0000
0000
0000
0001
0000
0001
0001
,
0001
0000
0100
0000
,
0010
0000
1000
0000
,
0001
0000
1000
0000
,
2000
0100
3100
0000
,
0020
0100
0130
0000
,
0002
0010
0013
0000
,
0002
1000
1003
0000
,
0200
0010
0310
0000
,
0002
0100
0103
0000
,
2000
0010
3010
0000
,
0200
0320
0230
0300
,
1001
0000
0000
0000
,
0011
0000
0100
0110
,
0010
0100
0001
1000
,
0010
1000
0001
0100
,
0001
0100
0010
1000
,
0100
1000
0001
0010
,
0001
0100
1000
0010
,
0001
0010
1000
0100
,
1000
0100
0001
0010
,
0100
0010
1000
0001
,
0101
0000
0000
0000
0001
0000
0001
0001
,
0001
0000
1000
0000
,
0010
0000
0100
0000
,
0001
0000
1000
0000
,
1010
0000
0000
0000
1000
0000
1000
1000
,
1000
0000
0010
0000
,
0100
0000
0001
0000
,
1000
0000
0002
0003
;

//---------------dance-single - ----------------
#NOTES:
     dance-single:
     :
     Beginner:
     2:
     0.155,0.254,0.087,0.013,0.000:
0000
0000
0000
0000
,
0000
0000
0000
0000
,
0000
0000
0000
0000
,
0000
0000
0000
0000
,
0000
0000
0000
0000
,
0000
0000
0000
0000
,
0000
0000
0000
0000
,
0000
0000
0000
0000
,
0000
0000
0000
0000
,
0000
0010
0000
0010
,
0000
0100
0000
1001
,
0000
0001
0000
1000
,
0000
0010
0000
0001
,
0000
0100
0000
0010
,
0000
1000
0000
0110
,
0000
1000
0000
0001
,
0000
1000
0000
0001
,
0000
1000
0000
0010
,
0000
0100
0000
1001
,
0000
0010
0000
1000
,
0000
0000
0100
0000
,
0000
0001
0000
1000
,
0000
0010
0000
0110
,
0000
0010
0000
1000
,
0000
0001
0000
1000
,
0000
1000
1000
1000
,
0000
0010
0010
0010
,
0000
1000
1000
1000
,
0000
0001
0001
0001
,
0000
0100
0100
0100
,
0000
0001
0001
0001
,
0000
1000
1000
1000
,
0000
0010
0010
0010
,
0000
0000
0110
1001
,
0110
0000
0000
0010
,
0000
1000
0000
0001
,
0000
0100
0000
0001
,
0000
1000
0000
0010
,
0000
1000
0000
0001
,
0000
0100
0000
0001
,
0000
0100
0000
0010
,
0000
1000
0000
0010
,
0000
1000
0000
1000
,
0001
1000
0000
0010
,
0000
0100
0000
0010
,
0100
0010
0000
1000
,
0000
0001
0000
0100
,
0001
0100
0000
0010
,
0000
1000
0000
0010
,
1000
0010
0000
0000
,
0001
0000
0010
0000
,
0100
0000
1000
0000
,
0010
0000
1000
0000
,
0001
0000
0100
0000
,
0001
0000
1000
0000
,
0010
0000
0100
0000
,
0010
0000
1000
0000
,
0001
0000
0100
0000
,
1001
0000
0000
0000
,
1001
0000
0110
1001
,
0110
0000
0000
0100
,
0000
0001
0000
1000
,
0000
0010
0000
1000
,
0000
0001
0000
0100
,
0000
0001
0000
1000
,
0000
0010
0000
1000
,
0000
0010
0000
0100
,
0000
0001
0000
0100
,
0000
0001
0000
0001
,
1000
0001
0000
0100
,
0000
0010
0000
0100
,
0010
0100
0000
0001
,
0000
1000
0000
0010
,
1000
0010
0000
0100
,
0000
0001
0000
0100
,
0001
0000
2002
3003
;
