#TITLE:Around You;
#SUBTITLE:;
#ARTIST:LOONA;
#TITLETRANSLIT:;
#SUBTITLETRANSLIT:;
#ARTISTTRANSLIT:;
#CREDIT:;
#BANNER:Around You.png;
#BACKGROUND:Around You-bg.png;
#LYRICSPATH:;
#CDTITLE:;
#MUSIC:Around You.mp3;
#OFFSET:-0.080;
#SAMPLESTART:54.040;
#SAMPLELENGTH:15.000;
#SELECTABLE:YES;
#BPMS:0.000=140.000;
#STOPS:;
#BGCHANGES:-0.280=Around You.avi=1.000=0=0=0,
99999=-nosongbg-=1.000=0=0=0 // don't automatically add -songbackground-
;

//---------------dance-single - ----------------
#NOTES:
     dance-single:
     :
     Easy:
     3:
     0.161,0.167,0.033,0.067,0.007:
0000
0000
0000
0000
,
0000
0000
0000
0000
,
0000
0000
0000
0000
,
0000
0000
0000
0000
,
1000
0000
0000
1000
,
0000
0000
0001
0000
,
0002
0000
0000
0000
,
0003
0000
0000
0000
,
0001
0000
0001
0000
,
1000
0000
0010
0000
,
1000
0000
0010
0000
,
0100
0000
0001
0000
,
0100
0000
0010
0000
,
0001
0000
0010
0000
,
0100
0000
1000
0000
,
0100
0000
1000
0000
,
1010
0000
1000
0000
,
0010
0000
1000
0000
,
0001
0000
0100
0000
,
0001
0000
1000
0000
,
1000
0000
1000
0000
,
1000
0000
0010
0000
,
2002
0000
0000
0000
,
3003
0000
0000
0000
,
0010
0000
0010
0000
,
0010
0000
0100
0000
,
0010
0000
1000
0000
,
0001
0000
1000
0000
,
0001
0000
1000
0000
,
0001
0000
0010
0000
,
0002
0000
0000
0000
,
0003
0000
1000
0100
,
0010
0000
1000
0000
,
0001
0010
0100
0000
,
0001
0000
0100
0000
,
0001
1000
1000
0000
,
0010
0000
1000
0000
,
0001
0010
0100
0000
,
0001
0000
0100
0000
,
0010
0001
0001
0000
,
0001
0000
1000
0000
,
0010
1000
0001
0000
,
0100
0000
0010
0000
,
0100
0001
1000
0000
,
0100
0000
1000
0000
,
0001
0100
1000
0000
,
1000
0000
0010
0000
,
1000
0001
0010
0000
,
0100
0000
0010
0000
,
0100
0000
0001
0000
,
1000
0000
0010
0000
,
1000
0000
0001
0000
,
0100
0000
0001
0000
,
0100
0000
0010
0000
,
1000
0000
0010
0000
,
2002
0000
0000
0000
,
3003
0000
0000
0000
,
1000
0000
0000
0000
,
0001
0000
0000
0000
,
1000
0000
0000
0000
,
0010
0000
0000
0000
,
0100
0000
0000
0000
,
0001
0000
0000
0000
,
0220
0000
0000
0000
,
0330
0000
0001
0010
,
0100
0000
0001
0000
,
1000
0100
0010
0000
,
1000
0000
0010
0000
,
1000
0001
0001
0000
,
0100
0000
0001
0000
,
1000
0100
0010
0000
,
1000
0000
0010
0000
,
0100
1000
1000
0000
,
1000
0000
0001
0000
,
0100
0001
1000
0000
,
0010
0000
0100
0000
,
0010
1000
0001
0000
,
0010
0000
0001
0000
,
1000
0010
0001
0000
,
0001
0000
0000
0000
0000
0000
0000
0000
0000
0100
0000
0000
0000
0001
0000
0000
,
0000
0000
0000
1000
0000
0010
0000
0000
,
0000
0000
0000
0000
0000
2002
0000
0000
,
0000
0000
0000
0000
,
3003
0000
0000
0000
;

//---------------dance-single - ----------------
#NOTES:
     dance-single:
     :
     Beginner:
     1:
     0.096,0.167,0.027,0.060,0.000:
0000
0000
0000
0000
,
0000
0000
0000
0000
,
0010
0000
0000
0000
,
0000
0000
0000
0000
,
0010
0000
0000
0000
,
0000
0000
0000
0000
,
0200
0000
0000
0000
,
0000
0000
0300
0000
,
0001
0000
0000
0000
,
0100
0000
0000
0000
,
1000
0000
0000
0000
,
0001
0000
0000
0000
,
0100
0000
0000
0000
,
0001
0000
0000
0000
,
1000
0000
0000
0000
,
0010
0000
0000
0000
,
0100
0000
0000
0000
,
0001
0000
0000
0000
,
1000
0000
0000
0000
,
0001
0000
0000
0000
,
0100
0000
0000
0000
,
0010
0000
0000
0000
,
2000
0000
0000
0000
,
3000
0000
0000
0000
,
1000
0000
1000
0000
,
1000
0000
0001
0000
,
0010
0000
0001
0000
,
0100
0000
0010
0000
,
1000
0000
0001
0000
,
0100
0000
0001
0000
,
2002
0000
0000
0000
,
3003
0000
0000
0000
,
0010
0000
0000
0000
,
0010
0000
0000
0000
,
1000
0000
1000
0000
,
1000
0000
0000
0000
,
0001
0000
0000
0000
,
1000
0000
0000
0000
,
0001
0000
0001
0000
,
0001
0000
0000
0000
,
1000
0000
0000
0000
,
0010
0000
0000
0000
,
0100
0000
0100
0000
,
0100
0000
0000
0000
,
0010
0000
0000
0000
,
1000
0000
0000
0000
,
0010
0000
0010
0000
,
0010
0000
0000
0000
,
1001
0000
0000
0000
,
0001
0000
0000
0000
,
1000
0000
0000
0000
,
0010
0000
0000
0000
,
1000
0000
0000
0000
,
0001
0000
0000
0000
,
0100
0000
0000
0000
,
0020
0000
0000
0000
,
0030
0000
0000
0000
,
1000
0000
0000
0000
,
1000
0000
0000
0000
,
0001
0000
0000
0000
,
0001
0000
0000
0000
,
0100
0000
0000
0000
,
0010
0000
0000
0000
,
0220
0000
0000
0000
,
0330
0000
0000
0000
,
0010
0000
0000
0000
,
0100
0000
0000
0000
,
0001
0000
0001
0000
,
0001
0000
0000
0000
,
1000
0000
0000
0000
,
0001
0000
0000
0000
,
1000
0000
1000
0000
,
1000
0000
0000
0000
,
0001
0000
0000
0000
,
0100
0000
0000
0000
,
0010
0000
0010
0000
,
0010
0000
0000
0000
,
0100
0000
0000
0000
,
0001
0000
0000
0000
,
0100
0000
0100
0000
,
0000
0000
0010
0000
,
0000
0000
2002
0000
,
0000
0000
0000
0000
,
3003
0000
0000
0000
;

//---------------dance-single - ----------------
#NOTES:
     dance-single:
     :
     Medium:
     5:
     0.224,0.333,0.074,0.074,0.007:
0000
0000
0000
0000
,
0000
0000
0000
0000
,
0000
0000
0000
0000
,
0000
0000
0000
0000
,
1001
0000
0000
0010
,
0000
0000
0100
0000
,
0220
0000
0000
0000
,
0330
0000
0000
0000
1000
0010
0100
0000
,
1000
0000
0000
0000
0001
0000
0000
0100
,
0000
0000
0001
0000
0000
1000
0000
0000
,
0010
0000
0000
0000
1000
0000
0000
0010
,
0000
0000
0100
0000
0000
0001
0000
0000
,
0001
0000
0000
0000
0100
0000
0000
0010
,
0000
0000
1000
0000
0000
0001
0000
0000
,
0100
0000
0000
0000
0010
0000
0000
1000
,
0000
0000
0010
0000
0010
0100
0001
0000
,
0100
0000
0000
0000
1000
0000
0000
0010
,
0000
0000
1000
0000
0000
0001
0000
0000
,
0100
0000
0000
0000
0001
0000
0000
0100
,
0000
0000
0010
0000
0000
1000
0000
0000
,
1000
0000
0000
0000
0010
0000
0000
0100
,
0000
0000
0001
0000
0000
1000
0000
0000
,
0010
0000
0000
0000
0100
0000
0000
0001
,
0000
0000
0000
0000
,
1000
0100
1000
0000
,
0001
0010
0001
0000
,
0100
0010
0010
0000
,
1000
0010
0001
0000
,
0001
0100
0010
0000
,
0100
0010
1000
0000
,
0002
0000
0000
2003
0000
0000
3002
0000
,
0000
0003
0000
0000
0110
0000
1001
0000
,
0110
0000
0010
0000
,
0010
1000
0010
0000
,
1000
0010
1000
0000
,
0001
0100
0010
0000
,
0010
0100
0001
0000
,
0010
0100
1000
0000
,
0010
0100
1000
0000
,
0001
0010
0100
0000
,
0001
0010
0100
0000
,
0001
0100
0001
0000
,
1000
0010
0001
0000
,
0001
0100
0001
0000
,
0100
0010
1000
0000
,
0100
0010
1000
0000
,
0010
0100
0010
0000
,
0100
0010
1000
0000
,
1001
0000
0000
0010
0010
0000
0100
0100
,
0000
0010
0001
0100
,
1000
0000
0000
0001
1000
0000
2000
0000
,
0000
3000
0010
0000
,
0100
0000
0000
0100
0100
0000
0010
0010
,
0000
0001
0100
0010
,
1000
0000
0010
0000
0100
0010
0100
0020
,
0000
0000
0000
0000
,
0030
0000
0000
0000
,
0010
0010
0010
0000
,
0100
0010
1000
0000
,
0010
0001
0010
0000
,
0100
0001
0010
0000
,
1000
0010
0100
0000
,
1000
0010
0001
0000
,
2002
0000
0000
0000
,
3003
0000
0110
1001
,
0110
0000
0100
0000
,
0100
0001
0100
0000
,
0001
0100
0001
0000
,
1000
0010
0100
0000
,
0100
0010
1000
0000
,
0100
0010
0001
0000
,
0100
0010
0001
0000
,
1000
0100
0010
0000
,
1000
0100
0010
0000
,
1000
0010
1000
0000
,
0001
0100
1000
0000
,
1000
0010
1000
0000
,
0010
0100
0001
0000
,
0010
0100
0001
0000
,
0100
0000
0000
0000
0000
0000
0000
0000
0000
0100
0000
0000
0000
0010
0000
0000
,
0000
0000
0000
1000
0000
0001
0000
0000
,
0000
0000
0000
0000
0000
2002
0000
0000
,
0000
0000
0000
0000
,
3003
0000
0000
0000
;

//---------------dance-single - ----------------
#NOTES:
     dance-single:
     :
     Hard:
     8:
     0.312,0.389,0.107,0.147,0.007: // measure 1
0000
0000
0000
0000
,  // measure 2
0000
0000
0000
0000
,  // measure 3
0000
0000
0000
0000
,  // measure 4
0000
0000
0000
0000
,  // measure 5
0110
0000
0000
0000
1000
0000
0000
0010
,  // measure 6
0000
0000
1000
0000
0000
0001
0000
0000
,  // measure 7
0200
0000
0000
0000
,  // measure 8
0300
0000
0000
0000
0001
0100
0010
0000
,  // measure 9
1000
0000
0000
0000
0010
0100
0001
0100
,  // measure 10
0000
1000
0000
0100
,  // measure 11
0001
0000
0001
0100
0000
0100
0001
0000
,  // measure 12
0000
0000
0100
0000
0000
0010
0000
0000
,  // measure 13
1000
0000
0000
0000
0010
0001
0100
0010
,  // measure 14
0000
0000
1000
0000
0000
0000
0010
1000
,  // measure 15
0001
0000
0000
0000
1000
0000
0000
0010
,  // measure 16
0000
0000
1000
0000
1000
0100
0010
0000
,  // measure 17
0001
0000
0000
0000
0100
0010
1000
0010
,  // measure 18
0000
0001
0000
0010
,  // measure 19
1000
0000
1000
0010
0000
0010
1000
0000
,  // measure 20
0000
0000
0010
0000
0000
0100
0010
0100
,  // measure 21
0001
1000
0100
0010
,  // measure 22
0001
0001
0000
0100
,  // measure 23
1001
0000
0000
0000
0001
0000
0000
0100
,  // measure 24
0000
0000
0000
0000
0000
0000
0100
0010
,  // measure 25
0001
0000
0001
0010
0100
0000
0010
0100
,  // measure 26
1000
0000
1000
0100
0000
1000
0000
0010
,  // measure 27
0000
1010
0000
0000
0100
0000
0000
0000
,  // measure 28
1000
0000
0010
0000
1000
0000
1000
0100
,  // measure 29
0010
0000
0100
0010
0001
0000
0001
0010
,  // measure 30
0001
0100
0010
0100
,  // measure 31
0002
0000
0003
0002
0000
0003
0002
0000
,  // measure 32
0003
0000
1001
0101
,  // measure 33
1010
1000
0010
0100
,  // measure 34
0010
0100
0010
1000
0000
1000
0010
0000
,  // measure 35
2000
0000
3000
0000
,  // measure 36
0001
0010
0100
1000
0000
0010
1000
0000
,  // measure 37
1000
0000
1000
0010
0000
0100
0000
0020
,  // measure 38
0000
0000
0130
0000
0200
0000
0000
0300
,  // measure 39
0010
0000
1000
0001
0000
0100
0000
0010
,  // measure 40
0000
1000
0000
0001
0000
0002
0000
0000
,  // measure 41
0103
0001
1000
0000
,  // measure 42
1000
0010
0001
0010
0000
1000
0010
0000
,  // measure 43
2000
0000
0000
0000
3000
0000
1000
0010
,  // measure 44
0000
0000
0010
1000
0000
1000
0000
0010
,  // measure 45
0000
0000
0100
0010
0000
0100
0000
0001
,  // measure 46
0000
0000
0001
1000
0001
0000
0010
0100
,  // measure 47
0001
0200
0300
0020
,  // measure 48
0030
0100
0001
1000
,  // measure 49
1001
0000
1000
0010
1000
0000
1000
0010
,  // measure 50
0000
0000
0001
1000
0010
1000
0001
0100
,  // measure 51
0010
1000
0000
0100
0000
1000
2000
0000
,  // measure 52
0000
0000
3000
0000
,  // measure 53
0010
0000
0000
0110
0000
0000
0100
0010
,  // measure 54
0000
0010
0100
0000
0001
0000
0000
0000
,  // measure 55
0100
0000
0001
0100
0000
0001
0010
0200
,  // measure 56
0000
0000
0000
0000
,  // measure 57
0300
0000
0000
0000
0000
0000
0010
1000
,  // measure 58
0001
0000
0100
0010
0001
0000
0001
0010
,  // measure 59
0100
0000
0010
1000
0000
1000
0000
0010
,  // measure 60
0000
1010
0000
0000
1000
0000
0010
1000
,  // measure 61
0010
0000
0000
0000
0100
0000
0100
0001
,  // measure 62
1000
0000
0010
0100
1000
0000
1000
0100
,  // measure 63
0010
0100
0001
0100
,  // measure 64
0202
0000
0000
0000
,  // measure 65
0303
0000
1001
1010
,  // measure 66
0101
0001
0100
0010
,  // measure 67
0100
0010
0100
0001
0000
0001
0100
0000
,  // measure 68
0002
0000
0003
0000
,  // measure 69
1000
0100
0010
0001
0000
0100
0001
0000
,  // measure 70
0001
0000
0001
0100
0000
0010
0000
0200
,  // measure 71
0000
0000
0310
0000
0020
0000
0000
0030
,  // measure 72
0100
0000
0001
1000
0000
0010
0000
0100
,  // measure 73
0000
0001
0000
1000
0000
2000
0000
0000
,  // measure 74
3010
1000
0001
0000
,  // measure 75
0001
0100
1000
0100
0000
0001
0100
0000
,  // measure 76
0002
0000
0000
0000
0003
0000
0001
0100
,  // measure 77
0000
0000
0100
0001
0000
0001
0000
0100
,  // measure 78
0000
0000
0010
0100
0000
0010
0000
1000
,  // measure 79
0000
0000
1000
0001
1000
0000
0100
0010
,  // measure 80
1000
0000
0000
0000
0000
0000
0000
0000
0000
0010
0000
0000
0000
1000
0000
0000
,  // measure 81
0000
0000
0000
1001
0000
0110
0000
0000
,  // measure 82
0000
0000
0000
0000
0000
0220
0000
0000
,  // measure 83
0000
0000
0000
0000
,  // measure 84
0330
0000
0000
0000
;
