#TITLE:All Night;
#SUBTITLE:;
#ARTIST:Girls' Generation;
#TITLETRANSLIT:;
#SUBTITLETRANSLIT:;
#ARTISTTRANSLIT:;
#CREDIT:;
#BANNER:All Night.png;
#BACKGROUND:All Night-bg.png;
#LYRICSPATH:;
#CDTITLE:;
#MUSIC:All Night.mp3;
#OFFSET:0.380;
#SAMPLESTART:54.300;
#SAMPLELENGTH:15.000;
#SELECTABLE:YES;
#BPMS:0.000=130.000;
#STOPS:;
#BGCHANGES:;

//---------------dance-single - ----------------
#NOTES:
     dance-single:
     :
     Easy:
     4:
     0.224,0.402,0.074,0.261,0.000:
0000
0000
0000
0000
,
0000
0000
0000
0000
,
0000
0000
0000
0000
,
0000
0000
0000
0000
,
0000
0000
0000
0000
,
0220
0000
0330
0000
,
0000
0100
0001
1000
,
0202
0000
0303
0000
,
0000
0001
1000
0010
,
2020
0000
3030
0000
,
0000
1000
0010
0100
,
1100
0000
0000
0100
,
0001
0010
0000
0100
,
0010
1000
0100
0010
,
0001
0002
0003
0001
,
0100
0010
1000
0010
,
1000
2000
3000
0100
,
0010
1000
0001
0100
,
0010
0020
0030
0220
,
0330
2002
3003
0220
,
0330
0010
0000
0000
,
1000
1000
0000
0010
,
0100
0010
0000
0000
,
0010
0100
0000
0001
,
0100
0010
0000
0000
,
0001
0001
0000
1000
,
0010
0001
0000
0000
,
0100
0000
0000
0010
0000
0000
0000
1000
,
0000
0000
0000
2000
0000
0000
0000
0000
,
3000
0000
0000
0000
,
1001
0000
0010
1000
,
0001
0000
0100
0000
,
0001
0000
0001
0100
,
0001
0000
0010
1000
,
0001
0000
0100
0001
,
1000
0000
0010
0100
,
0020
0130
0002
1003
,
2000
0000
3001
0000
,
0101
0000
1000
0100
,
0010
0000
0001
0000
,
0010
0000
0010
0001
,
0010
0000
1000
0100
,
0010
0000
0001
0010
,
0100
0000
1000
0001
,
2000
3001
0020
0130
,
0200
0000
0310
0000
,
0001
0000
0100
0000
,
0002
0000
0023
0000
,
0030
0000
0100
0000
,
0200
0000
2300
0000
,
3000
0000
0010
0000
,
2000
0000
3002
0000
,
0003
0000
1000
0000
,
0200
0000
0320
0000
,
0030
0000
0100
0000
,
0100
0000
0010
0000
,
0010
0000
1000
0000
,
1000
0000
0001
0000
,
0001
0000
0010
0000
,
0001
0000
1000
0000
,
0100
0000
1000
0000
,
0020
0000
0100
0000
,
0230
0000
0010
0000
,
0320
0000
0030
0000
,
1001
0000
0100
0001
,
1000
0000
0010
0000
,
1000
0000
1000
0010
,
1000
0000
0100
0001
,
1000
0000
0010
1000
,
0001
0000
0100
0010
,
0200
0310
2000
3001
,
0002
0000
1003
0000
,
1010
0000
0001
0010
,
0100
0000
1000
0000
,
0100
0000
0100
1000
,
0100
0000
0001
0010
,
0100
0000
1000
0100
,
0010
0000
0001
1000
,
0002
1003
0200
0310
,
0020
0000
0000
0000
0130
0000
0000
1000
;

//---------------dance-single - ----------------
#NOTES:
     dance-single:
     :
     Beginner:
     2:
     0.174,0.322,0.141,0.188,0.000:
0000
0000
0000
0000
,
0000
0000
0000
0000
,
0000
0000
0000
0000
,
0000
0000
0000
0000
,
0000
0000
0000
0000
,
0000
0100
0000
0100
,
0000
0010
0000
0010
,
0000
0100
0000
0001
,
0000
0010
0000
1000
,
0000
0010
0000
0001
,
0000
1000
0000
0001
,
0000
0100
0000
0001
,
0000
0010
0000
0010
,
0000
1000
0000
1000
,
0000
0001
0000
0001
,
0001
0001
0000
0100
,
0000
0010
0000
1000
,
1000
1000
0000
0010
,
0000
1000
0000
0010
,
0010
0010
0010
0010
,
0020
0000
0030
0000
,
0000
1000
0000
0010
,
0000
1000
0000
0001
,
0000
0100
0000
0001
,
0000
0010
0000
0001
,
0000
0010
0000
0100
,
0000
1000
0000
0001
,
0000
0110
0000
1001
,
0000
0220
0000
0000
,
0330
0000
0000
0000
,
0000
0001
0000
0010
,
0000
0100
0000
0010
,
0000
0001
0000
1000
,
0000
0010
0000
1000
,
0000
0001
0000
0100
,
0000
1000
0000
0110
,
0000
1001
0000
0110
,
2002
0000
3003
0000
,
0000
0010
0000
1000
,
0000
0001
0000
1000
,
0000
0010
0000
0100
,
0000
1000
0000
0100
,
0000
0010
0000
0001
,
0000
0100
0000
1001
,
0000
0110
0000
1001
,
0220
0000
0330
0000
,
0010
0000
0010
0000
,
0020
0000
0030
0000
,
0100
0000
0100
0000
,
0200
0000
0300
0000
,
0001
0000
0001
0000
,
0002
0000
0003
0000
,
1000
0000
1000
0000
,
2000
0000
3000
0000
,
2002
0000
3003
0000
,
0020
0000
0030
0000
,
2000
0000
3000
0000
,
0200
0000
0300
0000
,
0020
0000
0030
0000
,
0002
0000
0003
0000
,
0002
0000
0003
0000
,
0020
0000
0030
0000
,
0002
0000
0003
0000
,
2000
0000
3000
0000
,
0000
1000
0000
0100
,
0000
0001
0000
0100
,
0000
1000
0000
0010
,
0000
0100
0000
0010
,
0000
1000
0000
0001
,
0000
0010
0000
1001
,
0000
0110
0000
1001
,
0220
0000
0330
0000
,
0000
0100
0000
0010
,
0000
1000
0000
0010
,
0000
0100
0000
0001
,
0000
0010
0000
0001
,
0000
0100
0000
1000
,
0000
0001
0000
0110
,
0000
1001
0000
0110
,
2002
0000
3003
0220
,
0330
0000
0000
0000
;

//---------------dance-single - ----------------
#NOTES:
     dance-single:
     :
     Medium:
     8:
     0.322,0.402,0.168,0.255,0.104:
0000
0000
0000
0000
,
0000
0000
0000
0000
,
0000
0000
0000
0000
,
0000
0000
0000
0000
,
0000
0000
0000
0000
,
0001
0010
0001
0100
0000
0000
1000
0000
,
0010
0100
0000
0010
,
1000
0010
0001
0010
0000
0000
0001
0000
,
0100
1000
0000
0100
,
0010
0100
1000
0001
0000
0000
0100
0000
,
0000
0001
0000
0010
,
1001
0100
0000
0010
,
0001
0001
0000
1100
,
1000
0100
0010
0001
0010
0100
1000
0010
,
1000
0001
0100
0000
0001
0000
0101
0000
,
0001
1000
0010
1000
0001
0100
0010
1000
,
0010
0100
0010
0000
0100
0000
0110
0000
,
0010
0001
0010
1000
0010
0001
0010
1000
,
0100
0001
0100
0000
0010
0000
0102
0000
,
0003
2010
3000
0210
,
0320
0000
0030
0000
,
0010
0000
1000
0000
0000
0000
1000
0010
,
0000
0000
0000
0100
,
0010
0000
0001
0000
0000
0000
0001
0010
,
0000
0000
0000
0010
,
0100
0000
0010
0000
0000
1000
0010
1000
,
0000
0010
1000
0001
,
0100
0000
0000
0010
0000
0000
0000
0100
,
0000
0000
0000
2002
0000
0000
0000
3003
,
1000
0010
0100
0001
,
0100
0000
0000
0100
0000
0000
0010
0000
1000
0000
0000
0010
0000
0000
1000
0000
,
0000
0000
1000
0010
0001
0000
0100
0000
,
0001
0000
0000
0010
0000
0000
0100
0000
1000
0000
0000
0100
0000
0000
0010
0000
,
0000
0000
0001
1000
0100
0000
0010
0000
,
0001
0000
0000
1000
0000
0000
1000
0000
0010
0000
0000
0100
0000
0000
0010
0000
,
0000
0000
0100
1000
0100
0000
2010
0000
,
3000
0102
0003
0120
,
0230
0000
0300
0000
,
0001
0000
0000
0001
0000
0000
1000
0000
0100
0000
0000
1000
0000
0000
0100
0000
,
0000
0000
0100
1000
0010
0000
0001
0000
,
0010
0000
0000
1000
0000
0000
0001
0000
0100
0000
0000
0001
0000
0000
1000
0000
,
0000
0000
0010
0100
0001
0000
1000
0000
,
0010
0000
0000
0100
0000
0000
0100
0000
1000
0000
0000
0001
0000
0000
1000
0000
,
0000
0000
0001
0100
0001
0000
1200
0000
,
0300
0021
0030
2001
,
3002
0000
0003
0100
,
0001
0000
0000
0100
0000
0000
0001
0000
1000
0000
0000
0010
0000
0000
1000
0000
,
0000
0000
0101
0000
,
0010
0000
0000
0010
0000
0000
0010
0000
0100
0000
0000
0100
0000
0000
0100
0000
,
0000
0000
0110
0000
,
0010
0000
0000
0000
0000
0000
0000
0000
0100
0000
0000
1000
0000
0000
0100
0000
,
0000
0000
0011
0000
,
1000
0000
0000
1000
0000
0000
1000
0000
0001
0000
0000
0001
0000
0000
0001
0000
,
0000
0000
1001
0000
,
0002
0000
0023
0000
,
0032
0000
2003
0000
,
3020
0000
2030
0000
,
3200
0000
0320
0000
,
0032
0000
0203
0000
,
0302
0000
0023
0000
,
0230
0000
2300
0000
,
3002
0000
0000
0000
,
2000
0000
0000
0000
,
0000
0000
3003
0000
,
0010
0000
0000
0010
0000
0000
0100
0000
0001
0000
0000
0100
0000
0000
0001
0000
,
0000
0000
0001
0100
1000
0000
0010
0000
,
1000
0000
0000
0100
0000
0000
0010
0000
0001
0000
0000
0010
0000
0000
0100
0000
,
0000
0000
1000
0001
0010
0000
0100
0000
,
1000
0000
0000
0001
0000
0000
0001
0000
0100
0000
0000
0010
0000
0000
0100
0000
,
0000
0000
0010
0001
0010
0000
0102
0000
,
0003
2010
3000
0210
,
0320
0000
0030
0000
,
1000
0000
0000
1000
0000
0000
0001
0000
0010
0000
0000
0001
0000
0000
0010
0000
,
0000
0000
0010
0001
0100
0000
1000
0000
,
0100
0000
0000
0001
0000
0000
1000
0000
0010
0000
0000
1000
0000
0000
0001
0000
,
0000
0000
0100
0010
1000
0000
0001
0000
,
0100
0000
0000
0010
0000
0000
0010
0000
0001
0000
0000
1000
0000
0000
0001
0000
,
0000
0000
1000
0010
1000
0000
0021
0000
,
0030
1200
0300
1002
,
2003
0000
0000
0000
3000
0000
0000
0110
;

//---------------dance-single - ----------------
#NOTES:
     dance-single:
     :
     Hard:
     13:
     0.463,0.455,0.154,0.147,0.191: // measure 1
0000
0000
0000
0000
,  // measure 2
0000
0000
0000
0000
,  // measure 3
0000
0000
0000
0000
,  // measure 4
0000
0000
0000
0000
,  // measure 5
0000
0000
0000
0000
,  // measure 6
1000
0100
0010
0001
0100
0010
1000
0001
,  // measure 7
0000
0100
0001
0100
1000
0100
0001
0000
,  // measure 8
0010
0001
0100
0001
0000
0000
0000
0010
,  // measure 9
0000
1000
0010
0100
0001
1000
0010
0001
,  // measure 10
0010
0100
1000
0010
1000
0100
0001
1000
,  // measure 11
0000
0010
0100
0010
1000
0010
0001
0010
,  // measure 12
1000
0100
0100
0000
0000
0010
0000
0110
,  // measure 13
0000
0000
0000
0001
0000
0000
1001
0000
,  // measure 14
0001
0100
1000
0100
0001
0010
0100
1000
,  // measure 15
0010
1000
0010
0000
0100
0000
0110
0000
,  // measure 16
1000
0010
0001
0010
1000
0100
0010
0001
,  // measure 17
0100
0001
0100
0000
0010
0000
0110
0000
,  // measure 18
0010
0001
0100
0001
0010
1000
0001
0100
,  // measure 19
1000
0100
1000
0000
0001
0000
2001
0000
,  // measure 20
3000
0120
0030
0012
,  // measure 21
1003
0001
1000
0010
0000
0000
0100
0000
,  // measure 22
0001
0000
0100
0010
0100
1000
0001
0010
,  // measure 23
0000
0001
0000
1000
0001
0100
0001
1000
,  // measure 24
0000
0000
1000
0001
0100
0001
0100
1000
,  // measure 25
0000
0010
0000
0100
0000
0010
0001
1000
,  // measure 26
0000
0000
0001
0100
0001
0010
1000
0010
,  // measure 27
0000
1000
0000
0001
0000
0100
0000
0100
,  // measure 28
0001
0000
0000
0101
0000
0000
0000
1010
,  // measure 29
0000
0000
0000
0220
0000
0000
0000
0330
,  // measure 30
0010
0000
0000
0100
0010
0000
0100
0010
0100
0000
0001
1000
0001
0000
0100
0000
,  // measure 31
0001
0000
0000
0100
0000
0000
0001
0000
1000
0000
0010
1000
0010
0000
0100
0000
,  // measure 32
0010
0001
0000
0100
0100
0010
1000
0010
,  // measure 33
0001
0000
0000
0000
1000
0000
0010
0000
1000
0000
0010
0000
0100
0000
0000
0010
,  // measure 34
0000
0000
0000
0000
1000
0000
0010
1000
0010
0000
0100
0001
0100
0000
0001
0000
,  // measure 35
1000
0000
0000
0010
0000
0000
0100
0000
0001
0000
0100
0001
1000
0000
0010
0000
,  // measure 36
0100
0001
0000
0010
0010
0000
2010
0000
,  // measure 37
3000
0120
0030
0210
,  // measure 38
0310
0000
1000
0000
0001
0000
0100
0000
0000
0000
0100
0010
0100
0000
0010
0000
,  // measure 39
0100
0000
0000
0001
0000
0000
0010
0000
0100
0000
1000
0100
1000
0000
0001
0000
,  // measure 40
1000
0010
0000
0001
0001
1000
0100
1000
,  // measure 41
0010
0000
1000
0000
0100
0000
1000
0000
0100
0000
1000
0000
0001
0000
0000
1000
,  // measure 42
0000
0000
0000
0000
0100
0000
1000
0100
1000
0000
0001
0010
0001
0000
0010
0000
,  // measure 43
0100
0000
0000
1000
0000
0000
0001
0000
0010
0000
0001
0010
0100
0000
1000
0000
,  // measure 44
0001
0010
0000
1000
1000
0000
1200
0000
,  // measure 45
0300
2001
3000
1002
,  // measure 46
1003
0100
0010
0001
0000
0000
1000
0000
,  // measure 47
0001
0000
0000
0100
0000
0000
0001
0000
1000
0000
0000
0010
0000
0000
0100
0000
,  // measure 48
0001
0010
1000
0010
0001
0100
1000
0010
,  // measure 49
1000
0000
0000
0100
0000
0000
0010
0000
0001
0000
0000
0010
0000
0000
0100
0000
,  // measure 50
1000
0100
0010
0001
0100
0010
1000
0001
,  // measure 51
0000
0000
0000
0000
0000
0000
0000
0000
1001
0000
0000
0010
0000
0000
0100
0000
,  // measure 52
0010
0100
0010
0001
0010
0100
1000
0010
,  // measure 53
1000
0000
0000
0010
0000
0000
1000
0000
0001
0000
0000
0100
0000
0000
0010
0000
,  // measure 54
0100
0001
0010
0001
0100
0010
1000
0100
,  // measure 55
2000
0000
0000
0000
3010
0100
0001
0100
,  // measure 56
0000
0000
1000
0000
0000
0000
0000
0010
0000
0000
0000
0100
0000
0000
0000
0001
,  // measure 57
0000
0000
0000
0100
0000
0000
0000
0010
0000
0000
0000
1000
0000
0000
0000
0001
,  // measure 58
0000
0000
0000
0100
0000
0000
0000
0010
0000
0000
0000
1000
0000
0000
0000
0002
,  // measure 59
0000
0000
0003
0000
0100
0010
1000
0010
,  // measure 60
0000
0000
0001
0000
0000
0000
0100
0000
0000
0000
0010
0000
0000
0000
0000
1000
,  // measure 61
0000
0000
0000
0010
0000
0000
0000
0100
0000
0000
0000
0001
0000
0000
0000
2000
,  // measure 62
0000
0000
0000
0000
,  // measure 63
3002
0000
0000
0000
,  // measure 64
0203
0000
0000
0000
0000
0000
0000
0000
0300
0000
1000
0001
1000
0000
0010
0000
,  // measure 65
1000
0000
0000
0010
0000
0000
1000
0000
0001
0000
0100
0001
0100
0000
0010
0000
,  // measure 66
0100
1000
0000
0010
0010
0100
0001
0100
,  // measure 67
1000
0000
0000
0000
0001
0000
0100
0000
0001
0000
0100
0000
0010
0000
0000
0100
,  // measure 68
0000
0000
0000
0000
0001
0000
0100
0001
0100
0000
0010
1000
0010
0000
1000
0000
,  // measure 69
0001
0000
0000
0100
0000
0000
0010
0000
1000
0000
0010
1000
0001
0000
0100
0000
,  // measure 70
0010
1000
0000
0100
0100
0000
0102
0000
,  // measure 71
0003
0210
0300
0120
,  // measure 72
0130
0000
0001
0000
1000
0000
0010
0000
0000
0000
0010
0100
0010
0000
0100
0000
,  // measure 73
0010
0000
0000
1000
0000
0000
0100
0000
0010
0000
0001
0010
0001
0000
1000
0000
,  // measure 74
0001
0100
0000
1000
1000
0001
0010
0001
,  // measure 75
0100
0000
0001
0000
0010
0000
0001
0000
0010
0000
0001
0000
1000
0000
0000
0001
,  // measure 76
0000
0000
0000
0000
0010
0000
0001
0010
0001
0000
1000
0100
1000
0000
0100
0000
,  // measure 77
0010
0000
0000
0001
0000
0000
1000
0000
0100
0000
1000
0100
0010
0000
0001
0000
,  // measure 78
1000
0100
0000
0001
0001
0000
0021
0000
,  // measure 79
0030
1002
0003
2001
,  // measure 80
3001
0010
0100
1000
0000
0000
0001
1000
;
