#TITLE:All For You;
#SUBTITLE:;
#ARTIST:CIX;
#TITLETRANSLIT:;
#SUBTITLETRANSLIT:;
#ARTISTTRANSLIT:;
#CREDIT:;
#BANNER:All For You.png;
#BACKGROUND:All For You-bg.png;
#LYRICSPATH:;
#CDTITLE:;
#MUSIC:All For You.mp3;
#OFFSET:-0.500;
#SAMPLESTART:102.000;
#SAMPLELENGTH:15.000;
#SELECTABLE:YES;
#BPMS:0.000=115.000;
#STOPS:;
#BGCHANGES:-1.200=All For You.avi=1.000=0=0=0,
99999=-nosongbg-=1.000=0=0=0 // don't automatically add -songbackground-
;

//---------------dance-single - ----------------
#NOTES:
     dance-single:
     :
     Easy:
     4:
     0.203,0.253,0.064,0.085,0.000:
0000
0000
0000
0000
,
0000
0000
0000
0000
,
0000
0000
0000
0000
,
0000
0000
0000
0000
,
0000
0000
0000
0000
,
0000
0000
0000
0000
,
0000
0000
0000
0000
,
0000
0000
0000
0000
,
0001
0100
0001
0100
,
0000
1000
0010
0000
,
0010
0010
0001
1000
,
0000
0010
0100
0000
,
1000
1000
0010
0000
,
0001
0100
0010
0000
,
2000
3010
0002
0103
,
0000
0010
0010
0000
,
0010
0110
0100
1001
,
0000
0100
0000
0010
,
0100
0101
0010
1010
,
0000
1000
0000
0001
,
0000
0100
0010
0010
,
0000
1000
1000
0010
,
0000
0001
0100
0001
,
0000
0100
0010
1000
,
0000
0010
0000
0010
,
0000
1000
0000
1000
,
0000
0001
0000
1000
,
0000
0001
0000
0010
,
0000
0001
1000
0100
,
0000
1000
0010
0100
,
0000
0010
0100
0002
,
0000
0003
0000
1000
,
0010
0100
0010
1000
,
1010
0000
0000
0010
,
1000
0010
1000
0001
,
0110
0000
0000
0100
,
0010
1000
0001
0100
,
0010
0200
0300
0100
,
1000
0100
0010
0001
,
0001
0010
0100
1000
,
0000
1000
0100
1000
,
0000
0001
0100
0010
,
0000
1000
1000
0100
,
0000
0001
0010
0010
,
0000
0001
1000
0001
,
0000
0100
0010
0100
,
0000
0010
0100
1000
,
0000
0100
0010
0002
,
0000
0000
1003
0001
,
0100
0010
0100
0001
,
0101
0000
0000
0100
,
0001
0100
0001
1000
,
0110
0000
0000
0010
,
0100
0001
1000
0010
,
0100
0020
0030
0010
,
0001
0010
0100
1000
,
1000
0100
0010
0001
,
0002
0013
0020
0130
,
1000
1000
1000
0010
,
0020
0130
2000
3100
,
0001
0001
0001
0100
,
0020
0130
0200
0310
,
0010
1000
0010
1010
,
1000
0100
0010
0100
,
1000
0000
0001
0000
1000
0000
0001
1000
;

//---------------dance-single - ----------------
#NOTES:
     dance-single:
     :
     Beginner:
     2:
     0.151,0.186,0.021,0.121,0.000:
0000
0000
0000
0000
,
0000
0000
0000
0000
,
0000
0000
0000
0000
,
0000
0000
0000
0000
,
0000
0000
0000
0000
,
0000
0000
0000
0000
,
0000
0000
0000
0000
,
0000
0000
0000
0000
,
0000
0010
0000
0100
,
0000
0010
0000
1000
,
0000
0001
0000
0100
,
0000
0001
0000
1000
,
0000
0001
0000
0001
,
0000
0100
0000
0010
,
0000
2000
3000
0002
,
0003
2000
3000
1001
,
0000
1000
1000
1000
,
0000
0001
1000
0001
,
0000
0001
0001
0001
,
0000
0100
0010
0100
,
0000
0010
0010
0010
,
0000
1000
0010
1000
,
0000
0100
0100
0100
,
0000
0010
0001
0010
,
0000
0001
0000
1000
,
0000
0010
0000
1000
,
0000
0001
0000
0001
,
0000
1000
0000
0010
,
0000
0100
0000
0010
,
0000
1000
0000
0010
,
0000
0100
0000
2002
,
0000
3003
0000
0000
,
0000
0010
0100
0010
,
0000
0100
0000
0010
,
0000
1000
0001
1000
,
0000
0001
0000
0100
,
0000
0001
0100
0001
,
0000
0010
0000
0100
,
0000
1000
0010
1000
,
0000
1000
0000
0100
,
0000
0001
0000
1000
,
0000
0010
0000
1000
,
0000
0001
0000
0100
,
0000
0001
0000
1000
,
0000
0010
0000
0100
,
0000
0010
0000
1000
,
0000
0001
0000
0010
,
0000
0100
0000
2000
,
0000
3000
0000
0000
,
0000
0100
0010
0100
,
0000
0010
0000
0100
,
0000
0001
1000
0001
,
0000
1000
0000
0010
,
0000
1000
0010
1000
,
0000
0100
0000
0010
,
0000
0001
0100
0001
,
0000
0001
0000
0010
,
0000
2000
3002
2003
,
3000
1000
0000
0010
,
0000
0200
0320
0230
,
0300
0100
0000
0001
,
0000
0002
2003
3002
,
0003
0001
0000
1000
,
0000
0010
0000
0100
,
0000
0010
0000
2002
,
0000
0000
0000
3003
;

//---------------dance-single - ----------------
#NOTES:
     dance-single:
     :
     Medium:
     7:
     0.303,0.325,0.050,0.156,0.000:
0000
0000
0000
0000
,
0000
0000
0000
0000
,
0000
0000
0000
0000
,
0000
0000
0000
0000
,
2000
3002
2003
3002
,
0003
1000
0000
0010
,
0200
0320
0230
0320
,
0030
0100
0000
0001
,
0100
0010
0010
0000
0100
0000
0010
0000
,
1000
0010
1000
0000
0010
0000
0100
0000
,
0001
0010
0100
0000
1000
0000
0010
0000
,
1000
0010
0100
0001
,
0001
0100
0010
0000
0100
0010
1000
0000
,
1000
0010
0100
0000
0010
0000
0010
0000
,
0200
0310
0020
0130
,
0010
0000
0010
0000
0000
0100
0010
0000
,
1000
0100
1000
0000
0001
0100
0001
0000
,
1000
0100
1000
0000
0010
0000
0100
0000
,
0010
0001
0100
0000
0010
1000
0100
0000
,
0100
0010
0100
0000
1000
0000
0001
0000
,
0100
0010
0100
0000
0010
0100
0010
0000
,
1000
0001
1000
0000
0001
0000
0100
0000
,
0020
0130
2000
3001
,
0001
0100
0001
1000
,
1000
0010
1000
0010
,
0100
0001
0100
0010
,
0100
0010
1000
0001
,
0100
0000
0010
0100
0000
0000
0000
0000
,
1000
0100
0010
0001
,
0100
0001
1000
0010
,
0100
0010
0100
0110
,
0000
0000
0000
1001
0000
0001
0100
0001
,
0100
0000
0010
0000
1000
0000
0100
0010
,
0100
0000
0010
0000
0000
1000
0100
0010
,
0001
0000
1000
0000
0001
0000
0100
0001
,
0100
0001
1000
0010
,
1000
1000
0010
0000
0100
0010
0100
0000
,
0010
0100
0001
1000
,
0002
0103
0002
0103
,
2000
3010
2000
3010
,
0000
1000
0000
0010
,
0000
0100
0000
0001
,
0000
0100
0000
0010
,
0000
1000
0000
0001
,
1001
0100
0010
1000
,
0000
0010
0100
0001
,
0101
0110
1010
1001
,
0010
0000
0100
0010
0100
0000
0100
0020
,
0000
0000
0000
0000
0030
1000
0010
1000
,
0010
0000
0100
0000
0001
0000
0010
0100
,
0010
0000
0100
0000
0000
0001
0010
0100
,
1000
0000
0001
0000
1000
0000
0010
1000
,
0010
1000
0001
0100
,
0001
0001
0100
0000
0010
0100
0010
0000
,
0100
0010
1000
0001
,
2000
3010
2000
3010
,
0002
0103
0002
0103
,
0001
0100
0001
0100
0001
0100
0001
0100
,
0000
0010
0000
0100
,
1000
0010
1000
0010
1000
0010
1000
0010
,
0000
0100
0000
0010
,
1000
0001
1000
0001
1000
0001
1000
0001
,
0000
0000
0100
0000
0000
0000
0010
0100
,
0010
1000
0001
0100
0001
0000
1000
0010
,
1000
0001
0100
0001
0010
0001
1000
0002
,
0000
0000
0003
0000
;

//---------------dance-single - ----------------
#NOTES:
     dance-single:
     :
     Hard:
     13:
     0.449,0.536,0.064,0.305,0.202: // measure 1
0000
0000
0000
0000
,  // measure 2
0000
0000
0000
0000
,  // measure 3
0000
0000
0000
0000
,  // measure 4
0000
0000
0000
0000
,  // measure 5
2000
3000
2000
3000
2000
3000
2000
3000
,  // measure 6
0000
1000
0000
0010
,  // measure 7
0200
0300
0200
0300
0200
0300
0200
0300
,  // measure 8
0010
0000
0100
0000
0001
1000
0001
0100
,  // measure 9
0010
0000
0000
0000
0100
0000
0000
0000
0010
0000
0000
0000
1000
0000
0000
1000
,  // measure 10
0000
0000
0010
0000
0100
0010
0001
0010
,  // measure 11
0100
0000
0000
0000
1000
0000
0000
0000
0001
0000
0000
0000
0100
0000
0000
0001
,  // measure 12
0000
0000
0100
0000
0100
0000
0010
0100
,  // measure 13
0010
1000
0001
1000
0100
0010
0100
1000
,  // measure 14
0010
0000
0100
0000
0001
0000
0100
0000
0000
0000
0000
0000
0010
0000
0100
0010
,  // measure 15
0200
0310
2000
3001
,  // measure 16
0001
0000
0100
0000
0001
0000
0100
0001
0010
0000
0010
0000
0101
0000
0000
0000
,  // measure 17
1000
0000
0010
0000
0001
0000
0010
0000
1000
0000
0010
0000
0001
0000
0000
0010
,  // measure 18
0000
1000
0001
0000
0100
0000
0010
0000
,  // measure 19
0100
0000
0010
0000
0001
0000
0010
0000
0100
0000
0010
0000
0100
0000
0000
1000
,  // measure 20
0000
0001
1000
0000
1000
0000
0010
0000
,  // measure 21
1000
0010
1000
0001
1000
0001
0100
0010
,  // measure 22
0100
0001
1000
0020
0000
0000
1030
0000
,  // measure 23
0200
0310
0002
0103
,  // measure 24
0001
0000
0100
0001
1000
0010
1000
0000
,  // measure 25
0010
0010
0100
0010
,  // measure 26
1000
0001
0001
0100
,  // measure 27
0001
1000
0010
0100
,  // measure 28
0010
0000
0000
0000
1000
0000
0000
0000
0010
0000
0000
0000
0100
0000
0001
0100
,  // measure 29
0001
0000
1000
0010
0000
0000
0010
1000
0010
0000
0100
0000
0010
0000
0100
0000
,  // measure 30
0010
1000
0100
0000
0010
0100
0001
0000
1001
0000
0000
0000
1000
0100
1000
0000
,  // measure 31
0010
0000
0000
0100
0000
0000
0010
0000
0000
0100
0000
0000
0020
0000
0000
0000
,  // measure 32
0000
0030
0000
0110
0000
1000
0100
0010
,  // measure 33
0001
0000
0000
0000
0001
0000
0100
0000
0001
0000
0100
0000
0010
0000
0100
0001
,  // measure 34
0000
0000
0000
0000
0100
0000
0010
0100
0000
0000
0010
0000
1000
0000
0001
0000
,  // measure 35
0100
0000
0000
0000
0001
0000
0100
0000
1000
0000
0100
0000
0001
0000
0100
0001
,  // measure 36
0000
0000
0000
0000
1000
0000
0010
1000
0010
1000
0010
0000
0100
0000
0010
0000
,  // measure 37
0200
0000
0310
0000
2000
0000
3010
0000
1010
0000
0000
0000
0001
0100
0010
0100
,  // measure 38
0000
0001
0000
0000
0000
0000
0000
0000
0001
0000
0010
0000
0100
0000
1000
0000
,  // measure 39
1000
0000
0000
1000
0000
0000
0010
0000
0000
0000
0000
0000
0100
0000
0010
0000
,  // measure 40
0100
0000
0000
0100
0000
0000
0001
0000
0001
1000
0010
0000
0100
0000
0010
0000
,  // measure 41
0000
0000
1000
0010
1000
0000
0010
0000
0100
0010
0100
0000
0010
0000
0000
0000
,  // measure 42
0000
0000
0001
0100
0010
0000
0100
0000
0010
0000
0100
0000
0000
0000
0000
0000
,  // measure 43
0001
0000
0000
0001
0010
0000
0000
0010
0100
0000
0000
0100
1000
0000
0000
0000
,  // measure 44
1000
1000
0010
0100
0001
0100
0000
0101
,  // measure 45
0000
0000
0001
1000
0001
0100
0010
0000
1000
0000
0010
0000
1000
0000
0010
0000
,  // measure 46
0000
0000
1000
0001
1000
0010
0100
0000
0001
0000
0100
0000
0001
0000
0100
0000
,  // measure 47
0010
0100
0000
0000
0010
0100
0000
0000
0001
1000
0000
0000
1001
0000
0000
0000
,  // measure 48
0001
0100
0001
0000
0100
0000
0010
1000
0000
0000
0000
0000
0020
0000
2000
0000
,  // measure 49
0000
0000
0000
0000
3030
0001
0010
0100
,  // measure 50
1000
0000
0000
0000
1000
0000
0010
0000
1000
0000
0010
0000
0100
0000
0010
1000
,  // measure 51
0000
0000
0000
0000
0010
0000
0100
0010
0000
0000
0100
0000
0001
0000
1000
0000
,  // measure 52
0010
0000
0000
0000
1000
0000
0010
0000
0001
0000
0010
0000
1000
0000
0010
1000
,  // measure 53
0000
0000
0000
0000
0001
0000
0100
0001
0100
0001
0100
0000
0010
0000
0100
0000
,  // measure 54
0020
0000
0130
0000
0002
0000
0103
0000
0101
0000
0000
0000
1000
0010
0100
0010
,  // measure 55
0000
1000
0000
0000
0000
0000
0000
0000
1000
0000
0100
0000
0010
0000
0001
0000
,  // measure 56
0001
0000
0000
0001
0000
0000
0100
0000
0000
0000
0000
0000
0010
0000
0100
0000
,  // measure 57
0010
0000
0000
0010
0000
0000
1000
0000
1000
0001
0100
0000
0010
0000
0100
0000
,  // measure 58
0002
0203
0320
2030
3020
0230
0302
1003
,  // measure 59
0000
0000
0001
0000
1000
0000
0010
0100
0000
0000
0010
0000
0000
0000
0000
0000
,  // measure 60
2000
3020
2030
3002
0203
0302
2003
3010
,  // measure 61
0000
0000
0100
0000
0100
0000
0010
0100
0000
0010
0100
0000
0110
0000
0000
0000
,  // measure 62
0002
0023
0230
2300
3200
0320
0032
1003
,  // measure 63
0000
0000
0001
0000
0001
0000
1000
0001
0000
0000
0100
0000
0000
0000
0010
0000
,  // measure 64
0010
0000
1000
0000
0010
0000
0100
0000
0001
0000
0000
0000
0001
0000
1000
0010
,  // measure 65
0000
0000
1000
0000
0010
0000
0100
0000
0010
0100
0010
0000
0100
0000
0220
0000
,  // measure 66
0000
0000
0000
0330
;
