#TITLE:All About Us;
#SUBTITLE:;
#ARTIST:Jordan Fisher;
#TITLETRANSLIT:;
#SUBTITLETRANSLIT:;
#ARTISTTRANSLIT:;
#CREDIT:;
#BANNER:All About Us.png;
#BACKGROUND:All About Us-bg.png;
#LYRICSPATH:;
#CDTITLE:;
#MUSIC:All About Us.mp3;
#OFFSET:-0.320;
#SAMPLESTART:44.180;
#SAMPLELENGTH:15.000;
#SELECTABLE:YES;
#BPMS:0.000=93.000;
#STOPS:;
#BGCHANGES:;

//---------------dance-single - ----------------
#NOTES:
     dance-single:
     :
     Easy:
     4:
     0.227,0.242,0.173,0.311,0.000:
0000
0000
0000
0000
,
0001
0010
0001
0000
,
0100
0010
0100
0000
,
1000
1000
0100
0000
,
1000
0001
1000
0000
,
0001
0100
0010
0000
,
0010
0100
0010
0000
,
1000
0100
0010
0000
,
0100
0010
0001
0000
,
0002
0103
0002
0103
,
2000
3010
0200
0310
,
0010
1010
0000
0010
,
0000
0100
0000
0001
,
2000
3010
2000
3010
,
0002
0103
0020
0130
,
0100
0101
0000
0100
,
0000
0010
0000
0000
,
2001
3001
0010
0100
,
0120
0130
0010
0100
,
0102
0103
0001
0001
,
1000
1000
0010
0010
,
2100
3100
0010
0100
,
0120
0130
0010
0100
,
0102
0103
0010
0010
,
1000
1000
0010
0010
,
0220
0330
0000
0010
,
2002
3003
0000
0100
,
0202
0303
0000
0010
,
2020
3030
0000
1000
,
2002
3003
0000
0001
,
0100
0100
0000
0010
,
0010
0100
0000
1000
,
0100
0100
0000
0010
,
1000
0010
0000
1000
,
0010
1000
0000
0001
,
0001
0100
0000
0010
,
0100
0010
0000
0001
,
0100
0002
0000
0003
,
0100
0200
0000
0300
,
0010
0020
0000
0030
,
2002
0000
0000
3003
,
1002
1003
0100
0010
,
0210
0310
0100
0010
,
2010
3010
1000
1000
,
0001
0001
0100
0100
,
0012
0013
0100
0010
,
0210
0310
0100
0010
,
2010
3010
0100
0100
,
0001
0001
0100
0100
,
0220
0330
0000
0100
,
2002
3003
0000
0010
,
2020
3030
0000
0100
,
0202
0303
0000
0001
,
2002
0000
0000
0000
,
3003
0000
0000
0000
;

//---------------dance-single - ----------------
#NOTES:
     dance-single:
     :
     Beginner:
     1:
     0.131,0.112,0.014,0.035,0.000:
0000
0000
0000
0000
,
0000
1000
0000
1000
,
0000
0010
0000
1000
,
0000
0001
0000
0100
,
0000
0001
0000
0010
,
0000
0100
0000
1000
,
0000
0001
0000
0001
,
0000
0100
0000
0010
,
0000
0100
0000
0010
,
0000
0100
0100
0100
,
0000
0010
0010
0010
,
0000
1000
1000
1000
,
0000
1000
1000
1000
,
0000
0001
0001
0001
,
0000
0010
0010
0010
,
0000
1000
1000
1000
,
0000
0220
0000
0330
,
0000
0010
0000
0100
,
0000
0010
0000
0100
,
0000
0001
0000
1000
,
0000
1000
0000
0001
,
0000
0010
0100
0010
,
0000
1000
0010
1000
,
0000
0001
0010
0001
,
0000
1000
0001
1000
,
0000
0010
0000
0010
,
0000
1000
0000
1000
,
0000
0001
0000
0010
,
0000
0001
0000
0100
,
0000
0100
0100
0100
,
0000
0100
0100
0100
,
0000
0001
0001
0001
,
0000
0001
0001
0001
,
0000
1000
1000
1000
,
0000
1000
1000
1000
,
0000
0010
0010
0010
,
0000
0010
0010
0010
,
0000
1000
0000
0001
,
0000
1000
0000
0010
,
0000
0100
0000
0010
,
0000
0220
0000
0330
,
0000
0100
0000
0010
,
0000
0100
0000
0010
,
0000
1000
0000
0001
,
0000
0001
0000
1000
,
0000
0100
0010
0100
,
0000
0001
0100
0001
,
0000
1000
0100
1000
,
0000
0001
1000
0001
,
0000
0100
0000
0100
,
0000
0001
0000
0001
,
0000
1000
0000
0100
,
0000
1000
0000
0010
,
0020
0000
0000
0000
,
0030
0000
0000
0000
;

//---------------dance-single - ----------------
#NOTES:
     dance-single:
     :
     Medium:
     6:
     0.264,0.298,0.159,0.345,0.003:
0000
0000
0000
0000
,
0010
0000
0010
0000
,
2000
0000
0000
3001
1000
0000
0001
1000
,
0001
0000
0010
0000
,
1000
0000
1000
0000
,
0001
0000
0100
0000
,
0002
0000
0000
1003
0001
0000
0100
0010
,
0100
0000
1000
0000
,
0001
0000
0001
0000
,
0010
0100
0010
0000
0100
0010
1000
0000
,
0001
0100
0010
0000
0010
0100
0001
0000
,
0100
0000
0010
0000
,
1000
0000
0010
0000
,
1000
0010
1000
0000
0010
0100
0100
0000
,
0001
1000
0001
0000
0100
0010
1000
0000
,
0001
0000
0100
0000
,
2002
0000
0000
0000
0000
0000
3003
0000
0000
0000
0001
0000
0000
0100
0000
0000
,
0220
0000
0330
0000
0010
1000
1000
0000
,
2020
0000
3030
0000
0001
1000
0010
0000
,
0220
0000
0330
0000
1000
0001
1000
0000
,
0001
1000
0001
0000
0010
0100
0010
0000
,
2002
0000
3003
0000
0100
0010
0100
0000
,
0202
0000
0303
0000
0010
0100
0010
0000
,
0220
0000
0330
0000
0010
1000
0010
0000
,
1000
0001
0100
0000
0001
0100
0001
0000
,
2002
0000
3003
0000
0010
0100
0010
0000
,
0220
0000
0330
0000
0100
0010
0100
0000
,
2002
0000
3003
0000
0001
0100
0001
0000
,
0202
0000
0303
0000
1000
0010
1000
0000
,
2020
3030
1000
0100
,
0010
0000
0100
0100
,
0001
0000
0010
0010
,
0100
0000
1000
1000
,
0001
0000
1000
0001
,
0001
0000
0100
0010
,
0100
0000
0010
1000
,
1000
0000
1000
0010
,
1000
0000
0001
0010
,
0001
0000
0100
0010
,
1000
0000
0010
0100
,
0200
0000
0000
0020
0000
0000
0330
0000
,
0220
0000
0330
0000
0100
0001
0001
0000
,
0202
0000
0303
0000
1000
0001
0100
0000
,
0220
0000
0330
0000
0001
1000
0001
0000
,
1000
0001
1000
0000
0100
0010
0100
0000
,
2002
0000
3003
0000
0010
0100
0010
0000
,
2020
0000
3030
0000
0100
0010
0100
0000
,
0220
0000
0330
0000
0100
0001
0100
0000
,
0001
1000
0010
0000
1000
0010
1000
0000
,
2002
0000
3003
0000
0100
0010
0100
0000
,
0220
0000
0330
0000
0010
0100
0010
0000
,
2002
0000
3003
0000
1000
0010
1000
0000
,
2020
0000
3030
0000
0001
0100
0001
0000
,
0202
0000
0000
0000
,
0303
0000
0000
0000
;

//---------------dance-single - ----------------
#NOTES:
     dance-single:
     :
     Hard:
     9:
     0.428,0.447,0.193,0.345,0.349: // measure 1
0000
0000
0000
0000
,  // measure 2
1000
1010
0010
0110
,  // measure 3
0020
0000
0000
0000
0000
0030
0100
0010
0000
0000
1000
0001
0000
0001
0100
0001
,  // measure 4
0100
0010
1000
0010
,  // measure 5
1000
0100
0010
0001
,  // measure 6
0001
0101
0100
1010
,  // measure 7
0200
0000
0000
0000
0000
0300
0010
0100
0000
0000
0001
1000
0000
1000
0010
1000
,  // measure 8
0010
1000
0001
0010
,  // measure 9
0100
0000
0000
0000
0010
0000
0000
0000
0001
0000
0000
0000
1000
0000
0010
1000
,  // measure 10
0010
0000
0100
0000
0010
0000
0100
0010
0100
0000
0010
0000
1000
0000
0001
0100
,  // measure 11
0010
0000
0100
0000
0001
0000
1000
0010
0100
0000
0010
0000
1000
0000
0001
1000
,  // measure 12
0000
0000
0000
0000
0001
0000
0000
0000
0001
0010
0100
1000
0010
0000
1000
0001
,  // measure 13
0000
0000
0000
0000
0100
0000
0000
0000
0010
0000
0000
0000
0001
0000
0100
0001
,  // measure 14
0100
0000
0010
0000
0100
0000
0010
0100
0010
0000
0100
0000
0001
0000
1000
0010
,  // measure 15
0100
0000
0010
0000
1000
0000
0001
0100
0010
0000
0100
0000
0001
0000
1000
0001
,  // measure 16
0000
0000
0000
0000
1000
0000
0000
0000
1000
0100
0010
0001
0100
0000
0001
1000
,  // measure 17
0000
0000
0000
0000
0000
0000
0000
0000
0000
0000
0100
0000
0000
0010
0000
0000
,  // measure 18
0220
0000
0000
0000
0330
0000
0000
0000
0100
0000
0000
0010
0000
1000
0000
0000
,  // measure 19
2002
0000
0000
0000
3003
0000
0000
0000
0001
0000
0100
0001
0000
0100
0000
0000
,  // measure 20
0202
0000
0000
0000
0303
0000
0001
0100
0001
0100
0010
0000
1000
0000
0010
1000
,  // measure 21
0010
1000
0010
0000
0100
0000
0010
0100
0001
0100
0010
0000
1000
0000
0010
0000
,  // measure 22
2020
0000
0000
0000
3030
0000
1000
0010
1000
0000
0001
0100
0000
0100
0000
0000
,  // measure 23
0202
0000
0000
0000
0303
0000
0001
0100
0010
0000
0010
1000
0000
1000
0000
0000
,  // measure 24
2002
0000
0000
0000
3003
0000
1000
0010
1000
0001
0100
0000
0001
0000
0001
1000
,  // measure 25
0010
1000
0001
0000
0100
0000
0010
1000
0100
1000
0010
0000
0100
0000
0000
0000
,  // measure 26
0220
0000
0000
0000
0330
0000
0010
0100
0000
0100
0010
0100
0000
0001
1000
0000
,  // measure 27
2002
0000
0000
0000
3003
0000
1000
0001
0000
0001
1000
0001
0000
1000
0001
0000
,  // measure 28
0202
0000
0000
0000
0303
0000
0001
0100
0000
0100
0001
0100
0000
0001
0100
0000
,  // measure 29
2020
0000
0000
0000
3030
0000
1000
0010
0000
0010
1000
0010
1000
0001
0100
0000
,  // measure 30
2002
0000
3003
0000
0001
0100
0001
0000
,  // measure 31
0100
0010
0100
0000
1000
0010
1000
0000
,  // measure 32
1000
0100
0010
0000
0010
0100
1000
0000
,  // measure 33
0001
0100
0010
0000
0100
0010
0001
0000
,  // measure 34
0100
0010
1000
0000
1000
0010
1000
0000
,  // measure 35
0010
0100
0010
0000
0001
0100
0001
0000
,  // measure 36
0001
0010
0100
0000
0100
0010
0001
0000
,  // measure 37
1000
0010
0100
0000
0010
0100
1000
0000
,  // measure 38
2002
0000
0000
3003
,  // measure 39
0001
0001
0001
0000
1000
1000
1000
0000
,  // measure 40
0001
1000
0001
0000
1000
0010
1000
0000
,  // measure 41
2002
0000
0000
0000
0000
0000
0000
3003
,  // measure 42
0220
0000
0000
0000
0330
0000
0000
0000
0010
0000
0000
0100
0000
0001
0000
0000
,  // measure 43
2002
0000
0000
0000
3003
0000
0000
0000
1000
0000
0010
1000
0000
0010
0000
0000
,  // measure 44
2020
0000
0000
0000
3030
0000
1000
0010
1000
0010
0100
0000
0001
0000
0100
0001
,  // measure 45
0100
0001
0100
0000
0010
0000
0100
0010
1000
0010
0100
0000
0001
0000
0100
0000
,  // measure 46
0202
0000
0000
0000
0303
0000
0001
0100
0001
0000
1000
0010
0000
0010
0000
0000
,  // measure 47
2020
0000
0000
0000
3030
0000
1000
0010
0100
0000
0100
0001
0000
0001
0000
0000
,  // measure 48
2002
0000
0000
0000
3003
0000
0001
0100
0001
1000
0010
0000
1000
0000
1000
0001
,  // measure 49
0100
0001
1000
0000
0010
0000
0100
0001
0010
0001
0100
0000
0010
0000
0000
0000
,  // measure 50
0220
0000
0000
0000
0330
0000
0100
0010
0000
0010
0100
0010
0000
1000
0001
0000
,  // measure 51
2002
0000
0000
0000
3003
0000
0001
1000
0000
1000
0001
1000
0000
0001
1000
0000
,  // measure 52
2020
0000
0000
0000
3030
0000
1000
0010
0000
0010
1000
0010
0000
1000
0010
0000
,  // measure 53
0202
0000
0000
0000
0303
0000
0001
0100
0000
0100
0001
0100
0001
1000
0010
0000
,  // measure 54
2002
0000
0000
0000
,  // measure 55
3003
0000
0000
0000
;
