#TITLE:Alcohol-Free;
#SUBTITLE:;
#ARTIST:TWICE;
#TITLETRANSLIT:;
#SUBTITLETRANSLIT:;
#ARTISTTRANSLIT:;
#CREDIT:;
#BANNER:Alcohol-Free.png;
#BACKGROUND:Alcohol-Free-bg.png;
#LYRICSPATH:;
#CDTITLE:;
#MUSIC:Alcohol-Free.mp3;
#OFFSET:-0.740;
#SAMPLESTART:48.620;
#SAMPLELENGTH:15.000;
#SELECTABLE:YES;
#BPMS:0.000=97.000;
#STOPS:;
#BGCHANGES:;

//---------------dance-single - ----------------
#NOTES:
     dance-single:
     :
     Easy:
     4:
     0.175,0.237,0.053,0.046,0.004:
0000
0000
0000
0000
,
0000
0000
0000
0000
,
0000
0000
0000
0000
,
0000
0000
0000
0000
,
0001
1000
0001
0000
,
1000
0010
0100
0000
,
0010
1000
0010
0000
,
0100
0010
0001
0000
,
0001
0010
1000
0000
,
1000
0010
1000
0000
,
1000
0100
0010
0000
,
1000
0100
0010
0000
,
1001
0001
0010
0100
,
1000
0000
0010
0000
,
0100
0010
0100
0010
,
1000
0000
0010
0000
,
0100
0001
0010
1000
,
0100
0010
0100
0010
,
1001
0000
0010
0000
,
0220
0000
0330
0000
,
1000
0010
1000
0000
,
0001
0100
0001
0000
,
0010
1000
0010
0000
,
0100
0001
0100
0000
,
0001
1000
0001
0000
,
1000
0010
1000
0000
,
0001
0100
0010
0000
,
1000
0010
0100
0000
,
0010
0100
0000
0010
,
0100
0010
0000
0000
,
1000
0001
0000
0001
,
1000
0001
0000
0000
,
0001
0100
0001
0000
,
1000
0010
1000
0000
,
0001
0010
0100
1000
,
0001
1000
0010
0000
,
0001
0100
0001
0000
,
1000
0010
1000
0000
,
0100
0001
0100
0000
,
0010
1000
0010
0000
,
1000
0001
1000
0000
,
0001
0100
0001
0000
,
1000
0010
0100
0000
,
0001
0100
0010
0000
,
1000
1000
0000
0000
0001
0001
0000
0000
,
0100
0100
0000
0000
0010
0010
0000
0000
,
0100
0100
0000
0000
0001
0001
0000
0000
,
1000
1000
0000
0000
0001
1000
0000
0000
,
0010
0210
0310
0000
,
1000
1002
1003
0000
,
0010
2010
3010
0000
,
0010
0000
0000
0000
0012
0000
0000
0000
0013
0000
0000
0010
0000
0000
0010
0000
;

//---------------dance-single - ----------------
#NOTES:
     dance-single:
     :
     Beginner:
     1:
     0.140,0.197,0.061,0.030,0.000:
0000
0000
0000
0000
,
0000
0000
0000
0000
,
0000
0000
0000
0000
,
0000
0000
0000
0000
,
0000
0010
0000
1000
,
0000
0001
0000
0001
,
0000
0100
0000
0010
,
0000
0100
0000
0010
,
0000
1000
0000
1000
,
0000
0001
0000
0001
,
0000
0100
0000
0010
,
0000
1000
0000
0000
,
0010
0010
0010
0000
,
1000
1000
1000
0000
,
0001
0001
0001
0000
,
0010
0010
0010
0000
,
1000
1000
1000
0000
,
0100
0100
0100
0000
,
0020
0000
0000
0030
,
0100
0010
0100
0110
,
1001
0001
0000
1000
,
0000
0010
0000
0100
,
0010
0100
0000
0010
,
0000
1000
0000
1001
,
0110
0100
0000
0001
,
0000
1000
0000
0010
,
1000
0010
0000
1000
,
0000
0001
0000
0100
,
0000
0010
0000
1000
,
0000
0001
0000
0100
,
0000
0001
0000
1000
,
0000
0001
0000
0100
,
0100
0100
0000
0001
,
1000
0001
0000
1000
,
1000
1000
0000
1000
,
0010
1000
0010
0110
,
1001
1000
0000
0001
,
0000
0100
0000
0010
,
0100
0010
0000
0100
,
0000
0001
0000
1001
,
0110
0010
0000
1000
,
0000
0001
0000
0100
,
0001
0100
0000
0001
,
0000
1000
0000
0010
,
0000
1000
1000
1000
,
0000
0001
0001
0001
,
0000
1000
1000
1000
,
0000
0010
0010
0010
,
0000
0200
0000
0300
,
0000
0200
0000
0300
,
0000
0020
0000
0030
,
0000
0010
0010
0010
;

//---------------dance-single - ----------------
#NOTES:
     dance-single:
     :
     Medium:
     6:
     0.264,0.296,0.129,0.152,0.080:
0000
0000
0000
0000
,
0000
0000
0000
0000
,
0000
0000
0000
0000
,
0000
0000
0000
0000
0000
0000
0010
1000
0010
0000
0010
1000
0000
0010
0000
2000
,
0000
3000
0000
0001
,
0000
0000
0000
0000
0000
0000
0100
0001
0100
0000
0100
0001
0000
0100
0000
0002
,
0000
0003
0000
1000
,
0000
0000
0000
0000
0000
0000
1000
0001
1000
0000
0001
1000
0000
0001
0000
0200
,
0000
0300
0000
0001
,
0000
0000
0000
0000
0000
0000
1000
0010
1000
0000
0010
1000
0000
0010
0000
0200
,
0000
0300
0000
0010
,
0000
1000
0000
0001
,
0101
0100
0110
0010
,
1010
1000
1001
0001
,
2002
3003
0220
0330
,
2002
3003
1000
0100
,
0010
0000
0100
0000
,
1001
0000
0101
0000
,
2020
0000
0000
3030
,
1000
0100
0010
0001
0100
0001
0001
0010
,
0100
1000
0000
0000
1000
0000
0000
0000
0001
0000
0001
0000
1000
0000
0000
0000
,
0002
0010
0013
0010
,
1000
0010
1000
0000
0001
0100
0001
0000
,
2000
0000
0010
0000
3010
1000
0100
0010
,
0001
0100
0000
0000
0010
0000
0000
0000
0100
0000
0010
0000
0100
0000
0000
0000
,
0020
0100
0130
0100
,
0001
1000
0010
0000
1000
0001
0100
0000
,
0001
1000
0001
1000
,
1010
0010
0100
0001
,
0000
1000
0010
1000
,
0000
0100
0010
0001
,
0000
0001
0100
1000
,
1001
0001
0100
0010
,
0000
0010
0100
0001
,
0000
1000
0001
0100
,
0000
0000
1000
0000
0010
1000
1000
0100
,
0010
0001
0000
0000
0001
0000
0000
0000
1000
0000
1000
0000
0001
0000
0000
0000
,
2000
0100
3100
0100
,
0001
0100
0001
0000
1000
0010
1000
0000
,
0002
0000
0100
0000
0103
0001
0010
0100
,
1000
0010
0000
0000
0100
0000
0000
0000
0010
0000
0100
0000
0010
0000
0000
0000
,
0200
0010
0310
0010
,
1000
0001
0100
0000
0001
1000
0010
0000
,
1000
0001
1000
0001
,
0100
0001
0000
0000
0100
0001
0000
0000
,
0100
0010
0000
0000
0010
0100
0000
0000
,
0010
1000
0000
0000
0010
1000
0000
0000
,
1000
0010
0000
0000
0100
0001
0000
0000
,
1001
0001
2000
0000
0000
0000
0000
0000
,
3010
1000
0010
0000
0100
0010
0100
0000
,
1001
1000
0002
0000
0000
0000
0000
0000
,
0103
0000
0001
0000
0100
0000
0000
0000
0110
0000
0000
0110
0000
0000
1001
0000
;

//---------------dance-single - ----------------
#NOTES:
     dance-single:
     :
     Hard:
     14:
     0.500,0.493,0.167,0.319,0.616: // measure 1
0000
0000
0000
0000
,  // measure 2
0000
0000
0000
0000
,  // measure 3
0000
0000
0000
0000
,  // measure 4
1001
0000
0000
0000
0000
0000
0001
0100
0010
0000
0100
0010
0000
1000
0000
0001
,  // measure 5
1000
0000
0010
0000
1000
0010
0000
1000
0010
0000
0100
0000
0010
0100
0000
0100
,  // measure 6
0010
0000
0100
0000
0001
0100
0000
0100
0010
0000
0010
0100
0000
0100
0000
0000
,  // measure 7
0010
0000
1000
0000
0010
1000
0000
1000
0010
0000
0100
0000
0001
0000
0000
0100
,  // measure 8
0001
0000
1000
0000
0010
1000
0000
0010
0100
0000
0010
0100
0000
0001
0000
0000
,  // measure 9
1000
0010
0100
0010
1000
0001
0100
0001
0100
0010
0100
0001
1000
0010
1000
0000
,  // measure 10
0001
0000
0000
0000
0000
0000
0010
0100
0010
0000
0100
0010
0000
0100
0000
0020
,  // measure 11
0000
0000
0000
0000
1030
0010
0000
0010
1000
0000
0010
0000
0100
0000
0000
0010
,  // measure 12
1000
0000
0010
0000
1000
0010
0000
0010
0100
0000
0001
1000
0000
0010
0000
1000
,  // measure 13
0000
0000
0000
0000
0010
0000
1000
0001
1000
0000
0001
0100
0000
0001
0000
2000
,  // measure 14
0000
0000
3000
0000
0000
0000
0010
0100
0010
0000
1000
0001
0000
0100
0000
0001
,  // measure 15
0000
0000
0000
0000
0100
0000
0001
1000
0001
0000
1000
0010
0000
1000
0000
0002
,  // measure 16
0000
0000
0003
0000
1000
0000
0010
1000
0001
0000
0100
0001
0000
1000
0000
0020
,  // measure 17
0000
0000
0030
0000
0100
0000
0010
0100
0010
0000
1000
0010
0000
0100
0000
0000
,  // measure 18
0011
0110
1100
1010
,  // measure 19
1001
0000
2002
0000
0000
3003
0010
0100
,  // measure 20
0010
1000
0010
1000
0001
0100
0001
0100
0001
0000
0010
0000
1000
0000
0010
1000
,  // measure 21
0010
1000
0000
0000
2000
0000
0000
0000
3020
0000
0000
0130
0000
0000
0220
0000
,  // measure 22
0000
0000
0000
0000
0330
0000
1000
0010
0100
0000
0010
1000
0000
1000
0000
0001
,  // measure 23
1000
0000
0010
0000
0200
0000
0000
0000
0302
0000
0000
0103
0000
0000
2020
0000
,  // measure 24
0000
0000
3030
0000
0000
0000
1000
0010
1000
0000
0100
0000
0001
0000
0100
0001
,  // measure 25
0100
0001
0000
0000
0002
0000
0000
0000
0203
0000
0000
0310
0000
0000
0220
0000
,  // measure 26
0000
0000
0000
0000
0330
0000
0001
0100
0010
0000
0100
0001
0000
0001
0000
1000
,  // measure 27
0001
0100
0020
1000
2030
0000
3010
0202
,  // measure 28
0000
0000
0303
0000
0000
0000
0000
0000
0000
0001
1000
0010
1000
0001
0100
0001
,  // measure 29
1000
0000
0100
0000
1000
0100
0000
0000
0000
0001
1000
0010
1000
0001
0100
0010
,  // measure 30
0100
0010
1000
0001
0100
0001
0000
0000
0000
1000
0010
1000
0001
0100
0001
1000
,  // measure 31
0010
0100
0010
0000
0000
0000
0000
0000
0000
0001
1000
0010
1000
0001
1000
0010
,  // measure 32
0001
0010
1000
0000
0000
0000
0000
0000
1000
0000
0001
1000
0001
1000
0010
1000
,  // measure 33
0001
0100
0001
0000
0000
0000
0000
0000
0001
0000
1000
0001
1000
0001
0100
0001
,  // measure 34
1000
0010
1000
0000
0000
0000
0000
0000
0100
0000
0010
0100
0010
1000
0001
0100
,  // measure 35
0010
1000
0010
0000
0000
0000
0000
0000
0010
0100
0010
0000
0110
0000
0100
0000
,  // measure 36
1000
0001
1000
0001
1000
0010
1000
0010
1000
0000
0100
0000
0001
0000
0100
0001
,  // measure 37
0100
0001
0000
0000
0002
0000
0000
0000
0203
0000
0000
0310
0000
0000
0220
0000
,  // measure 38
0000
0000
0000
0000
0330
0000
0001
0100
0010
0000
0100
0001
0000
0001
0000
1000
,  // measure 39
0001
0000
0100
0000
0020
0000
0000
0000
2030
0000
0000
3010
0000
0000
0202
0000
,  // measure 40
0000
0000
0303
0000
0000
0000
0001
0100
0001
0000
0010
0000
1000
0000
0010
1000
,  // measure 41
0010
1000
0000
0000
2000
0000
0000
0000
3020
0000
0000
0130
0000
0000
0220
0000
,  // measure 42
0000
0000
0000
0000
0330
0000
1000
0010
0100
0000
0010
1000
0000
1000
0000
0001
,  // measure 43
1000
0010
0200
0001
0302
0000
0103
2020
,  // measure 44
0000
0000
3030
0000
0000
0000
1000
0001
1000
0001
1000
0001
1000
0001
1000
0000
,  // measure 45
0010
0000
0110
0000
0000
1000
0000
1001
0000
0000
0001
0000
1000
0010
0000
0100
,  // measure 46
0010
0000
0100
0000
0000
0001
0000
1000
0001
0000
0100
0000
0000
0010
0000
0000
,  // measure 47
0100
0000
0110
0000
0000
0001
0000
1001
0000
0000
1000
0000
0001
0100
0000
0010
,  // measure 48
0100
0000
0010
0000
0010
1000
0000
0001
1000
0000
0010
0000
0000
1000
0000
0000
,  // measure 49
0010
0000
1000
0020
0000
0000
0000
0000
0000
0000
0000
0000
1030
0010
1000
0020
,  // measure 50
0000
0000
0000
0000
1030
0010
1000
0001
0200
0000
0000
0000
0300
0001
0000
0000
,  // measure 51
0100
0000
0001
0200
0000
0000
0000
0000
0000
0000
0000
0000
0301
0100
0001
0100
,  // measure 52
0001
0000
1000
0000
0010
1000
0000
1000
0010
0000
0000
0110
0000
0000
0110
0000
;
