#TITLE:Ah-Ah;
#SUBTITLE:;
#ARTIST:TEEN TOP;
#TITLETRANSLIT:;
#SUBTITLETRANSLIT:;
#ARTISTTRANSLIT:;
#CREDIT:;
#BANNER:Ah-Ah.png;
#BACKGROUND:Ah-Ah-bg.png;
#LYRICSPATH:;
#CDTITLE:;
#MUSIC:Ah-Ah.mp3;
#OFFSET:-0.820;
#SAMPLESTART:45.100;
#SAMPLELENGTH:15.000;
#SELECTABLE:YES;
#BPMS:0.000=128.000;
#STOPS:;
#BGCHANGES:;

//---------------dance-single - ----------------
#NOTES:
     dance-single:
     :
     Easy:
     5:
     0.224,0.260,0.043,0.085,0.004:
0000
0000
0000
0000
,
0000
0000
0000
0000
,
0000
0000
0000
0000
,
0000
0000
0000
1001
,
0100
1000
0000
0010
,
0100
0010
0000
0001
,
0010
0001
0000
0100
,
0010
0100
0010
0000
0000
0000
0010
0000
,
1000
0010
0000
0100
,
0010
0001
0000
0100
,
1000
0001
0000
0001
,
1000
0010
0000
0100
,
0010
0010
0000
0001
,
0100
0010
0000
1000
,
0001
1000
0000
0010
,
0100
0001
0000
1000
,
0100
1000
0000
0001
,
0010
0001
0000
0100
,
0010
1000
0000
0010
,
1000
0001
0000
0100
,
1000
0001
0000
0010
,
0001
0100
0000
0001
,
0100
1000
0000
1000
,
2020
3030
0000
1001
,
0010
0100
0000
0010
,
0100
0001
0000
0001
,
0100
1000
0000
1000
,
0010
0001
0000
0001
,
0100
0010
0000
0100
,
0010
1000
0000
1000
,
0010
0001
0000
0001
,
0100
1000
0000
1000
,
0001
1000
0000
0010
,
0100
0010
0000
0100
,
0010
0100
0000
0100
,
0001
0100
0000
1000
,
0010
1000
0000
0001
,
0100
1000
0000
1000
,
0010
0100
0000
0001
,
0100
0010
0100
0000
0000
0000
1000
0000
,
0020
0000
1030
0000
,
0200
0000
0301
0000
,
0002
0000
0013
0000
,
2000
0000
3100
0000
,
2020
0000
3030
0000
,
0022
0000
0033
0000
,
2200
0000
3300
0000
,
0001
0000
0000
0100
,
0001
0100
0000
0010
,
0001
0100
0000
0010
,
1000
0010
0000
0001
,
1000
0100
0000
1000
,
0100
0010
0000
0001
,
0100
0010
0000
1000
,
0010
0001
0000
0010
,
0001
0100
0000
0100
,
0010
1000
0010
0000
0000
0000
0010
0000
,
1000
0001
0000
1000
,
0001
0010
0000
0010
,
0001
0100
0000
0100
,
1000
0010
0000
0010
,
0001
1000
0000
0001
,
1000
0100
0000
0100
,
1000
0010
0000
0010
,
0001
0100
0000
0100
,
0010
0100
0000
1000
,
0001
1000
0000
0001
,
1000
0001
0000
0001
,
0010
0001
0000
0100
,
1000
0100
0000
0010
,
0001
0100
0000
0100
,
1000
0001
0000
0010
,
0001
0000
1000
0000
0001
0000
0000
0000
0100
0000
0000
0100
0000
0000
0100
0000
;

//---------------dance-single - ----------------
#NOTES:
     dance-single:
     :
     Beginner:
     3:
     0.166,0.157,0.028,0.071,0.000:
0000
0000
0000
0000
,
0000
0000
0000
0000
,
0000
0000
0000
0000
,
0000
0000
0000
0000
,
0000
1000
0000
1000
,
0000
0001
0000
0001
,
0000
0100
0000
0010
,
0000
0010
0000
0001
,
0000
1000
0000
0010
,
0000
1000
0000
0010
,
0000
0100
0000
0001
,
0000
0010
0000
0001
,
0000
0001
0001
0001
,
0000
1000
1000
1000
,
0000
0100
0000
0010
,
0000
1000
0000
0010
,
0000
0100
0000
0010
,
0000
0001
0000
0100
,
0000
0001
0000
0100
,
0000
0010
0000
0001
,
0000
1000
0000
0010
,
0000
0100
0000
0010
,
0000
0100
0000
1000
,
2000
3000
0000
1001
,
0000
0010
0100
0010
,
0000
1000
0010
1000
,
0000
0001
1000
0001
,
0000
0010
0001
0010
,
0000
0100
0010
0100
,
0000
0010
1000
0010
,
0000
1000
0001
1000
,
0000
0100
1000
0100
,
0000
0010
0000
0100
,
0000
0010
0000
1000
,
0000
0001
0000
0100
,
0000
0001
0000
0100
,
0000
0001
0000
1000
,
0000
0010
0000
1000
,
0000
0010
0000
0100
,
0000
0110
0000
0010
,
0020
0000
0030
0000
,
0020
0000
0030
0000
,
0002
0000
0003
0000
,
2000
0000
3000
0000
,
0200
0000
0300
0000
,
0200
0000
0300
0000
,
0020
0000
0030
0000
,
0002
0000
0003
0000
,
1000
0000
1000
0000
,
0001
0000
0001
0000
,
0100
0000
0100
0000
,
0001
0000
0001
0000
,
0010
0000
0010
0000
,
1000
0000
1000
0000
,
0001
0000
0001
0000
,
0100
0000
0100
0000
,
0000
0110
0000
0010
,
0000
0100
0010
0100
,
0000
0001
0100
0001
,
0000
1000
0001
1000
,
0000
0100
1000
0100
,
0000
0010
0100
0010
,
0000
0100
0001
0100
,
0000
0001
1000
0001
,
0000
0010
0001
0010
,
0000
0100
0000
0010
,
0000
0100
0000
0001
,
0000
1000
0000
0010
,
0000
1000
0000
0010
,
0000
1000
0000
0001
,
0000
0100
0000
0001
,
0000
0100
0000
0010
,
0000
0110
0000
0100
,
0200
0300
0000
0000
;

//---------------dance-single - ----------------
#NOTES:
     dance-single:
     :
     Medium:
     8:
     0.358,0.337,0.021,0.050,0.057:
0000
0000
0000
0000
,
0000
0000
0000
0000
,
0000
0000
0000
0000
,
0000
0000
0000
0000
,
0110
0000
0100
0010
0000
0100
0010
0000
,
1000
0000
0001
1000
0000
1000
0010
0000
,
0100
0000
0001
0010
0000
0100
1000
0000
,
0010
0000
1000
0000
0010
0000
0000
0000
0100
0000
0000
0100
0000
0000
0100
0000
,
0000
0000
0100
0010
0000
0010
1000
0000
,
1000
0000
1000
0100
0000
0010
0001
0000
,
0001
0000
0100
0001
0000
0010
1000
0000
,
0100
0000
0010
1000
0000
0100
0001
0000
,
0100
0000
0010
0001
0000
0100
0010
0000
,
1000
0000
0010
0100
0000
0010
0001
0000
,
1000
0000
0010
1000
0000
0001
0010
0000
,
0001
0000
0001
0010
0000
0010
0001
0000
,
0100
0000
0010
1000
0001
0000
0100
0000
,
0001
0000
0100
0010
1000
0000
0010
0000
,
0001
0000
1000
0100
0010
0000
0001
0000
,
0010
0000
0001
1000
0100
0000
1000
0000
,
0010
0000
0100
0001
1000
0000
0010
0000
,
1000
0000
0010
0100
0001
0000
0100
0000
,
1000
0000
0001
0010
0100
0000
1000
0000
,
2200
3300
0000
0101
,
0001
0000
0100
0001
0000
0001
0100
0000
,
0010
0000
0010
1000
0000
0010
1000
0000
,
0100
0000
1000
0100
0000
0100
1000
0000
,
0001
0000
1000
0000
0001
0000
0000
0000
0100
0000
0000
0010
0000
0000
0001
0000
,
0010
0000
0001
0010
0000
0010
0001
0000
,
1000
0000
1000
0100
0000
1000
0100
0000
,
0001
0000
0100
0001
0000
0001
0100
0000
,
0010
0000
0100
0000
0010
0000
0000
0000
0001
0000
0000
1000
0000
0000
0010
0000
,
0000
0000
0000
0010
0100
0010
0100
0010
,
0000
0100
0010
0001
0000
1000
0010
0100
,
0000
0001
1000
0001
0000
0100
0001
1000
,
0000
0000
0010
0000
1000
0000
0001
0000
1000
0000
0000
0010
0000
0000
1000
0000
,
0010
0000
1000
0010
0000
0010
0100
0000
,
0001
0000
0100
0001
0000
0010
1000
0000
,
0010
0000
0100
0010
0000
0010
1000
0000
,
0010
0000
0100
0000
0010
0000
0000
0000
0100
0000
0000
0010
0000
0000
0001
0000
,
1000
0000
0000
1000
0000
0000
0000
0000
0010
0000
0000
0010
0000
0000
0000
0000
,
0100
0000
0000
0100
0000
0000
0100
0000
0000
0000
0001
0000
0000
0000
0000
0000
,
0100
0000
0000
0100
0000
0000
0000
0000
1000
0000
0000
1000
0000
0000
0000
0000
,
0001
0000
0000
0001
0000
0000
0001
0000
0000
0000
0010
0000
0000
0000
0002
0000
,
0000
0000
0000
2003
0000
0000
0000
3020
,
0000
0000
0000
0230
0000
0000
0000
0320
,
0000
0000
0000
0030
0000
0000
0100
0100
,
0100
0010
1000
0001
,
0100
0000
0001
0100
0010
0000
0100
0000
,
0010
0000
1000
0010
0001
0000
0001
0000
,
0100
0000
0010
1000
0001
0000
0100
0000
,
0001
0000
1000
0010
1000
0000
0001
0000
,
0100
0000
0001
0010
0100
0000
1000
0000
,
0010
0000
1000
0100
0010
0000
0010
0000
,
1000
0000
0001
1000
0001
0000
0100
0000
,
0010
0000
0100
0010
0100
0000
0010
0000
,
1000
0000
0010
0000
0001
0000
0000
0000
0100
0000
0000
0001
0000
0000
1000
0000
,
0010
0000
0001
0010
0000
0010
0001
0000
,
1000
0000
1000
0100
0000
1000
0100
0000
,
0001
0000
0100
0001
0000
0001
0100
0000
,
0010
0000
0100
0000
0010
0000
0000
0000
0001
0000
0000
1000
0000
0000
0010
0000
,
1000
0000
0010
1000
0000
1000
0010
0000
,
0100
0000
0100
0001
0000
0100
0001
0000
,
0010
0000
0001
0010
0000
0010
0001
0000
,
1000
0000
0001
0000
1000
0000
0000
0000
0010
0000
0000
0100
0000
0000
1000
0000
,
0000
0000
0000
1000
0001
1000
0001
1000
,
0000
0001
1000
0010
0000
0100
1000
0001
,
0000
0010
0100
0010
0000
0001
0010
0100
,
0000
0000
1000
0000
0100
0000
0010
0000
0100
0000
0000
1000
0000
0000
0100
0000
,
1000
0000
0100
1000
0000
1000
0001
0000
,
0010
0000
0001
0010
0000
1000
0100
0000
,
1000
0000
0001
1000
0000
1000
0100
0000
,
1000
0000
0001
0000
1000
0000
0000
0000
0001
0000
0000
1000
0000
0000
0010
0000
;

//---------------dance-single - ----------------
#NOTES:
     dance-single:
     :
     Hard:
     13:
     0.471,0.467,0.043,0.185,0.192: // measure 1
0000
0000
0000
0000
,  // measure 2
0000
0000
0000
0000
,  // measure 3
0000
0000
0000
0000
,  // measure 4
0000
0000
0000
1001
,  // measure 5
0001
0000
0100
0010
0000
0010
1000
0000
,  // measure 6
0010
0000
1000
0001
0000
0001
0100
0000
,  // measure 7
0001
0000
0001
0010
0000
0100
1000
0000
,  // measure 8
1000
0000
0010
0000
0001
0000
0000
0000
0100
0000
0000
0001
0000
0000
1000
0000
,  // measure 9
0010
0000
1000
0000
0010
0000
0100
0000
0001
0000
0100
0001
0000
1000
0000
0010
,  // measure 10
0000
0000
0000
0000
0100
0000
0010
0000
0001
0000
0000
0000
0001
0100
0000
0010
,  // measure 11
0000
0000
0010
0000
1000
0000
0001
0000
0100
0000
0001
1000
0000
0010
0000
0001
,  // measure 12
0000
0000
0010
0100
1000
0010
0100
0001
,  // measure 13
0000
0000
1000
0000
0010
0000
0001
0000
0010
0000
1000
0000
0010
0000
0000
0100
,  // measure 14
0000
0000
0010
0000
0001
0000
0100
0000
1000
0000
0010
0000
0100
0000
0000
0010
,  // measure 15
0000
0000
0000
0000
0010
0001
0000
0010
0000
0000
0000
0000
0100
0010
0000
1000
,  // measure 16
0000
0010
1000
0001
0000
0100
0010
0002
,  // measure 17
0000
1003
0001
0100
1000
0100
0010
0001
,  // measure 18
0000
0000
0001
1000
0010
0000
0100
0000
1000
0000
0001
1000
0001
0000
0100
0000
,  // measure 19
0000
0001
0010
0100
1000
0100
1000
0010
,  // measure 20
0000
0000
0100
0001
1000
0000
0010
0000
0100
0000
0010
0100
0001
0000
0100
0000
,  // measure 21
0000
0001
1000
0010
0001
0010
0100
1000
,  // measure 22
0000
0000
1000
0001
0100
0000
0010
0000
0001
0000
1000
0001
1000
0000
0010
0000
,  // measure 23
0000
1000
0100
0010
0001
0010
0001
0100
,  // measure 24
0000
0000
0010
1000
0001
0000
0100
0000
0010
0000
0100
0010
1000
0000
0010
0000
,  // measure 25
2000
0000
3010
0100
0000
0010
0001
0010
,  // measure 26
0002
0000
0103
0001
0000
1000
0010
0100
,  // measure 27
0020
0000
0130
0010
0000
0010
1000
0010
,  // measure 28
0100
0000
0010
0000
0001
0000
0000
0000
0001
0000
0000
0010
0000
0000
0100
0000
,  // measure 29
0200
0000
1300
0001
0000
1000
0010
1000
,  // measure 30
0020
0000
0130
0010
0000
0100
1000
0001
,  // measure 31
2000
0000
0000
0000
3001
0000
1000
0000
0010
0000
1000
0000
0100
0000
1000
0010
,  // measure 32
0000
0000
0100
0000
0010
0000
0001
0000
0010
0000
0000
0000
1000
0010
0000
1000
,  // measure 33
0000
0010
0000
0100
0100
0010
1000
0100
,  // measure 34
0000
0000
0010
0000
0100
0000
0001
0000
0000
0000
0001
0000
1000
0001
0000
1000
,  // measure 35
0000
0001
0000
0000
0000
0100
0001
0100
,  // measure 36
0000
0010
0100
1000
0000
1000
0010
1000
,  // measure 37
0002
0000
0103
0001
0000
1000
0010
1000
,  // measure 38
0020
0000
0130
0010
0000
1000
0001
1000
,  // measure 39
0002
0000
1003
0010
2000
0000
3010
0000
,  // measure 40
0100
0000
0010
0000
1001
0000
0000
0000
1000
0000
0000
0100
0000
0000
0010
0000
,  // measure 41
0001
0000
0000
0001
0000
0000
0000
0000
1000
0000
0000
1000
0000
0000
0000
0000
,  // measure 42
0001
0000
0000
1000
0000
0000
0010
0000
0000
0000
0100
0000
0000
0000
0000
0000
,  // measure 43
0010
0000
0000
0100
0000
0000
0000
0000
0100
0000
0000
0001
0000
0000
0000
0000
,  // measure 44
1000
0000
0000
0001
0000
0000
0100
0000
0000
0000
0001
0000
0000
0000
2000
0000
,  // measure 45
0000
0000
0000
3002
0000
0000
0000
0023
,  // measure 46
0000
0000
0000
0230
0000
0000
0000
2300
,  // measure 47
0000
0000
0000
3000
0000
0000
1000
0100
,  // measure 48
0010
0000
0001
0000
0100
0010
0001
0100
,  // measure 49
0001
0000
0100
0000
0010
0000
1000
0000
0001
0000
0100
0001
0100
0000
0010
0000
,  // measure 50
0000
0000
1000
0000
0001
0000
0100
0000
0010
0000
0000
0000
0100
0000
0000
0010
,  // measure 51
0000
0000
1000
0010
1000
0010
0100
0000
0001
0000
0000
0000
0001
0100
0000
0001
,  // measure 52
0000
0000
0001
0000
0100
0000
0010
0000
1000
0010
1000
0001
0100
0000
0010
0000
,  // measure 53
0000
1000
0100
0010
0001
0100
0001
1000
,  // measure 54
0000
0001
1000
0001
0100
0001
0010
0001
,  // measure 55
0000
0000
0001
1000
0100
0000
0000
0000
0100
0000
0001
1000
0100
0000
0000
0000
,  // measure 56
1000
0010
1000
0001
0100
0001
1000
0110
,  // measure 57
0000
0000
0010
0000
0100
0000
0000
0000
0010
0000
0000
0001
0000
0000
1000
0000
,  // measure 58
0002
0000
0103
0010
0000
0100
1000
0100
,  // measure 59
2000
0000
3010
1000
0000
0001
0100
0010
,  // measure 60
0200
0000
0310
0100
0000
0100
0001
0100
,  // measure 61
0010
0000
0100
0000
1000
0000
0000
0000
1000
0000
0000
0100
0000
0000
0010
0000
,  // measure 62
0020
0000
0031
1000
0000
0001
0100
0001
,  // measure 63
0200
0000
0310
0100
0000
0010
0001
1000
,  // measure 64
0002
0000
0000
0000
1003
0000
0001
0000
0100
0000
0001
0000
0010
0000
0001
0100
,  // measure 65
0000
0000
0010
0000
0100
0000
1000
0000
0100
0000
0000
0000
0001
0100
0000
0001
,  // measure 66
0000
0100
0000
0010
0010
0100
0001
0010
,  // measure 67
0000
0000
0100
0000
0010
0000
1000
0000
0000
0000
1000
0000
0001
1000
0000
0001
,  // measure 68
0000
1000
0000
0000
0000
0010
1000
0010
,  // measure 69
0000
0100
0010
0001
0000
0001
0100
0001
,  // measure 70
2000
0000
3010
1000
0000
0001
0100
0001
,  // measure 71
0200
0000
0310
0100
0000
0001
1000
0001
,  // measure 72
2000
0000
3001
0100
0002
0000
0103
0000
,  // measure 73
0010
0000
0100
0000
1000
0000
0000
0000
1010
0000
0000
0110
0000
0000
0101
0000
;
