#TITLE:After Midnight;
#SUBTITLE:;
#ARTIST:ASTRO;
#TITLETRANSLIT:;
#SUBTITLETRANSLIT:;
#ARTISTTRANSLIT:;
#CREDIT:;
#BANNER:After Midnight.png;
#BACKGROUND:After Midnight-bg.png;
#LYRICSPATH:;
#CDTITLE:;
#MUSIC:After Midnight.mp3;
#OFFSET:1.990;
#SAMPLESTART:35.460;
#SAMPLELENGTH:15.000;
#SELECTABLE:YES;
#BPMS:0.000=117.000;
#STOPS:;
#BGCHANGES:3.690=After Midnight.avi=1.000=0=0=0,
99999=-nosongbg-=1.000=0=0=0 // don't automatically add -songbackground-
;

//---------------dance-single - ----------------
#NOTES:
     dance-single:
     :
     Easy:
     5:
     0.213,0.260,0.029,0.102,0.000: // measure 1
0000
0000
0000
0000
,  // measure 2
0000
0000
0000
0000
,  // measure 3
0100
0010
0100
0000
,  // measure 4
0001
0100
0001
0000
,  // measure 5
1000
0010
0100
0000
,  // measure 6
0010
0001
0100
0000
,  // measure 7
1001
0001
1000
0000
,  // measure 8
0001
0100
1000
0100
,  // measure 9
1100
1000
0010
0000
,  // measure 10
0001
0100
0010
0000
,  // measure 11
0002
0103
2000
3010
,  // measure 12
0010
1000
0010
0000
,  // measure 13
0100
0000
0010
0000
,  // measure 14
0100
0000
0001
0000
,  // measure 15
2000
3010
0002
0103
,  // measure 16
0100
0001
0100
0000
,  // measure 17
0010
0000
0100
0000
,  // measure 18
1000
0100
0010
0001
,  // measure 19
1001
0001
0000
0100
,  // measure 20
0000
0010
0000
0100
,  // measure 21
0001
0100
0001
0010
,  // measure 22
0000
1000
0000
0010
,  // measure 23
0000
1000
0000
0010
,  // measure 24
0000
0100
0000
0010
,  // measure 25
1000
0001
0100
0010
,  // measure 26
0000
0100
0000
0010
,  // measure 27
0000
1000
0000
0001
,  // measure 28
0000
0100
0000
0010
,  // measure 29
0200
0000
0000
0000
,  // measure 30
0320
0000
0000
0000
,  // measure 31
0130
0010
1000
0001
,  // measure 32
0100
0001
1000
0010
,  // measure 33
0100
0010
1000
0001
,  // measure 34
1000
0001
1000
0000
0010
0000
0100
0000
,  // measure 35
0020
0130
0010
1000
,  // measure 36
0001
0100
0001
1000
,  // measure 37
0010
0100
0010
0100
,  // measure 38
2000
3010
0002
0103
,  // measure 39
0100
0001
0100
0000
,  // measure 40
0010
0000
0100
0000
,  // measure 41
0010
0000
1000
0000
,  // measure 42
2000
3010
0200
0301
,  // measure 43
0002
0103
2000
3010
,  // measure 44
0010
1000
0010
0000
,  // measure 45
0100
0000
0010
0000
,  // measure 46
0001
0010
0100
1000
,  // measure 47
1001
1000
0000
0010
,  // measure 48
0000
0100
0000
0010
,  // measure 49
1000
0010
1000
0100
,  // measure 50
0000
0001
0000
0100
,  // measure 51
0000
0001
0000
0100
,  // measure 52
0000
0010
0000
0100
,  // measure 53
0001
1000
0010
0100
,  // measure 54
0000
0010
0000
0100
,  // measure 55
0000
0001
0000
1000
,  // measure 56
0000
0010
0000
0100
,  // measure 57
0010
0100
0010
1000
,  // measure 58
0001
0100
0001
0000
,  // measure 59
1000
0010
0100
0010
,  // measure 60
1000
0001
0100
0000
,  // measure 61
0001
0100
0001
1000
,  // measure 62
0010
1000
0010
0000
,  // measure 63
0100
0010
0100
0001
,  // measure 64
0010
0100
1000
0000
,  // measure 65
0000
2000
0000
0000
,  // measure 66
3000
0000
0000
0000
;

//---------------dance-single - ----------------
#NOTES:
     dance-single:
     :
     Beginner:
     2:
     0.166,0.213,0.036,0.051,0.000:
0000
0000
0000
0000
,
0000
0000
0000
0000
,
0001
0000
0001
0000
,
1000
0000
0010
0000
,
1000
0000
0010
0000
,
0100
0100
0100
0000
,
0010
0000
1000
0000
,
0001
0000
1001
1001
,
1001
0000
0100
0000
,
0200
0000
0300
0000
,
0100
0000
0010
0000
,
1000
1000
1000
0000
,
0001
0000
0010
0000
,
0001
0000
1000
0000
,
0010
0000
0100
0000
,
0001
0001
0001
0000
,
1000
0000
0100
0000
,
1000
1000
1000
0000
,
0110
0000
0100
0000
,
0010
0100
0010
0000
,
1000
0000
0001
0000
,
0100
0001
0001
0000
,
1000
0000
0010
0000
,
0100
1000
1000
0000
,
0010
0000
1000
0000
,
0001
0001
1000
0000
,
0002
0003
2000
3000
,
0010
0010
0010
0000
,
0200
0000
0000
0000
,
0300
0000
0000
0000
,
0001
0000
1000
0000
,
0001
0000
0100
0000
,
0010
0000
0100
0000
,
0001
0001
0001
0000
,
1000
0000
0010
0000
,
0100
0000
0001
0000
,
1000
0000
0010
0000
,
1000
0000
0001
0000
,
0010
0000
0100
0000
,
0001
0001
0001
0000
,
1000
0000
0100
0000
,
1000
0000
0001
0000
,
0100
0000
0010
0000
,
1000
1000
1000
0000
,
0001
0000
0010
0000
,
0001
0001
0001
0000
,
0110
0000
0010
0000
,
0100
0010
0100
0000
,
0001
0000
1000
0000
,
0010
1000
1000
0000
,
0001
0000
0100
0000
,
0010
0001
0001
0000
,
0100
0000
0001
0000
,
1000
1000
0001
0000
,
2000
3000
0002
0003
,
0100
0100
0100
0000
,
0010
1000
0010
0000
,
0100
0001
0100
0000
,
0001
0001
0001
0000
,
1000
1000
1000
0000
,
0010
0100
0010
0000
,
1000
0010
1000
0000
,
0001
1000
0001
0000
,
0100
0010
0100
0000
,
0020
0000
0000
0000
,
0030
0000
0000
0000
;

//---------------dance-single - ----------------
#NOTES:
     dance-single:
     :
     Medium:
     9:
     0.328,0.307,0.073,0.153,0.004:
0000
0000
0000
0000
,
0000
0000
0000
0000
0000
0000
0010
1000
,
0010
1000
0000
0000
0000
0001
0100
0001
,
0010
0100
0001
0010
,
1000
0010
1000
0001
,
0100
0000
0001
0000
1000
0000
1000
0100
,
0010
0001
0000
0000
0000
0001
1000
0010
,
1000
0010
0100
0010
,
1000
0001
0100
0001
,
0010
0000
1000
0000
0010
0000
0001
0002
,
0000
0000
1003
2000
0000
3000
1000
0000
,
0010
1000
0001
0100
,
0010
0100
0001
1000
,
2010
0000
3001
0000
0102
0000
1003
2000
,
0000
0000
3001
0002
0000
0003
0001
0000
,
0100
0001
1000
0010
,
0100
0010
1000
0001
,
1000
1001
0010
0110
,
1001
0000
0001
0100
0010
0100
0000
0000
,
0010
0000
1000
0010
0100
0010
0000
0000
,
0100
0010
1000
0001
,
0100
0000
0010
0100
0000
0001
0010
0100
,
1000
0000
1000
0001
0100
0001
0000
0000
,
0100
0000
0010
0100
0001
1000
0000
0000
,
1000
0001
0100
0001
,
1000
0010
1000
0001
0100
0000
1000
0000
,
0020
0130
0200
0310
,
0010
1000
0001
0010
,
0002
0000
0000
2003
0000
0000
0000
3020
,
0000
0000
0000
0230
0000
0000
0000
0000
,
0301
1000
0010
1000
,
0001
0100
0010
0100
,
0001
1000
0010
1000
,
0001
1000
1000
0000
0001
0000
0100
0000
,
0010
0100
0010
0000
0001
0000
1000
0000
,
0010
0100
0001
1000
,
0010
0100
0001
1000
,
0010
0000
1000
0000
0100
0000
1000
2000
,
0000
0000
3001
0002
0000
0003
0001
0000
,
0100
0001
1000
0010
,
0100
0010
1000
0001
,
0102
0000
1003
0000
2010
0000
3001
0002
,
0000
0000
1003
2000
0000
3000
1000
0000
,
0010
1000
0001
0100
,
0010
0100
0001
1000
,
0001
1001
0100
0110
,
1001
0000
1000
0010
0100
0010
0000
0000
,
0100
0000
0001
0100
0010
0100
0000
0000
,
0010
0100
0001
1000
,
0010
0000
0100
0010
0000
1000
0100
0010
,
0001
0000
0001
1000
0010
1000
0000
0000
,
0010
0000
0100
0010
1000
0001
0000
0000
,
0001
1000
0010
1000
,
0001
0100
0001
1000
0010
0000
0001
0000
,
0200
0310
0020
0130
,
0100
0001
1000
0100
,
1000
0010
1000
0010
0100
0000
0010
0000
,
0100
0010
0100
0010
0100
0000
0001
0000
,
0001
1000
0010
1000
0001
0000
0100
0000
,
0001
0010
0100
1000
1000
0000
1000
0000
,
1000
0100
0010
0001
0100
0000
0001
0000
,
0100
0010
1000
0010
0100
0000
0010
0000
,
0100
0001
0010
0001
0100
0000
0001
0000
,
1000
0000
0001
0000
1000
0000
0001
0000
0100
0000
0000
0000
0010
0000
0000
1000
,
0000
0002
0000
0000
0000
0000
0000
0000
,
0003
0000
0000
0000
;

//---------------dance-single - ----------------
#NOTES:
     dance-single:
     :
     Hard:
     13:
     0.455,0.496,0.138,0.196,0.185:
0000
0000
0000
0000
,
0000
0000
0000
0000
0000
0000
0001
0010
,
0100
1000
0000
0000
1000
0001
0100
0001
,
1000
0100
0010
1000
,
0001
0100
0010
1000
0010
0100
0001
1000
,
0010
1000
0001
0001
0100
0000
1000
0100
,
0010
0001
0000
0000
0001
1000
0010
1000
,
0001
1000
0001
0101
,
1000
0001
0010
0001
1000
0010
0100
0010
,
0100
0200
0000
0000
0310
0000
1000
2000
,
0000
3000
0010
0020
0000
0030
0010
1000
,
0010
0000
0000
0100
0000
0000
0101
0000
0000
0000
0000
0000
0001
0000
1000
0000
,
0001
0000
0100
0010
0000
0000
0010
0000
0100
0010
0000
0000
0010
0000
1000
0000
,
2000
0000
3200
0000
0320
0000
0031
0002
,
0000
0003
0100
0200
0000
0300
0100
0001
,
0100
0000
0000
0010
0000
0000
1010
0000
0000
0000
0000
0000
1000
0000
0001
0000
,
1000
0001
0100
0001
1000
0010
1000
0001
,
0100
0000
0000
0000
0100
0000
0000
0000
0010
0000
0000
1001
0000
0000
0010
0000
,
0110
0000
0000
0000
1000
0000
0010
1000
0000
0000
0010
0000
0100
0000
0100
0000
,
0010
0000
0000
0000
0001
0000
1000
0010
0000
0000
0100
0000
0000
0000
1000
0000
,
0010
1000
0001
0100
0001
0000
0100
0020
,
0000
0000
0130
0110
0000
0001
0010
0100
,
1100
0000
0000
0000
1000
0000
0001
0100
0000
0000
0010
0000
0000
0000
0010
0000
,
0010
0000
0000
0000
0010
0000
1000
0010
0000
0000
0100
0000
0000
0000
0010
0000
,
1000
0000
0000
0010
0000
0000
1010
0000
0000
0000
0000
0000
1000
0000
0001
0000
,
0100
0001
1000
0010
0100
0000
0001
0100
,
0010
0000
0000
0100
0000
0000
0001
0000
1000
0000
0000
0010
0000
0000
2000
0000
,
0000
0000
0010
0000
0000
0010
0000
0000
3010
0000
1000
0000
0001
0000
1000
0000
,
1002
0000
0000
0020
0003
0000
0000
0200
,
0030
0000
0000
2000
0300
0000
0010
0000
,
3001
1000
0010
0000
1000
0010
0100
0000
,
0010
0100
0010
0000
1000
0100
0010
0000
,
0001
0100
0010
0000
0010
0001
1000
0000
,
1001
0001
1001
0000
0010
1000
0100
0000
,
0020
0230
0320
0030
1000
0001
1000
0000
,
0010
0100
1000
0000
0100
0010
0001
0000
,
1000
0100
0010
0000
0100
0010
0001
0000
,
1000
0001
1000
0000
0001
0100
0001
0002
,
0000
0003
0100
0200
0000
0300
0100
0001
,
0100
0000
0000
0010
0000
0000
1010
0000
0000
0000
0000
0000
1000
0000
0001
0000
,
1000
0000
0010
0100
0000
0000
0100
0000
0010
0100
0000
0000
0100
0000
0001
0000
,
0002
0000
0023
0000
0230
0000
1300
2000
,
0000
3000
0010
0020
0000
0030
0010
1000
,
0010
0000
0000
0100
0000
0000
0101
0000
0000
0000
0000
0000
0001
0000
1000
0000
,
0001
1000
0010
1000
0001
0100
0001
1000
,
0010
0000
0000
0000
0010
0000
0000
0000
0100
0000
0000
1001
0000
0000
0100
0000
,
0110
0000
0000
0000
0001
0000
0100
0001
0000
0000
0100
0000
0010
0000
0010
0000
,
0100
0000
0000
0000
1000
0000
0001
0100
0000
0000
0010
0000
0000
0000
0001
0000
,
0100
0001
1000
0010
1000
0000
0010
0200
,
0000
0000
0310
0110
0000
1000
0100
0010
,
0011
0000
0000
0000
0001
0000
1000
0010
0000
0000
0100
0000
0000
0000
0100
0000
,
0100
0000
0000
0000
0100
0000
0001
0100
0000
0000
0010
0000
0000
0000
0100
0000
,
0001
0000
0000
0100
0000
0000
0101
0000
0000
0000
0000
0000
0001
0000
1000
0000
,
0010
1000
0001
0100
0010
0000
1000
0010
,
0100
0000
0000
0010
0000
0000
1000
0000
0001
0000
0000
0100
0000
0000
0002
0000
,
0000
0000
0100
0000
0000
0100
0000
0000
0103
0000
0001
0000
1000
0000
0001
0000
,
0000
0000
1000
0010
1000
0000
0010
1000
0010
0000
1000
0010
0000
0000
0001
0100
,
0001
0000
0001
0100
0001
0000
0100
0001
0000
0000
0100
0000
0110
0000
0000
0000
,
0000
0000
0010
1000
0100
0000
0100
1000
0010
0000
0100
0001
0000
0000
0001
0100
,
0010
0000
0010
0100
0001
0000
1000
0010
0000
0000
1000
0000
0100
0000
0010
0000
,
0001
0000
0001
1000
0010
0000
0010
1000
0001
0000
1000
0001
0000
0000
1000
0001
,
0010
0000
0010
0001
1000
0000
0001
1000
0000
0000
0001
0000
1000
0000
0010
0000
,
1000
0000
0010
0100
0010
0000
0100
0010
0100
0000
0010
0100
0000
0000
1000
0001
,
1000
0000
0001
1000
0001
0000
1000
0001
0000
0000
1000
0000
0001
0000
0000
0100
,
0000
0020
0000
0000
0000
0000
0000
0000
,
0030
0000
0000
0000
;
