#TITLE:Abracadabra;
#SUBTITLE:;
#ARTIST:Brown Eyed Girls;
#TITLETRANSLIT:;
#SUBTITLETRANSLIT:;
#ARTISTTRANSLIT:;
#CREDIT:;
#BANNER:Abracadabra.png;
#BACKGROUND:Abracadabra-bg.png;
#LYRICSPATH:;
#CDTITLE:;
#MUSIC:Abracadabra.mp3;
#OFFSET:-0.420;
#SAMPLESTART:45.400;
#SAMPLELENGTH:15.000;
#SELECTABLE:YES;
#BPMS:0.000=128.000;
#STOPS:;
#BGCHANGES:;

//---------------dance-single - ----------------
#NOTES:
     dance-single:
     :
     Hard:
     13:
     0.474,0.522,0.095,0.116,0.178: // measure 1
0000
0000
0000
0000
,  // measure 2
0000
0000
0000
0000
,  // measure 3
0000
0000
0000
0000
,  // measure 4
0000
0000
0000
0000
,  // measure 5
1000
0000
0000
0010
0000
1000
0010
0000
,  // measure 6
0001
0000
0000
0100
0000
0001
1000
0010
,  // measure 7
0001
0000
0000
0100
0000
0010
0100
0000
,  // measure 8
1000
0000
0000
0010
0000
0001
0010
0100
,  // measure 9
1000
0010
0100
0001
0100
0010
1000
0010
,  // measure 10
0100
0000
0010
0100
0010
0000
1000
0001
1000
0000
0001
0000
1000
0000
0010
0000
,  // measure 11
0100
0000
0010
1000
0000
0000
0001
0000
0100
0000
0010
0000
0001
0000
0010
0000
,  // measure 12
0100
1000
0100
1000
0010
0100
0010
1000
,  // measure 13
0001
0100
0010
1000
0010
0100
0001
0100
,  // measure 14
0010
0100
0010
1000
0001
1000
0001
0100
,  // measure 15
0010
0100
0000
0001
0000
0000
1000
0000
0010
0000
0100
0000
1000
0000
0100
0000
,  // measure 16
0010
0000
0000
0101
0000
0010
0100
0000
,  // measure 17
0001
0100
0010
1000
,  // measure 18
0010
0000
0000
0010
0000
0000
0010
0000
0000
0000
0100
0000
0010
0000
0000
0000
,  // measure 19
1000
0100
0010
0002
0000
0003
0000
0000
,  // measure 20
0001
0100
1000
0020
0000
0130
0010
0000
,  // measure 21
1000
0010
0100
0001
,  // measure 22
0010
0000
0000
0010
0000
0000
0001
0000
0000
0000
0100
0000
0001
0000
0000
0000
,  // measure 23
0001
0100
0010
2000
0000
3000
0000
0000
,  // measure 24
1000
0000
0100
0000
0010
0000
0200
0000
0000
0000
0310
0100
0010
0000
0000
0000
,  // measure 25
1020
0130
0210
0301
,  // measure 26
0001
0100
1000
0010
0001
0000
0100
0000
,  // measure 27
0001
1000
0010
0001
0010
1000
0001
0000
,  // measure 28
0100
0010
0100
1000
0100
0010
0100
0000
,  // measure 29
0021
0031
1200
1300
,  // measure 30
1000
0010
0100
0010
0001
0000
0200
0000
,  // measure 31
0000
0000
0301
0000
0100
0000
0001
0000
0000
0000
0100
0010
1000
0000
0010
0000
,  // measure 32
0000
1000
0100
0001
0100
1000
0100
0010
,  // measure 33
1001
0000
0000
0010
0000
0000
0001
0000
0000
0000
0100
0000
0001
0000
0100
0000
,  // measure 34
0010
0000
1000
0010
0000
1000
0010
0000
0000
0000
0100
0000
0001
0000
0010
0000
,  // measure 35
0100
0000
1000
0010
0000
0100
0001
0000
0000
0000
0001
0000
0010
0000
0001
0000
,  // measure 36
1000
0000
0100
1000
0000
0010
1000
0000
0000
0000
0100
0000
0000
0100
0000
0000
,  // measure 37
0001
0000
0010
0000
0001
0000
0100
0010
0000
0100
0010
0000
1000
0000
0000
0000
,  // measure 38
1000
0000
0010
0000
0100
0000
0001
1000
0000
1000
0001
0000
0010
0000
0100
1000
,  // measure 39
0010
0000
0100
0000
0100
0000
0010
0100
0000
0100
0010
0000
0001
0000
0000
0000
,  // measure 40
0001
0000
1000
0010
0100
0000
0001
0010
0000
0100
1000
0000
0010
0000
0000
0000
,  // measure 41
1000
0000
0000
1000
0000
0000
1000
0000
0001
0000
0000
0100
0000
0000
0010
0000
,  // measure 42
0001
0000
0000
0100
0000
0000
0010
0000
0020
0000
0000
0000
0030
0000
0000
0000
,  // measure 43
0100
0000
0000
0100
0000
0000
0100
0000
0010
0000
0000
0001
0000
0000
1000
0000
,  // measure 44
0010
0000
0000
0001
0000
0000
1000
0000
2000
0000
0000
0000
3000
0000
0000
0000
,  // measure 45
0001
0000
0000
0001
0000
0000
0001
0000
0100
0000
0000
0000
0010
0000
0000
0000
,  // measure 46
1000
0000
0000
0010
0000
0000
0001
0000
0100
0000
0000
0000
0010
0000
0000
0000
,  // measure 47
0100
0000
0000
0010
0000
0000
0001
0000
1000
0000
0000
0100
0000
0000
0010
0000
,  // measure 48
1000
0000
0000
0001
0000
0000
0100
0000
0010
0000
0100
0000
0110
0000
0000
0000
,  // measure 49
0100
0000
0001
0100
0000
0100
0001
0000
,  // measure 50
1000
0000
0100
0010
0000
0010
0100
0000
,  // measure 51
0001
0000
0000
0000
1000
0000
0010
1000
0010
0000
0100
0001
0100
0000
0010
0000
,  // measure 52
0001
0000
0100
0000
0001
1000
0001
0000
,  // measure 53
1000
0000
0000
1000
0000
0000
0010
0000
1000
0000
0000
0000
0010
0000
0000
0000
,  // measure 54
0100
0000
0000
0010
0000
0000
0001
0000
0010
0000
0100
0000
0001
0000
0000
0000
,  // measure 55
0010
0000
0000
0100
0000
0000
0010
0000
1000
0000
0000
0000
0010
0000
0000
0000
,  // measure 56
1000
0010
0100
0001
,  // measure 57
0201
0310
0120
1030
,  // measure 58
1000
0010
0001
0100
1000
0000
0010
0000
,  // measure 59
1000
0001
0100
1000
0100
0001
1000
0000
,  // measure 60
0010
0100
0010
0001
0010
0100
0010
0000
,  // measure 61
1200
1300
0021
0031
,  // measure 62
0001
0100
0010
0100
1000
0000
0020
0000
,  // measure 63
0000
0000
1030
0000
0010
0000
1000
0000
0000
0000
0010
0100
0001
0000
0100
0000
,  // measure 64
0000
0001
0010
1000
0010
0001
0010
0100
,  // measure 65
1001
0100
0010
1000
0010
0100
0001
0100
,  // measure 66
0010
0000
0100
0010
0100
0000
0001
1000
0001
0000
1000
0000
0001
0000
0100
0000
,  // measure 67
0010
0000
0100
0001
0000
0000
1000
0000
0010
0000
0100
0000
1000
0000
0100
0000
,  // measure 68
0010
0001
0010
0001
0100
0010
0100
0001
,  // measure 69
1000
0010
0100
0001
0100
0010
1000
0010
,  // measure 70
0100
0010
0100
0001
1000
0001
1000
0010
,  // measure 71
0100
0010
0000
1000
0000
0000
0001
0000
0100
0000
0010
0000
0001
0000
0010
0000
,  // measure 72
0100
0000
0000
1010
0000
0100
0010
0000
;

//---------------dance-single - ----------------
#NOTES:
     dance-single:
     :
     Medium:
     7:
     0.334,0.444,0.080,0.196,0.011:
0000
0000
0000
0000
,
0000
0000
0000
0000
,
0000
0000
0000
0000
,
0000
0000
0000
0000
,
0010
0000
0000
0100
0000
0100
0010
0000
,
1000
0000
0000
0010
0000
0001
0100
1000
,
0001
0000
0000
0100
0000
0100
0001
0000
,
1000
0000
0000
0010
0000
1000
0100
0010
,
0100
0000
0000
0010
0000
0010
0100
0000
,
0001
0000
0000
0100
0000
1000
0010
0001
,
1000
0000
0000
0010
0000
0010
1000
0000
,
0001
0000
0000
0100
0000
0001
0010
0100
,
1000
0000
0000
0001
0000
0001
1000
0000
,
0100
0000
0000
1000
0000
0010
0001
0100
,
0010
0000
0000
0001
0000
0001
0010
0000
,
0100
0000
0000
1000
0000
0100
0001
0000
,
0002
0000
0103
0000
,
0200
0000
0310
0000
,
1000
0100
0010
0001
0000
0000
0000
0000
,
0001
1000
0010
1000
0000
0000
0000
0000
,
0200
0000
0310
0000
,
0020
0000
1030
0000
,
0001
0010
0100
0010
0000
0000
0000
0000
,
1000
0010
0001
0010
0000
0000
0000
0000
,
0202
0303
0220
0330
0010
0000
0100
0000
,
0001
0010
0100
0010
0001
0000
0100
0000
,
0010
0000
1000
0000
0010
1000
0100
0000
,
0010
0000
1000
0000
0001
0100
0010
0000
,
2020
3030
0202
0303
0010
0000
1000
0000
,
1000
0010
0001
0010
1000
0000
0010
0000
,
1000
0010
0100
0010
,
0100
0010
0001
0000
0001
1000
0100
0000
,
1000
1000
0001
0001
,
0100
0010
0010
1000
,
0010
0100
0001
0010
,
0001
0100
0010
1000
,
0100
1000
0010
0100
,
0001
0100
0010
1000
,
0100
0100
1000
0001
,
0100
0010
0001
0200
,
0020
0000
0330
0000
,
2000
0000
3000
0000
,
0002
0000
0003
0000
,
0020
0000
0030
0000
,
0200
0010
0310
0000
,
2000
0010
3010
0000
,
1000
0000
0000
1000
0000
0000
1000
0000
0100
0000
0000
0100
0000
0000
0100
0000
,
0010
0000
0000
0010
0000
0000
0010
0000
0001
0000
0001
0000
0001
0000
0000
0000
,
0101
0000
0000
0010
0000
0100
0010
1000
,
0010
0000
0000
1000
0000
0010
1000
0010
,
0001
0000
0000
1000
0000
1000
0010
0000
,
0100
0000
0000
0010
0000
0100
0010
0001
,
1000
0000
0000
0100
0000
0010
0100
0001
,
0100
0000
0000
0001
0000
0100
0001
0100
,
1000
0000
0000
0001
0000
0001
0100
0000
,
0010
0100
0010
0110
,
2020
3030
0220
0330
0100
0000
0010
0000
,
1000
0100
0010
0100
1000
0000
0010
0000
,
0100
0000
0001
0000
0100
0001
0010
0000
,
0100
0000
0001
0000
1000
0010
0100
0000
,
0202
0303
2020
3030
0100
0000
0001
0000
,
0001
0100
1000
0100
0001
0000
0100
0000
,
0001
0100
0010
0100
,
0010
0100
1000
0000
1000
0001
0010
0000
,
0010
0000
0000
0100
0000
0100
0010
0000
,
1000
0000
0000
0010
0000
0001
0100
1000
,
0001
0000
0000
0100
0000
0100
0001
0000
,
1000
0000
0000
0010
0000
1000
0100
0010
,
0001
0000
0000
1000
0000
1000
0001
0000
,
0010
0000
0000
0001
0000
0100
1000
0010
,
0100
0000
0000
1000
0000
1000
0100
0000
,
0010
0000
0000
0001
0000
0010
1001
0000
;

//---------------dance-single - ----------------
#NOTES:
     dance-single:
     :
     Easy:
     5:
     0.251,0.313,0.073,0.175,0.000:
0000
0000
0000
0000
,
0000
0000
0000
0000
,
0000
0000
0000
0000
,
0000
0000
0000
0000
,
0000
0001
0100
0001
,
0000
1000
0010
1000
,
0000
0010
0100
0001
,
0000
1000
0100
0010
,
0000
0001
1000
0001
,
1000
0010
0100
0010
,
1000
0001
1000
0001
,
0100
0010
0100
0010
,
0000
0010
0100
0010
,
0100
0001
1000
0001
,
1000
0010
0100
0010
,
0100
0000
0000
0010
0000
0000
0000
0000
,
2000
3000
0020
0030
,
1000
0001
0100
0000
,
0001
0010
0001
0000
,
0100
0010
1000
0000
,
0002
0003
0020
0030
,
0001
0100
1000
0000
,
1000
0100
0010
0000
,
0100
0010
0001
0000
,
0021
0031
2001
3001
,
0001
0010
0100
1000
,
0000
0010
0100
0010
,
0000
0100
1000
0100
,
2010
3010
0120
0130
,
0010
1000
0010
0200
,
0000
0300
0000
0010
,
0000
0100
0010
0010
,
0001
0000
1000
0000
,
0001
0000
0100
0000
,
0010
0000
1000
0000
,
0100
0000
1000
0000
,
0010
0100
0010
1000
,
0010
0100
0001
0010
,
0001
0100
0010
1001
,
0000
1000
0100
0100
,
2000
0000
3020
0000
,
2030
0000
3002
0000
,
0203
0000
0302
0000
,
0023
0000
0032
0000
,
0103
0001
0100
0000
,
0010
1000
0001
0000
,
0100
0010
0100
0000
,
0010
0100
1000
0000
,
0001
0100
0001
1000
,
0010
0000
0100
0010
,
1000
0000
0010
1000
,
2002
3003
0000
0010
,
0000
0100
0000
0001
,
0000
0010
0000
0100
,
0000
0010
0000
1000
,
0000
0010
0000
1000
,
1200
1300
1002
1003
,
1000
0100
0010
0001
,
0000
0100
0010
0100
,
0000
0010
0001
0010
,
0102
0103
0210
0310
,
0100
0001
0100
0020
,
0000
0030
0000
0100
,
0000
0010
0100
0100
,
0000
1000
0001
1000
,
0001
0100
0010
0100
,
0001
1000
0001
1000
,
0010
0100
0010
0100
,
0000
0100
0010
0100
,
0010
1000
0001
1000
,
0001
0100
0010
0100
,
0010
0000
0000
0100
0000
0010
0010
0000
;

//---------------dance-single - ----------------
#NOTES:
     dance-single:
     :
     Beginner:
     2:
     0.164,0.157,0.029,0.087,0.000:
0000
0000
0000
0000
,
0000
0000
0000
0000
,
0000
0000
0000
0000
,
0000
0000
0000
0000
,
0000
0010
0000
0100
,
0000
0010
0000
0100
,
0000
0001
0000
1000
,
0000
0001
0000
1000
,
0000
0001
0001
0001
,
0000
1000
1000
1000
,
0000
0010
0010
0010
,
0000
0100
0100
0100
,
0000
0010
0010
0010
,
0000
0001
0001
0001
,
0000
0100
0100
0100
,
0000
1000
1000
1000
,
0000
0010
0000
1000
,
0000
0001
0000
0001
,
0000
0002
0000
0003
,
0000
2000
0000
3000
,
0000
0010
0000
0001
,
0000
0100
0000
0010
,
0000
2000
0000
3000
,
0000
0020
0000
0030
,
0000
0010
0010
0010
,
0000
0100
0100
0100
,
0000
0010
0000
1000
,
0000
0001
0000
0100
,
0000
0001
0001
0001
,
0000
1000
1000
1000
,
0000
0010
0000
1000
,
0000
0001
0000
0100
,
0000
0010
0000
0110
,
0000
0010
0000
1000
,
0000
0001
0000
0100
,
0000
0001
0000
0100
,
0000
0010
0010
0010
,
0000
0010
0010
0010
,
0000
1000
1000
1000
,
0000
1000
1000
1000
,
0000
2000
0000
3000
,
0000
0020
0000
0030
,
0000
0002
0000
0003
,
0000
0200
0000
0300
,
0000
2000
0000
3000
,
0000
0020
0000
0030
,
0000
0002
0000
0003
,
0000
0000
0000
1001
,
0000
0010
0000
0001
,
0000
1000
0000
0100
,
0000
1000
0000
0010
,
0000
0001
0000
0010
,
0000
0001
0000
0100
,
0000
0010
0000
1000
,
0000
0100
0000
1000
,
0000
0001
0001
0002
,
0000
0000
0000
0003
,
0000
0010
0010
0010
,
0000
0100
0000
0001
,
0000
1000
0000
0010
,
0000
1000
1000
1000
,
0000
0001
0001
0001
,
0000
0100
0000
0001
,
0000
1000
0000
0010
,
0000
0100
0000
0110
,
0000
0100
0000
0001
,
0000
1000
0000
0010
,
0000
1000
0000
0010
,
0000
0100
0000
0010
,
0000
1000
0000
0001
,
0000
0010
0000
0100
,
0000
1000
0000
1001
;
